#TITLE:Pizza Rolls;
#SUBTITLE:;
#ARTIST:sssShawnnnn;
#TITLETRANSLIT:;
#SUBTITLETRANSLIT:;
#ARTISTTRANSLIT:;
#GENRE:;
#CREDIT:;
#BANNER:Pizza Rolls-bn.png;
#BACKGROUND:Pizza Rolls-bg.png;
#LYRICSPATH:;
#CDTITLE:loodeecdtitle.png;
#MUSIC:Pizza Rolls.ogg;
#OFFSET:-0.142;
#SAMPLESTART:33.948;
#SAMPLELENGTH:19.929;
#SELECTABLE:YES;
#BPMS:0.000=110.000;
#STOPS:;
#BGCHANGES:;
#KEYSOUNDS:;

//---------------dance-single - Loodee----------------
#NOTES:
     dance-single:
     Loodee:
     Easy:
     6:
     0.790,0.776,0.325,1.000,0.049:
0000
0000
0000
0000
,
0000
0000
0000
0000
,
0000
0000
0000
0000
,
0000
0000
0000
0000
,
1000
0000
0010
0100
0010
0000
0010
1000
,
0001
0000
1000
0100
1000
0000
1000
0100
,
0010
0000
0001
1000
0001
0000
0001
0100
,
0010
0000
1000
0001
0020
0000
0001
0000
,
0130
0000
0000
0000
1000
0000
0020
0000
0000
0000
0000
0000
0130
0000
0000
0001
,
0000
1000
0000
0000
0001
0000
0000
0000
0010
0000
0000
0000
0100
0000
1000
0000
,
0020
0000
0000
0000
0130
0000
0020
0000
0000
0000
0000
0000
1030
0000
0000
0001
,
0000
1000
0000
0000
0100
0000
0000
0000
2000
0000
0000
0000
0000
0000
0000
0000
,
3001
0000
0000
0001
1000
0000
1000
0000
,
1001
0000
0000
0001
0100
0000
0100
0000
,
0101
0001
1000
0001
1000
0100
1000
1000
,
1010
0000
0000
0000
0000
0000
0010
0010
,
1001
0000
0001
0001
0010
0200
0310
0000
,
0001
1000
0020
2030
3002
0003
0020
0030
,
0100
0100
0100
1000
0001
0000
0101
0000
,
0200
0000
0320
0000
2030
0000
3001
0001
,
0001
0000
1000
1000
0010
0200
0301
0000
,
1000
0100
0020
0032
2003
3000
0020
0030
,
1000
1000
1000
0001
0010
0000
0011
0000
,
0020
0000
0230
0000
2300
0000
3010
0010
,
0210
0000
0301
0001
1000
0000
1100
0000
,
0100
1000
0001
1000
0020
0000
0032
0000
,
0013
0100
0010
1000
0002
0003
1001
0000
,
0001
0001
0100
0100
0010
2000
3000
0002
,
2003
0000
3100
0100
0010
0000
1001
0000
,
0001
0100
0010
1000
0200
0000
0302
0000
,
0103
0010
0100
1000
0002
0003
0101
0000
,
0200
0000
0320
0000
2030
3000
1001
0000
,
0021
0000
0130
0100
0000
0000
1100
0000
,
0000
0001
0002
2003
3020
0030
0200
0300
,
0002
0003
0002
0003
1000
0000
0000
0001
,
1000
0001
0100
0001
2000
3000
0200
0300
,
1200
0000
0310
0010
0000
0000
0011
0000
,
0000
1000
2000
3002
0203
0300
0020
0030
,
2000
3000
2000
3000
0001
0000
0000
1000
,
0001
0010
0100
1000
0200
0300
0020
0030
,
2001
0000
3010
0010
0000
0000
0101
0000
,
0000
0001
0002
0023
0032
0003
0200
0300
,
0020
0030
0020
0030
1000
0000
0000
0100
,
0010
0001
0010
0100
2000
3000
0002
0003
,
1020
0000
0130
0100
0000
0000
1010
0000
,
0000
1000
2000
3200
0320
0030
0002
0003
,
0200
0300
0200
0300
0001
0000
0000
1000
,
0001
0010
0100
0010
0002
0003
2000
3000
,
0010
0000
0000
0000
0000
0000
0010
0000
0000
0100
0000
0000
0010
0000
0000
0000
,
1000
0000
0000
0000
0000
0000
1000
0000
0000
0001
0000
0000
1000
0000
0000
0000
,
0100
0000
0010
0001
1000
0000
1000
0000
,
0010
0000
0100
0001
2000
0001
0001
0001
,
3200
0000
0000
0000
,
0300
0000
0000
0000
;

//---------------dance-single - Loodee----------------
#NOTES:
     dance-single:
     Loodee:
     Medium:
     8:
     1.000,1.000,0.211,0.975,0.545:
0000
0000
0000
0000
,
0000
0000
0000
0000
,
0000
0000
0000
0000
,
0000
0000
0000
0011
,
0001
0000
0000
1000
0001
0000
0100
0000
0010
0000
0000
1000
0010
0000
1000
0000
,
0100
0000
0000
0010
0100
0000
0010
0000
0001
0000
0000
0100
0001
0000
0100
0000
,
0010
0000
0000
1000
0010
0000
1000
0000
0100
0000
0000
1000
0100
0000
0010
0000
,
0001
0000
0000
0100
0001
0000
0010
0000
0100
1000
0100
1000
0000
0001
0000
0000
,
0200
0000
0000
0000
0301
1000
0002
0000
0000
0000
0000
0000
1003
0000
0000
1000
,
0000
0001
0000
0000
1000
0000
0000
0010
0000
0100
0000
0000
0001
0000
1000
0000
,
0200
0000
0000
0000
1300
0100
2000
0000
0000
0000
0000
0000
3001
0000
0000
0100
,
0000
0010
0000
0000
1000
0000
0000
0000
0001
0010
0001
0010
0000
0000
0000
0000
,
0100
0000
0000
1000
0000
0000
0001
0000
0000
0100
0000
0000
0010
0000
0000
1000
,
0001
0000
0000
1000
0000
0000
0100
0000
0000
0010
0000
0000
0100
0000
0000
1000
,
0001
0000
0100
0000
0001
0000
0100
0000
0010
0000
1000
0000
0100
1000
0100
1000
,
0001
0000
0000
0000
0000
0000
0000
0000
0000
0000
0000
0000
1000
0001
1000
0001
,
0020
0000
0000
0000
0130
0000
0100
0000
1000
0000
0002
0000
0103
0000
0010
1000
,
0010
0100
0001
1000
0200
0310
0200
1300
,
0001
0010
0001
0010
0001
0000
0100
0000
0010
0000
0100
0000
1000
0000
0100
0000
,
0002
0000
0000
0000
0000
0000
0000
0000
2003
0000
0000
0000
0000
0000
0000
0000
3200
0000
0000
0000
0000
0000
0000
0300
1001
0000
0000
0000
1001
0000
0000
0000
,
0201
0000
0000
0000
0310
0000
0010
0000
1000
0000
0200
0000
0310
0000
0100
1000
,
0100
1000
0001
0100
0020
1030
0020
0130
,
0001
1000
0001
1000
0001
0000
0010
0000
0100
0000
0010
0000
1000
0000
0010
0000
,
0200
0000
0000
0000
0320
0000
0000
0000
0032
0000
0000
0000
1003
0010
1000
0010
,
2000
0000
0000
0000
3001
0000
0001
0000
0001
0000
0000
0000
0100
0010
0100
0000
,
0001
0000
0000
1000
0100
0000
2000
0000
3001
0000
0100
0000
1000
0000
0100
0000
,
0001
1000
0100
1000
0200
0000
2300
0000
3001
0000
0100
0000
0002
0000
2003
0000
,
3100
0010
0011
0001
1000
0020
0130
0020
,
2030
0000
0000
0000
3100
0000
0100
0000
0100
0000
0000
0000
0010
0001
1000
0000
,
0010
0000
0000
0100
0010
0000
2000
0000
3001
0000
0010
0000
1000
0000
0010
0000
,
0001
1000
0001
1000
0010
0000
0200
0000
0301
0000
0100
0000
0002
0000
2003
0000
,
3100
1000
1100
0100
1000
0010
0110
0000
,
1002
0000
0103
0100
0100
0000
1010
0000
,
0000
0000
1000
0001
1000
0000
0100
0000
0020
0000
0130
0000
2000
0000
3100
0000
,
2000
0000
3010
0000
2000
0000
3010
0000
0100
0001
0000
0000
0000
0000
1000
0000
,
0100
0010
0001
0010
0200
1300
0020
1030
,
0002
0000
0013
0010
0010
0000
1001
0000
,
0000
0000
1000
0100
1000
0000
0001
0000
0200
0000
0310
0000
2000
0000
3010
0000
,
0200
0000
0301
0000
0200
0000
0301
0000
1000
0001
0000
0000
0000
0000
0010
0000
,
0100
1000
0100
1000
0002
0103
0020
0130
,
2010
0000
3001
0001
0001
0000
0011
0000
,
0000
0000
0010
0100
1000
0000
0001
0000
0200
0000
0310
0000
2000
0000
3010
0000
,
2000
0000
3001
0000
2000
0000
3001
0000
0010
0100
0000
0000
0000
0000
1000
0000
,
0010
0100
0001
0100
0020
1030
0200
1300
,
0002
0000
1003
1000
1000
0000
1100
0000
,
0000
0000
0100
1000
0001
0000
1000
0000
0020
0000
0130
0000
0002
0000
0103
0000
,
0020
0000
1030
0000
0020
0000
1030
0000
0001
0010
0000
0000
0000
0000
0100
0000
,
1000
0001
1000
0010
0200
0310
0200
0301
,
1000
0000
0000
0001
0000
0000
1000
0000
0000
0100
0000
0000
0010
0000
0000
0001
,
0100
0000
0000
0010
0000
0000
1000
0000
0000
0010
0000
0000
1000
0000
0000
0100
,
0010
0000
0000
0001
1000
0000
0010
0000
0100
0000
0000
0001
0100
0000
0001
0000
,
1000
0000
0000
0100
1000
0000
0100
0000
0010
0001
0010
0001
0010
0001
0010
0100
,
2000
0000
0000
0000
,
3000
0000
0000
0000
;

//---------------dance-single - Loodee----------------
#NOTES:
     dance-single:
     Loodee:
     Hard:
     10:
     1.000,1.000,0.276,1.000,1.000:
0000
0000
0000
0000
,
0000
0000
0000
0000
,
0000
0000
0000
0000
,
0000
0000
0000
0000
0000
0000
0000
0000
0000
0000
0000
0000
0000
0000
0001
1000
0001
0000
0010
0000
0100
0000
1000
0000
1200
0000
0000
0000
0320
0000
0000
0000
,
0031
0100
0010
1000
0010
0100
0001
0010
0001
0010
0100
0010
0001
0100
0001
1000
,
0010
0100
0010
1000
0100
0010
0001
0010
0001
0100
0001
1000
0001
0100
0010
0100
,
0001
0010
0100
1000
0100
0010
0001
0100
0001
0010
0001
0100
0001
1000
0010
0100
,
0010
0000
1000
0000
0100
0000
0010
0000
0100
0000
1000
0000
0010
0000
0100
0000
0001
0000
0100
M00M
0100
0000
1000
0000
0100
M00M
0100
0000
0001
0000
1000
0000
,
0200
0000
0000
0300
0010
0100
2000
0000
0000
0000
0000
0000
3010
0100
0001
0100
,
0000
0010
0000
0100
1000
0000
0100
0010
0000
1000
0000
0100
1000
0000
0010
0200
,
0000
0000
0000
0300
0001
0100
0002
0000
0000
0000
0000
0000
0013
0100
0010
0001
,
0000
0000
0010
0000
0000
0000
0100
0000
0001
0000
0000
0000
0100
0000
1000
0000
0001
0000
0010
M00M
0010
0000
1000
0000
0010
M00M
0010
0000
0001
0000
0100
0000
,
0001
0000
0000
1000
0000
0000
1000
0000
0100
1000
0000
0000
0010
0000
0000
0010
,
0100
0000
0000
0001
0000
0000
0001
0000
1000
0001
0000
0000
0010
0000
0000
0010
,
0100
0000
1000
0010
0100
0000
0001
0000
1000
0001
0100
0000
0001
1000
0100
1000
,
0100
0000
0000
0000
0000
0000
0000
0000
0000
0000
0010
0010
0001
1000
0001
1000
,
0020
0000
0000
0000
0130
0000
0100
0000
0001
0000
0000
0000
0001
0000
0000
0000
1000
0000
0100
0000
0020
0000
0000
0030
1001
0000
0000
0000
0001
0000
0010
0000
,
0100
0010
1000
0010
0400
0000
0340
0000
0032
0000
0103
0100
0020
0000
0130
0100
,
0001
0000
0001
0000
0001
0000
0001
0000
0001
0000
0000
0000
2000
0000
0000
3000
0001
0000
1000
0000
0100
0000
0010
0000
0001
0000
0010
0000
0100
0000
1000
0000
,
0020
0000
0000
0000
0032
0000
0000
0000
0013
0100
0000
0010
1010
0000
1010
0000
,
1002
0000
0000
0000
0013
0000
0010
0000
0100
0000
0000
0000
0100
0000
0000
0000
0010
0000
0001
0000
0200
0000
0000
0300
1010
0000
0000
0000
1000
0000
0100
0000
,
0010
0100
0001
0100
4000
0000
3040
0000
0230
0000
0301
0001
2000
0000
3001
0001
,
0010
0000
0010
0000
0010
0000
0010
0000
0010
0000
0000
0000
0002
0000
0000
0003
0100
0000
0010
0000
1000
0000
0010
0000
0100
0000
0001
0000
0100
0000
0010
0000
,
1000
0000
0100
0000
0110
0000
0010
0000
0001
0000
1000
0010
0100
0001
0100
0001
,
2000
0000
3100
0100
0010
0000
0010
0000
0100
1000
0001
0000
0100
0010
1000
0000
,
0001
0000
0010
0000
0001
0000
0100
0000
0001
0000
0010
0000
0002
0000
0000
0000
1003
0010
1000
0010
1000
0000
0002
0000
0013
0000
0100
0000
0010
0000
0001
0000
,
1000
0010
1000
0100
0010
0000
0010
0000
0002
0000
1003
1000
0020
0000
0230
0000
,
0301
1000
0001
1000
0001
0000
0020
0000
0130
0000
0010
0000
0002
0000
0000
0000
1003
0000
0000
0000
0200
0000
0000
0000
0301
0000
0000
0000
0200
0000
0000
0000
,
2300
0000
3001
0001
0100
0000
0100
0000
0010
1000
0001
0000
0010
0100
1000
0000
,
0010
0000
1000
0000
0100
0000
1000
0000
0010
0000
0100
0000
0002
0000
0000
0000
0013
0100
0010
0100
0010
0000
0002
0000
1003
0000
0010
0000
0100
0000
0001
0000
,
1000
0100
0010
0001
1000
0000
1000
0000
0020
0000
0130
0100
0020
0000
2030
0000
,
3001
0000
0000
0000
0000
0000
0010
0000
0100
0000
0000
0000
1000
0000
0001
0100
0001
0000
1000
0000
0001
0000
0010
0000
0100
0000
0000
0000
0000
0000
0000
0000
,
1002
0000
0103
0010
1000
0000
1000
0000
0100
0010
0100
0000
2100
0000
3001
0100
,
0010
0100
0001
0001
4000
0000
3400
0000
0320
0000
0130
0100
2000
0000
3001
0001
,
0400
0000
0301
0010
0400
0000
0310
0001
1000
0010
0000
0000
0200
0000
0310
0000
,
1000
0000
0001
0000
1000
0000
0100
0000
0120
0000
0031
0001
2000
0000
3001
0001
,
0200
0000
0310
0100
0001
0000
0001
0000
0010
0100
1000
0000
1200
0000
0310
0001
,
0100
0001
1000
1000
0040
0000
0430
0000
0302
0000
0103
0100
0020
0000
1030
1000
,
0040
0000
1030
0100
0040
0000
0031
0100
0001
0010
0000
0000
0200
0000
1300
0000
,
0100
0000
0010
0000
0001
0000
0100
0000
1020
0000
0130
0100
0002
0000
0103
0100
,
0020
0000
0130
0001
1000
0000
1000
0000
0100
0010
0001
0000
0021
0000
0130
1000
,
0010
0100
0001
0001
4000
0000
3004
0000
0203
0000
0310
0010
2000
0000
3001
0001
,
0040
0000
0031
1000
0040
0000
1030
0001
0010
0100
0000
0000
0020
0000
0031
0000
,
1000
0000
0010
0000
1000
0000
0100
0000
2100
0000
3001
0001
0200
0000
0301
0001
,
2000
0000
3100
0010
0001
0000
0001
0000
0010
0100
0010
0000
1002
0000
0103
0001
,
0100
0010
0100
0100
0004
0000
4003
0000
3200
0000
0310
0010
0200
0000
1300
1000
,
0400
0000
1300
0001
0400
0000
0301
0010
0001
1000
0000
0000
0200
0000
1300
0000
,
0001
0000
0100
0000
0010
0000
0100
0000
0102
0000
1003
1000
0020
0000
1030
1000
,
0001
0010
0001
0010
0100
0010
0001
1000
0010
0100
0010
1000
0001
1000
0001
0010
,
0100
1000
0100
0010
0100
0010
0001
0100
0010
1000
0010
0100
0001
0100
0010
1000
,
0100
0010
0001
0100
0010
0100
0001
0010
0100
1000
0100
1000
0001
0100
0001
0100
,
0010
1000
0010
0100
0001
1000
0100
0010
0001
1000
0001
1000
0010
0100
0010
1000
,
2002
0000
0000
0000
,
3003
0000
0000
0000
;
