#TITLE:No Tears;
#SUBTITLE:;
#ARTIST:RoughSketch feat.Aikapin;
#TITLETRANSLIT:;
#SUBTITLETRANSLIT:;
#ARTISTTRANSLIT:;
#GENRE:;
#CREDIT:;
#BANNER:No Tears.png;
#BACKGROUND:No Tears-bg.png;
#LYRICSPATH:;
#CDTITLE:cdtitle.png;
#MUSIC:No Tears.ogg;
#OFFSET:-0.530000;
#SAMPLESTART:38.629860;
#SAMPLELENGTH:12.000000;
#SELECTABLE:YES;
#BPMS:0.000000=170.000000
;
#STOPS:
;
#BGCHANGES:;
#KEYSOUNDS:;
#ATTACKS:;

//---------------dance-single - ----------------
#NOTES:
     dance-single:
     :
     Hard:
     9:
     0.570692,0.603355,0.023592,0.102230,0.157277,492.000000,3.000000,13.000000,0.000000,0.000000,0.000000,0.570692,0.603355,0.023592,0.102230,0.157277,492.000000,3.000000,13.000000,0.000000,0.000000,0.000000:
// measure 0
0000
0000
0000
0000
,  // measure 1
0000
0000
0000
0000
,  // measure 2
0000
0000
0000
0000
,  // measure 3
0000
0000
0000
0000
,  // measure 4
0000
0000
0000
0000
,  // measure 5
1000
0000
0001
0000
1000
0000
0001
0010
,  // measure 6
0100
0000
1000
0000
0010
0100
0000
0001
,  // measure 7
1000
0000
0100
0000
1000
0000
0100
0010
,  // measure 8
0002
0000
0000
0000
,  // measure 9
1003
0000
0000
1000
0000
0000
0010
0000
0000
0100
0001
0000
0010
0000
0100
0000
,  // measure 10
1000
0000
0000
0001
0000
0000
0200
0000
0000
0000
0000
0000
0000
0000
0000
0000
,  // measure 11
0310
0000
0000
0010
0000
0000
0100
0000
0000
0001
1000
0000
0010
0000
0100
0000
,  // measure 12
0001
0000
0000
0001
0000
0000
1000
0000
0000
1000
0000
0000
0010
0000
0000
0000
,  // measure 13
0110
0000
0100
0000
0001
0000
0010
1000
,  // measure 14
0010
0000
0100
0000
1000
0000
0010
0001
,  // measure 15
0010
0000
0100
0000
0001
0000
1000
0100
,  // measure 16
0020
0000
0000
0000
,  // measure 17
0031
0100
0001
0010
1000
0000
0000
0010
,  // measure 18
0001
0100
0001
0020
0000
0000
0000
0000
,  // measure 19
0130
1000
0001
0100
1000
0000
0000
0100
,  // measure 20
0010
1000
0100
0010
0001
0100
0020
0000
,  // measure 21
1030
0001
1000
0010
0001
0000
0000
0010
,  // measure 22
0100
0000
0000
0100
0000
0000
0010
0000
0000
0010
0000
0000
2000
0000
0000
0000
,  // measure 23
3001
0100
1000
0100
0010
0000
0000
1000
,  // measure 24
0100
0010
0001
0100
0010
0000
0100
0001
,  // measure 25
1000
0100
0001
1000
0010
0000
0000
0100
,  // measure 26
1000
0000
0000
0100
0000
0000
0010
0000
0000
0001
0000
0000
0100
0000
0000
0000
,  // measure 27
0110
0000
0010
0000
1000
0100
0010
0100
,  // measure 28
0000
1000
0010
0001
0010
0100
0001
1000
,  // measure 29
0100
0000
0010
0000
0100
1000
0010
0001
,  // measure 30
0000
0010
0100
0000
0001
0000
1000
0100
,  // measure 31
0010
0001
0100
0010
,  // measure 32
1000
0000
0100
0010
0001
0100
0010
1000
,  // measure 33
0001
0010
1000
0010
0000
0100
0000
1000
,  // measure 34
0000
0001
0010
0100
1000
0001
1000
0001
,  // measure 35
0100
0010
1000
0100
0010
0100
1000
0001
,  // measure 36
0100
0010
0100
0001
1000
0000
0100
0010
,  // measure 37
0001
1000
0001
1000
0010
0100
0001
0100
,  // measure 38
0000
0010
1000
0001
0010
0100
1000
0000
,  // measure 39
0010
0001
0010
0000
0100
0000
0001
0010
,  // measure 40
0100
0000
1000
0000
0001
0100
1000
0100
,  // measure 41
0010
0000
1000
0001
0000
0010
0000
0100
,  // measure 42
1000
0100
0010
0001
0100
0010
1000
0001
,  // measure 43
0020
0000
0000
0000
,  // measure 44
0130
0000
1000
0000
,  // measure 45
0001
0000
0000
0000
0000
0100
0000
0000
0010
0000
1000
0000
0001
0000
0010
0000
,  // measure 46
0110
0100
1000
0100
,  // measure 47
0010
0000
0000
0000
0001
0000
0000
0000
0001
0100
0001
0100
0001
0000
0000
0010
,  // measure 48
0100
0000
0100
0000
0100
0000
1000
0001
,  // measure 49
0010
0100
1000
0010
0100
0001
1000
0001
,  // measure 50
0000
0100
0010
1000
0000
0001
0010
0100
,  // measure 51
1000
0010
0001
0010
1000
0100
0001
0100
,  // measure 52
1000
0010
1000
0100
0010
0001
0010
0100
,  // measure 53
1000
0001
1000
0010
0100
0001
0100
0010
,  // measure 54
1000
0001
0100
0001
0010
0100
1000
0001
,  // measure 55
0100
0000
0010
0000
0100
0000
0001
0000
1000
0000
0100
0000
0010
0001
0010
0000
,  // measure 56
0100
0000
1000
0100
0000
0010
0100
1000
,  // measure 57
0000
0000
0001
0000
0010
0100
1000
0100
,  // measure 58
0010
0001
0010
0001
0100
0010
0100
0010
,  // measure 59
1000
0100
1000
0000
0200
0000
0000
0000
0000
0000
0000
0000
0000
0000
0000
0000
,  // measure 60
0310
0000
0000
0010
0000
0000
0001
0000
0000
0000
0100
0000
0010
1000
0010
0000
,  // measure 61
0100
0000
0000
0001
0000
0000
0200
0000
0000
0000
0000
0000
0000
0000
0000
0000
,  // measure 62
0301
0000
0000
0001
0000
0000
1000
0000
0000
0000
0100
0000
0010
0001
0010
0000
,  // measure 63
0100
0000
0000
1000
0000
0000
0100
0000
0000
0010
0000
0000
0001
0000
0000
0000
,  // measure 64
1000
0010
1000
0010
,  // measure 65
0100
0001
0100
0001
,  // measure 66
0010
0100
0010
0100
1000
0001
1000
0001
,  // measure 67
0200
0000
0000
0000
,  // measure 68
0310
0000
1000
0001
1000
0000
0100
0000
0010
0000
0001
0000
0100
0000
0010
0000
,  // measure 69
1000
0001
0100
0010
0001
0010
0100
0001
,  // measure 70
1000
0100
0010
0001
0100
0010
1000
0001
,  // measure 71
0100
0000
0010
1000
0010
0000
0100
0001
0100
0000
0010
0000
2000
0000
0000
0000
,  // measure 72
3100
0010
0100
1000
0010
0001
0010
0100
,  // measure 73
0001
0010
1000
0010
0001
0100
0001
1000
,  // measure 74
0001
0000
0010
0000
0100
0000
1000
0001
1000
0000
0010
0100
0010
0100
0001
1000
,  // measure 75
0002
0000
0000
0000
,  // measure 76
1003
0000
0010
0100
0010
0000
1000
0000
0001
0000
0010
0000
1000
0000
0010
0000
,  // measure 77
0100
1000
0010
0001
0010
0100
0001
1000
,  // measure 78
0001
0010
0100
1000
0001
0010
1000
0010
,  // measure 79
0001
0100
1000
0100
0001
0010
0100
1000
,  // measure 80
0010
0100
0010
1000
0001
0010
0100
1000
,  // measure 81
0001
0100
0010
1000
0001
0010
0100
1000
,  // measure 82
0001
0000
0100
0000
0001
0000
0010
0000
0100
0010
0100
0010
0100
0010
0100
0010
,  // measure 83
0100
0000
0000
1000
0000
0000
0001
0000
0000
0100
0000
0000
0010
0000
0000
0000
,  // measure 84
2000
0000
0000
0000
,  // measure 85
3001
0010
0100
1000
0001
0000
0000
0000
0000
0000
0000
0000
0000
0000
0000
0000
;

//---------------dance-single - ----------------
#NOTES:
     dance-single:
     :
     Medium:
     6:
     0.426895,0.469276,0.047183,0.070775,0.066843,365.000000,6.000000,9.000000,0.000000,0.000000,0.000000,0.426895,0.469276,0.047183,0.070775,0.066843,365.000000,6.000000,9.000000,0.000000,0.000000,0.000000:
0000
0000
0000
0000
,
0000
0000
0000
0000
,
0000
0000
0000
0000
,
0000
0000
0000
0000
,
0000
0000
0000
0000
,
1000
0001
1000
0001
,
0100
0001
0100
0001
,
0010
0000
0100
0000
0010
0000
0100
1000
,
0200
0000
0000
0000
,
0310
0000
0000
0001
0000
0000
0010
0000
0000
0000
0100
0000
1000
0000
0100
0000
,
0010
0000
0000
0001
0000
0000
0100
0000
0000
0000
0000
0000
0000
0000
0000
0000
,
0010
0000
0000
1000
0000
0000
0010
0000
0000
0000
0100
0000
0001
0000
0010
0000
,
0100
0000
0000
1000
0000
0000
0001
0000
0000
1000
0000
0000
0010
0000
0000
0000
,
0100
0001
0100
0001
,
0010
0100
0010
0100
,
1000
0000
0001
0000
1000
0000
0001
0010
,
0200
0000
0000
0300
,
1100
0000
1000
0000
0001
0000
0000
0100
,
0000
0001
0010
0200
0000
0000
0300
0000
,
0110
0100
1000
0001
,
0100
0000
0010
0000
1000
0000
0001
0010
,
0001
0100
0010
0100
,
0001
0000
0000
1000
0000
0000
0001
0000
0000
0100
0000
0000
0010
0000
1000
0000
,
0020
0130
0001
0100
,
0010
0000
1000
0000
0001
0000
0010
0100
,
0010
0100
1000
0001
,
1000
0000
0000
0001
0000
0000
0010
0000
0000
0100
0000
0000
1000
0000
0001
0000
,
1000
0100
0010
0001
,
0100
0000
0010
0000
1000
0000
0001
0010
,
0100
0001
0100
0010
,
0100
0000
1000
0000
0001
0000
0100
0010
,
1000
0100
0010
0001
,
0100
0010
1000
0001
,
0100
0010
0100
0001
0000
1000
0000
0100
,
0000
0010
0001
1000
0100
0010
0100
1000
,
0001
0000
0100
0000
0001
0000
0010
0100
,
1000
0000
0001
0000
0010
0000
0100
1000
,
0100
0010
0001
0100
,
0000
0010
1000
0000
0001
0000
1000
0000
,
0100
0010
0001
0000
0100
0000
0010
0000
,
1000
0000
0001
0000
0100
0000
0010
1000
,
0010
0000
0100
0001
0000
0010
0000
0100
,
1000
0010
0100
0001
0010
0100
1000
0010
,
0200
0000
0000
0000
,
0300
0000
0000
0000
,
0000
0000
0000
0000
0000
0000
0000
0010
,
0110
0000
0000
0000
,
0000
0000
0000
0000
0001
0010
0100
0000
,
1100
1000
0001
1000
,
0001
0010
0100
0000
0010
0000
0100
1000
,
0000
0001
0100
0010
0000
1000
0001
1000
,
0001
0010
0100
1000
,
0010
0100
0001
0100
,
0010
0000
1000
0000
0100
0000
0010
0001
,
0010
0100
0010
0100
,
1000
0000
0001
0000
0100
0010
1000
0001
,
0010
0000
0000
0110
0000
0100
1000
0001
,
0000
0100
0010
1000
,
0001
0100
0001
0100
0010
1000
0010
1000
,
0100
0010
0002
0000
0000
0000
0000
0000
,
0103
0000
0000
0010
0000
0000
0100
0000
0000
0000
0001
0000
1000
0000
0100
0000
,
0010
0000
0000
0001
0000
0000
0010
0000
0000
0000
0000
0000
0000
0000
0000
0000
,
0100
0000
0000
1000
0000
0000
0100
0000
0000
0000
0010
0000
0001
0000
1000
0000
,
0010
0000
0000
0100
0000
0000
0010
0000
0000
1000
0000
0000
0001
0000
0000
0000
,
0100
0010
0100
0010
,
1000
0001
1000
0001
,
1000
0100
0010
0001
1000
0100
0010
0001
,
0200
0000
0000
0300
,
0101
0001
0010
0000
0100
0000
0010
0000
,
0100
1000
0001
1000
,
0100
0010
0001
0000
0100
0000
0001
0010
,
0100
1000
0100
1000
0010
0100
0010
0100
,
0001
1000
0100
0000
0010
0000
0001
0010
,
0100
1000
0100
0010
,
0001
0100
0010
0100
0001
1000
0100
0010
,
0002
0000
0000
0000
,
1003
0100
0010
0000
0001
0000
0100
0000
,
0010
1000
0100
0000
0010
0000
0100
0000
,
1000
0000
0001
0000
0100
0000
0010
1000
,
0001
0100
0001
0010
,
0100
1000
0100
0000
0010
0001
0010
0000
,
0100
1000
0001
0000
0010
0001
1000
0000
,
0010
0100
0001
0100
0010
1000
0100
0010
,
0001
0000
0000
1000
0000
0000
0001
0000
0000
1000
0000
0000
0010
0000
0000
0000
,
0200
0000
0000
0000
,
0310
0000
1000
0001
1000
0000
0000
0000
0000
0000
0000
0000
0000
0000
0000
0000
;

//---------------dance-single - ----------------
#NOTES:
     dance-single:
     :
     Easy:
     4:
     0.341516,0.402236,0.039319,0.094366,0.031455,287.000000,5.000000,12.000000,0.000000,0.000000,0.000000,0.341516,0.402236,0.039319,0.094366,0.031455,287.000000,5.000000,12.000000,0.000000,0.000000,0.000000:
0000
0000
0000
0000
,
0000
0000
0000
0000
,
0000
0000
0000
0000
,
0000
0000
0000
0000
,
0000
0000
0000
0000
,
1000
0001
1000
0001
,
0100
0010
0100
0010
,
0100
0001
1000
0001
,
0020
0000
0000
0000
,
0130
0000
0000
1000
0000
0000
0001
0000
,
0100
0000
0000
0010
0000
0000
0000
0000
,
1000
0000
0000
0001
0000
0000
0010
0000
,
0100
0000
0000
1000
0000
0000
0100
0000
0000
0010
0000
0000
0001
0000
0000
0000
,
1000
0010
1000
0010
,
0100
0001
0100
0001
,
0010
0100
1000
0010
,
0200
0000
0000
0000
,
0301
0000
1000
0000
0001
0000
0000
0010
,
0000
0100
1000
0002
0000
0000
0000
0000
,
0103
0010
0100
0010
,
1000
0001
1000
0100
,
0010
0001
0010
0001
,
0100
0000
0000
0010
0000
0000
0100
0000
0000
0010
0000
0000
1000
0000
0000
0000
,
0002
0103
0001
0100
,
0001
0010
0001
0010
,
0100
1000
0100
1000
,
0002
0000
0000
0000
,
0103
0010
0100
0001
,
0100
0010
1000
0001
,
0100
0010
0100
0001
,
0010
0100
1000
0010
,
0100
0010
1000
0001
,
1000
0010
0100
0010
,
1000
0000
0000
0101
0000
1010
0000
0101
,
0000
0001
0010
0100
1000
0000
0000
0000
,
0001
0100
0001
0010
,
0100
1000
0001
0100
,
0001
1000
0100
0010
,
0001
1000
0001
0100
,
0001
0010
0001
0000
0100
0000
0010
0000
,
1000
0001
0100
0010
,
1000
0000
0001
0100
0000
0010
0000
2000
,
0000
0000
0000
0000
,
3002
0000
0000
0000
,
0103
0000
0000
0000
,
0000
0000
0000
0000
,
1001
0000
0000
0000
,
0000
0000
0000
0000
1000
0100
0010
0000
,
0001
0100
0001
0100
,
0010
0000
1000
0000
0010
0000
1000
0100
,
0000
0010
0000
0001
0000
1000
0000
0100
,
0020
0000
0000
0000
,
0031
0100
0001
0100
,
0010
1000
0010
1000
,
0100
0010
0100
0010
,
0001
1000
0001
1000
,
0010
0000
0000
0100
0000
0001
0000
1000
,
0000
0010
0100
0001
,
0100
0010
1000
0001
,
2000
0000
0000
0000
,
3001
0000
0000
0100
0000
0010
0000
1000
,
0001
0000
0000
0010
0000
0000
0000
0000
,
0100
0000
0000
1000
0000
0001
0000
0100
,
0010
0000
0000
1000
0000
0000
0100
0000
0000
0010
0000
0000
0001
0000
0000
0000
,
1000
0010
1000
0010
,
0100
0001
0100
0001
,
0010
0100
1000
0010
,
0200
0000
0000
0300
,
0001
0010
0100
0000
1000
0000
0100
0000
,
0010
0100
1000
0001
,
1000
0100
0010
0001
,
0100
0001
0010
0100
,
1000
0001
1000
0000
0100
0000
0010
0000
,
0001
0100
0010
1000
,
0001
0100
0010
1000
,
0002
0000
0000
0000
,
0103
0010
1000
0010
,
0100
0001
0010
0100
,
1000
0001
0010
0001
,
0100
0001
1000
0001
,
0010
0100
1000
0000
0001
0000
1000
0100
,
0010
0000
0001
0000
1000
0100
0010
0001
,
0100
0010
0100
0000
0001
1000
0001
0010
,
0100
0000
0000
1000
0000
0000
0100
0000
0000
0010
0000
0000
0001
0000
0000
0000
,
2000
0000
0000
0000
,
3000
1001
0000
0000
;
