#VERSION:0.82;
#TITLE:Move That Body;
#SUBTITLE:;
#ARTIST:Expander;
#TITLETRANSLIT:;
#SUBTITLETRANSLIT:;
#ARTISTTRANSLIT:;
#GENRE:;
#ORIGIN:;
#CREDIT:;
#BANNER:[Round 2 Singles] - Move That Body.png;
#BACKGROUND:[Round 2 Singles] - Move That Body-bg.png;
#PREVIEWVID:;
#JACKET:[Round 2 Singles] - Move That Body-jacket.png;
#CDIMAGE:;
#DISCIMAGE:;
#LYRICSPATH:;
#CDTITLE:cdtitle.png;
#MUSIC:[Round 2 Singles] - Move That Body.mp3;
#OFFSET:-0.884000;
#SAMPLESTART:84.117294;
#SAMPLELENGTH:19.591835;
#SELECTABLE:YES;
#BPMS:0.000=98.000,
48.000=147.000,
72.000=196.000,
200.000=98.000,
207.000=196.000;
#STOPS:207.000=0.306,
272.000=0.918;
#DELAYS:;
#WARPS:;
#TIMESIGNATURES:0.000=4=4;
#TICKCOUNTS:0.000=4;
#COMBOS:0.000=1;
#SPEEDS:0.000=1.000=0.000=0;
#SCROLLS:0.000=1.000;
#FAKES:;
#LABELS:0.000=Song Start;
#BGCHANGES:;
#KEYSOUNDS:;
#ATTACKS:
;

//---------------dance-single - ----------------
#NOTEDATA:;
#CHARTNAME:;
#STEPSTYPE:dance-single;
#DESCRIPTION:;
#CHARTSTYLE:;
#DIFFICULTY:Challenge;
#METER:10;
#RADARVALUES:0.831357,1.000000,0.468033,0.379724,0.591664,563.000000,53.000000,43.000000,0.000000,0.000000,0.000000,0.000000,0.000000,0.831357,1.000000,0.468033,0.379724,0.591664,563.000000,53.000000,43.000000,0.000000,0.000000,0.000000,0.000000,0.000000;
#CREDIT:;
#NOTES:
0000
0000
0000
0000
,
0000
0000
0000
0000
,
1001
0000
0000
0000
1000
0000
0100
0000
0010
0000
0001
0000
0100
0010
0100
0010
1000
0000
1000
0000
0010
0000
0010
0000
0001
0000
0010
0000
1000
0000
0100
0000
,
0120
0000
0100
0000
0031
0100
0010
0000
1001
0000
0110
0000
2002
0000
3003
0000
,
0001
0000
0000
0000
1000
0000
1000
0000
0100
0010
0001
0000
0100
0000
0000
0000
1000
0000
0100
0000
0001
0000
0010
0000
0000
0000
0010
0000
0002
0000
0000
0000
,
0010
0000
1003
0001
2000
0000
0100
0000
3001
0100
0010
0200
0000
0001
0000
0310
,
1000
0000
0000
0000
0001
0000
0001
0000
0100
0010
1000
0000
0100
0000
0000
0000
0001
0000
0100
0000
1000
0000
0010
0000
0000
0000
0010
0000
2000
0000
0000
0000
,
0010
0000
3001
0010
1000
0010
0001
0000
1000
0100
0010
0002
0000
0100
0000
1003
,
0001
0000
0000
0000
0100
0000
0010
0000
1000
0100
0010
0000
0100
0000
0000
0000
0001
0000
0100
0000
1000
0000
0010
0000
0000
0000
0010
0000
2000
0000
0000
0000
,
0100
0000
3001
1000
0002
0000
0010
0000
1003
0010
0100
0020
0000
1000
0000
0130
,
0001
0000
0000
0000
0010
0000
0001
0000
0100
0010
1000
0000
0100
0000
0000
0000
0001
0000
0100
0000
1000
0000
0010
0000
0000
0000
0010
0000
0220
0000
0000
0000
,
0000
0000
0030
0000
0000
0000
0310
0000
0001
0000
0010
0000
1000
0000
0000
0000
0001
0000
1000
0000
0100
0000
0010
0001
0010
0000
0100
0000
1000
0000
0001
0000
,
1001
0000
0000
0000
0000
0000
0000
0000
0000
0021
0000
0000
0000
0000
0000
0130
0000
0000
1100
0000
0000
0000
0000
0000
1000
0000
0000
0100
0000
0000
0001
0000
,
0000
0100
0000
0000
0010
0000
0000
0001
0000
0000
1001
0000
0000
0000
0000
0000
0001
0000
0000
0000
0000
0000
0001
0000
0000
0000
0000
0000
0100
0000
0000
0010
,
0000
0000
0000
0000
0100
0000
0000
0000
0000
0000
0000
0000
0000
0000
0000
0000
0001
0000
0000
0000
0000
0000
0100
0000
0000
0000
0000
0000
1000
0000
0000
0000
0000
0000
0001
0000
0000
0000
0000
0000
0010
0000
0000
0000
0000
0000
1000
0000
0000
0000
0000
0000
0100
0000
0000
0010
0000
0000
0100
0000
0000
0010
0000
0000
,
0001
0000
0000
0000
0000
0000
0000
0000
0000
2001
0000
0000
0000
0000
0000
3100
0000
0000
0110
0000
0000
0000
0000
0000
1001
0000
0000
0000
0000
0000
0000
0000
,
0000
0001
0000
0000
0100
0000
0000
0010
0000
0000
2001
0000
0000
0000
0000
0000
3100
0000
0000
0001
0000
0000
0100
0000
0000
1000
0000
0000
0020
0000
0000
0000
,
0000
0000
0000
0000
1030
0000
0000
0100
0000
0000
0010
0000
0000
0001
0000
0000
0100
0000
0000
0000
0000
0000
1000
0000
0000
0000
0000
0000
0100
0000
0000
0000
0000
0000
0001
0000
0000
0000
0000
0000
0011
0000
0000
0000
0000
0000
0000
0000
0000
0000
0000
0000
0011
0000
0000
0000
0000
0000
0000
0000
0000
0000
0000
0000
,
0001
0010
0100
1000
0000
0001
1001
0000
,
1000
0010
0100
0001
0000
1000
1100
0000
,
0001
0010
0001
0100
1000
0100
0001
0010
,
0100
0000
0000
0100
0000
0000
1000
0000
0000
1000
0000
0000
0010
0000
0100
0000
0010
0000
0001
0000
1000
0000
0100
0000
,
0001
0010
0100
2000
0000
3010
1000
0100
,
1000
0010
0100
0001
0010
0001
0201
0000
,
1300
0000
0100
0000
0001
0000
0020
0000
0000
0000
0031
0000
0100
0010
1000
0001
,
0010
0000
0000
0000
1100
0000
0000
0000
1001
0000
0001
1000
0001
0000
0000
0000
,
1100
0000
0000
0000
0011
0000
0000
0000
0001
0000
0100
0010
1000
0000
0001
0000
,
0000
1000
0100
0001
1000
0010
0001
0000
,
0100
0000
0010
0000
1000
0100
0010
0000
0001
0000
0001
0000
1000
0000
0010
0000
,
0000
0100
0001
0010
1000
0010
0001
0000
,
0101
0000
1010
0000
1000
0100
0010
0001
,
0000
0100
1000
0100
0001
0010
0100
1000
,
0001
0000
1000
0000
0100
0000
0010
0000
0001
0000
0100
0000
0010
0000
1000
0001
,
1000
0010
0001
1000
0100
0001
0010
0100
,
0110
0000
0000
0000
1001
0000
0000
0000
1000
0000
0010
0100
0001
0000
0010
0000
,
0000
0001
0100
1000
0001
0010
1000
0000
,
0100
0000
0010
0000
0001
0100
0010
0000
0100
0000
0001
0000
1000
0000
0100
0000
,
0010
0000
0000
0001
0000
0000
0101
0000
0000
0000
0000
0000
0001
0000
0100
0000
0010
0000
1000
0000
0000
0000
0000
0000
,
1100
0000
0011
0000
0010
0001
0100
1000
,
0000
1000
0100
0001
0010
0100
0010
0001
,
1000
0000
1000
0000
0010
0000
0100
0000
0001
0000
0001
0000
1000
0000
0100
0010
,
0001
0000
0010
0000
1000
0000
0001
0000
0100
0000
1000
0001
1000
0000
0000
0000
,
0001
0000
0001
0000
0001
0000
0100
0000
0100
0010
0000
0010
,
1000
0010
1000
0100
0012
0000
0203
0000
,
0310
0000
0000
0000
0010
0100
0010
0000
0100
0000
0000
0000
0100
0000
0000
0000
,
0001
0101
1100
1100
,
1000
0100
1000
0010
0002
0000
1003
0100
,
0001
0010
0001
0100
2010
0000
3200
0000
,
0310
0000
0000
0000
0010
0100
0010
0000
0100
0000
0000
0000
0100
0000
0000
0000
,
1000
0100
0001
0100
1000
0010
0100
0001
,
1001
0000
1100
0000
0101
0000
0011
0000
0000
0001
0000
0001
0100
0010
0001
0010
,
1000
0000
0000
0000
0000
0000
0000
0000
0100
0000
0000
0000
1000
0000
0000
0000
0100
0000
0000
0000
0000
0000
0000
0000
0001
0000
0000
0000
0100
0000
0000
0000
1000
0000
0000
0000
0000
0000
0000
0000
0010
0000
0000
0000
0000
0000
0000
0000
2002
3003
0000
0000
0000
0000
0000
0000
0000
0000
0000
0000
0000
0000
0000
0000
,
0201
0000
1000
0000
0301
0000
0100
0001
,
0010
1000
0010
0001
0100
0100
0010
0010
,
1000
0001
0010
0000
0010
0001
1000
0000
0001
0000
0100
0010
1000
0000
0001
1000
,
0001
0100
1000
0100
0010
0010
1000
1000
,
0001
1000
0200
0000
0310
0001
1000
0001
,
0100
0000
0110
0000
0010
0001
0010
1000
,
0100
0000
0010
0001
0200
0310
2000
3000
,
2010
0010
3001
0000
0012
0010
1003
0000
,
1200
0000
0001
0000
1300
0000
0100
1000
,
0010
0001
0010
1000
0100
0100
0010
0010
,
0001
1000
0010
0000
0010
1000
0001
0000
1000
0000
0100
0010
0001
0000
1000
0001
,
1000
0000
0000
0100
0000
0000
0001
0000
0000
0100
0000
0000
0010
0000
1000
0000
0010
0000
0001
0000
0000
1000
0000
0000
,
0010
0001
0020
0000
1030
0001
1000
0100
,
0010
0000
0011
0000
0001
0100
1000
0100
,
0001
0000
0100
0010
2000
3001
0020
0030
,
2100
0000
0100
0000
3001
0000
0000
0000
0001
0000
0100
0010
2000
0000
0000
0000
,
0002
3003
0000
0000
0000
0000
0000
0000
0000
0000
0000
0000
0000
0000
0000
0000
1001
0000
0000
0000
0000
0000
0000
0000
0000
0000
0000
0000
0000
0000
0000
0000
1000
0000
0000
0000
0000
0000
0000
0000
0100
0000
0000
0000
0000
0000
0000
0000
0010
0000
0000
0000
0000
0000
0000
0000
0001
0000
0000
0000
0000
0000
0000
0000
,
0100
0010
0100
0010
1000
0000
1000
0000
0010
0000
0010
0000
0001
0000
0010
0000
,
1000
0100
0210
0000
1300
0000
0011
0001
,
0100
1010
0101
2002
,
3003
0000
0000
0000
;

//---------------dance-single - ----------------
#NOTEDATA:;
#CHARTNAME:;
#STEPSTYPE:dance-single;
#DESCRIPTION:;
#CHARTSTYLE:;
#DIFFICULTY:Hard;
#METER:9;
#RADARVALUES:0.729172,0.921936,0.476863,0.353232,0.375309,484.000000,54.000000,40.000000,0.000000,0.000000,0.000000,0.000000,0.000000,0.729172,0.921936,0.476863,0.353232,0.375309,484.000000,54.000000,40.000000,0.000000,0.000000,0.000000,0.000000,0.000000;
#CREDIT:;
#NOTES:
0000
0000
0000
0000
,
0000
0000
0000
0000
,
1001
0000
0001
0010
0100
0010
0001
0100
0010
1000
0010
1000
0001
1000
0001
1000
,
0200
0000
0301
0000
0100
1000
0020
0000
0130
0000
0010
0000
2002
0000
3003
0000
,
1100
0000
0010
0001
1000
0001
0100
0000
0010
1000
0010
1000
0000
1000
0002
0000
,
0000
0000
1003
0000
0200
0000
0000
0000
0310
0001
1000
0020
0000
0200
0000
0330
,
0101
0000
0010
1000
0001
1000
0100
0000
0010
0001
1000
0010
0000
0010
2000
0000
,
0000
0000
0000
3001
0010
0100
1000
0000
1000
0010
0100
0002
0000
2000
0000
3003
,
1010
0000
0100
0001
1000
0001
0010
0000
0100
0010
0001
0100
0000
0010
2000
0000
,
0000
0000
3001
0000
0020
0000
0000
0000
0031
0100
0010
2000
0000
0200
0000
3300
,
0011
0000
0100
1000
0001
1000
0010
0000
1010
0000
0000
0101
0000
0000
2002
0000
,
0000
3000
0000
1003
0100
0010
0001
0000
0001
0100
0010
1000
0100
0000
0100
0000
,
1001
0000
0000
0000
0000
0000
0000
0000
0000
0002
0000
0000
0000
0003
0000
0000
0000
0000
0101
0000
0000
0000
0000
0000
1000
0000
0000
0001
0000
0000
1000
0000
,
0000
0001
0000
0000
0010
0000
0000
0100
0000
0000
0110
0000
0000
0000
0000
0000
1001
0000
0000
0000
0000
0000
1001
0000
0000
0000
0000
0000
1000
0000
0000
0001
,
0000
0000
0010
0000
0000
0000
0000
0000
0001
0000
0000
0100
0000
0000
0010
0000
0000
1000
0000
0000
0010
0000
0000
0100
0000
0000
0001
0000
0000
1000
0000
0000
,
0001
0000
0000
0000
0000
0000
0000
0000
0000
2000
0000
0000
0000
0000
3000
0000
0000
0000
1100
0000
0000
0000
0000
0000
1001
0000
0000
0000
0000
0000
0000
0000
,
0000
1000
0000
0000
0100
0000
0000
1000
0000
0000
0020
0000
0000
0000
0000
0000
0130
0000
0000
0001
0000
0000
0100
0000
0000
0001
0000
0000
0020
0000
0000
0000
,
0000
0000
0031
0000
0000
1000
0000
0000
1010
0000
0000
0000
0000
0000
0101
0000
0000
0000
0000
0000
1001
0000
0000
0000
0000
0000
1001
0000
0000
0000
0000
0000
,
1000
0010
0100
0001
0000
0100
0001
0000
,
1000
0010
0100
0001
0000
0010
0200
0000
,
1300
0001
1000
0001
0100
1000
0100
0001
,
1000
0000
0000
0100
0000
0000
1000
0000
0000
0100
0000
0000
0010
0000
0001
0000
0010
0000
0001
0000
0010
0000
0001
0000
,
1000
0010
0100
0002
0000
0013
0100
0010
,
0001
0100
0010
1000
0100
0000
0011
0000
,
0001
0100
0010
2000
0000
3010
1000
0001
,
0011
1100
1001
1001
,
0101
0000
1010
0000
1000
0100
0010
0001
,
0000
0001
0100
0010
0001
0010
1000
0000
,
0001
1000
0010
1000
0100
0010
0000
0001
,
0000
0001
0010
1000
0010
0001
0100
0000
,
0110
0000
1001
0000
1000
0100
0000
0010
,
0000
0010
0001
0100
1000
0100
0010
1000
,
0000
1000
0010
0100
0001
0010
0000
0001
,
0000
0001
0010
1000
0010
0001
0100
0000
,
0101
0000
1010
0000
0010
0100
0001
1000
,
0000
1000
0100
0001
0100
1000
0010
0000
,
0100
0010
1000
0001
0010
0001
0000
0100
,
0000
0100
1000
0100
0001
0010
0100
0000
,
1100
0000
0011
0000
0001
1000
0000
0010
,
0000
0010
1000
0100
0001
0100
0010
0001
,
0100
0010
1000
0001
0010
0001
0000
1000
,
0000
1000
0010
0001
0010
1000
0100
0000
,
1000
0000
0001
0000
1000
0000
0001
0000
1000
0010
0000
1000
,
0001
1000
0001
1000
0200
0000
0320
0000
,
0031
0001
0101
0101
,
1000
0100
0011
0011
,
0001
0100
0010
1000
0200
0000
0301
0100
,
1000
0001
1000
0001
0200
0000
0320
0000
,
1030
1000
1100
1100
,
0001
0010
0100
1000
0010
0100
0010
0000
,
1001
0000
0100
0000
1001
0000
0001
0000
0000
1000
0000
0001
0100
0001
1000
0100
,
0010
0000
0000
0000
0000
0000
0000
0000
0001
0000
0000
0000
1000
0000
0000
0000
0001
0000
0000
0000
0000
0000
0000
0000
0010
0000
0000
0000
0001
0000
0000
0000
0100
0000
0000
0000
0000
0000
0000
0000
0010
0000
0000
0000
0000
0000
0000
0000
2002
3003
0000
0000
0000
0000
0000
0000
0000
0000
0000
0000
0000
0000
0000
0000
,
0011
0000
1010
0000
0011
0000
0001
0010
,
1000
0010
0001
0000
0010
0001
0100
0001
,
1000
0010
0100
0010
1000
0001
0001
0000
,
1000
0100
0001
0100
1000
0010
1000
0001
,
0100
0010
0100
0000
1001
0000
0001
0100
,
2000
0000
3100
0000
1000
0100
0001
0000
,
1000
0000
0010
1000
0200
0000
0320
0000
,
0031
0010
1000
0000
1000
0010
0001
0000
,
1010
0000
0011
0000
1010
0000
1000
0010
,
0001
0010
1000
0000
0010
1000
0100
1000
,
0001
0010
0100
0010
0001
1000
1000
0000
,
0001
0000
0000
0100
0000
0000
1000
0000
0000
0100
0000
0000
0001
0000
1000
0000
0001
0000
1000
0000
0000
0001
0000
0000
,
0010
0100
0010
0000
1001
0000
1000
0100
,
0002
0000
0103
0000
0001
0100
1000
0000
,
0001
0000
0010
0001
0200
0000
0320
0000
,
1030
0010
0100
0000
0001
0010
0100
1000
,
0001
0000
1001
0000
0001
0010
0100
0010
,
0001
0100
0010
1000
0010
1000
0001
1000
,
0001
1000
0200
0000
0301
0000
0100
1000
,
0010
1001
0110
2002
,
3003
0000
0000
0000
;

//---------------dance-single - ----------------
#NOTEDATA:;
#CHARTNAME:;
#STEPSTYPE:dance-single;
#DESCRIPTION:;
#CHARTSTYLE:;
#DIFFICULTY:Medium;
#METER:7;
#RADARVALUES:0.610587,0.731190,0.468033,0.397386,0.176616,386.000000,53.000000,45.000000,0.000000,0.000000,0.000000,0.000000,0.000000,0.610587,0.731190,0.468033,0.397386,0.176616,386.000000,53.000000,45.000000,0.000000,0.000000,0.000000,0.000000,0.000000;
#CREDIT:;
#NOTES:
0000
0000
0000
0000
,
0000
0000
0000
0000
,
1001
0001
0100
0010
1000
1000
0001
0010
,
0120
0000
0031
0000
1000
0001
2000
0000
3010
0000
0100
0000
2002
0000
3003
0000
,
0001
0000
0100
0000
1000
0000
0100
0000
0001
0000
0010
0100
0000
0100
2000
0000
,
0000
0000
3001
0000
2001
0000
0000
0000
3001
0000
0010
0001
0000
0100
0000
0001
,
1000
0000
0100
0000
0001
0000
0100
0000
1000
0000
0010
0100
0000
0100
0002
0000
,
0000
0000
1003
0000
0001
0010
0001
0000
0100
0000
0010
1000
0000
0100
0000
1000
,
0001
0000
0010
0000
1000
0000
0010
0000
0001
0000
0100
0010
0000
0010
2000
0000
,
0000
0000
3001
0000
2001
0000
0000
0000
3100
0000
0010
0001
0000
0100
0000
0001
,
1000
0000
0010
0000
0001
0000
0010
0000
1010
0000
0000
0101
0000
0000
1002
0000
,
0000
0000
0003
0000
0001
0010
0001
0000
1000
0010
0000
0100
0001
0000
0001
0000
,
1001
0000
0000
0000
0000
0000
0000
0000
0000
0002
0000
0000
0000
0000
0000
0000
0000
0000
0103
0000
0000
0000
0000
0000
1001
0000
0000
0000
0000
0000
0000
0000
,
0000
0100
0000
0000
0000
0000
0000
0000
0000
0000
1001
0000
0000
0000
0000
0000
0001
0000
0000
0000
0000
0000
0001
0000
0000
0000
0000
0000
0100
0000
0000
0000
,
0000
0100
0000
0000
0001
0000
0000
0010
0000
0000
0100
0000
0000
1000
0000
0000
,
1001
0000
0000
0000
0000
0000
0000
0000
0000
2000
0000
0000
0000
0000
0000
0000
0000
0000
3100
0000
0000
0000
0000
0000
1001
0000
0000
0000
0000
0000
0000
0000
,
0000
0001
0000
0000
0000
0000
0000
0000
0000
0000
0110
0000
0000
0000
0000
0000
1001
0000
0000
0000
0000
0000
1000
0000
0000
0000
0000
0000
0200
0000
0000
0000
,
0000
0310
0000
0000
0011
0000
0000
0101
0000
0000
1001
0000
0000
1001
0000
0000
,
1001
0000
1000
0010
0000
0100
0001
0000
,
1000
0000
0001
0010
0000
0100
0020
0000
,
0031
1000
0001
1000
0010
0000
0010
0000
,
1000
0100
1000
0100
0020
0000
0032
0000
,
1003
0000
0001
0010
0000
0100
1000
0100
,
1000
0000
0001
0100
0010
0000
1000
0000
,
0001
1000
0001
0010
0000
0001
0010
0001
,
1000
0110
1001
1001
,
0001
0000
1000
0000
0001
0000
0000
1000
,
0000
1000
0001
0000
0001
0010
0100
0000
,
0000
1000
0001
0000
0001
1000
0000
0001
,
0000
1000
0010
0000
0010
1000
0001
0000
,
1000
0000
0001
0000
1000
0001
0000
0010
,
0000
0010
0001
0000
0001
1000
0100
0000
,
0000
1000
0001
0000
0001
1000
0000
0001
,
0000
0100
0010
0000
0010
1000
0001
0000
,
1000
0000
0001
0000
1000
0000
0000
0001
,
0000
0001
0010
0000
0010
0100
1000
0000
,
0000
0001
1000
0000
1000
0001
0000
0100
,
0000
0010
1000
0000
1000
0001
0010
0000
,
0001
0000
1000
0000
0001
1000
0000
0100
,
0000
0100
0010
0000
0010
0001
0100
0000
,
0000
0001
1000
0000
1000
0001
0000
0100
,
0000
0010
1000
0000
1000
0001
0010
0000
,
0002
2003
3100
0010
,
0001
0100
1010
0101
,
1001
1001
0110
0110
,
0001
0101
1100
1100
,
1000
0100
0010
0001
2000
0000
3002
0000
,
0023
0130
1100
0011
,
1001
1001
0110
0110
,
1000
0001
1000
0001
0010
0000
0010
0000
,
1001
0000
0001
0000
0100
0000
0010
0000
0000
1000
0000
0001
0100
0000
0001
0100
,
0001
0000
0000
0000
0000
0000
0000
0000
1000
0000
0000
0000
0000
0000
0000
0000
0100
0000
0000
0000
0000
0000
0000
0000
0010
0000
0000
0000
0000
0000
0000
0000
0001
0000
0000
0000
0000
0000
0000
0000
0100
0000
0000
0000
0000
0000
0000
0000
2002
3003
0000
0000
0000
0000
0000
0000
0000
0000
0000
0000
0000
0000
0000
0000
,
0011
0000
1100
0000
0011
0000
0010
0001
,
0010
0001
1000
0000
0010
1000
0010
1000
,
0002
0003
0200
0300
0001
0010
0001
0000
,
1000
0100
0010
0001
0200
0000
0320
0000
,
1030
0001
1000
0000
1001
0000
1000
0100
,
0020
0000
0130
0000
0010
0100
1000
0000
,
0001
0000
1000
0010
2000
0000
3002
0000
,
2003
0010
3002
0103
,
1010
0000
0101
0000
1010
0000
0010
1000
,
0010
1000
0001
0000
0010
0001
0010
0001
,
2000
3000
0200
0300
1000
0010
1000
0000
,
0001
0100
0010
1000
0200
0000
0320
0000
,
0031
1000
0001
0000
1001
0000
0001
0100
,
0020
0000
0130
0000
0010
0100
0001
0000
,
1000
0000
0001
0010
0002
0000
2003
0000
,
3002
0000
0010
0000
1003
0100
2000
0000
,
3001
1001
0001
0100
,
0010
1000
1000
0100
,
0010
0000
2002
0000
3003
0000
0001
0100
,
0010
1001
0110
2002
,
3003
0000
0000
0000
;

//---------------dance-single - ----------------
#NOTEDATA:;
#CHARTNAME:;
#STEPSTYPE:dance-single;
#DESCRIPTION:;
#CHARTSTYLE:;
#DIFFICULTY:Easy;
#METER:5;
#RADARVALUES:0.471817,0.572236,0.547510,0.335570,0.105970,274.000000,62.000000,38.000000,0.000000,0.000000,0.000000,0.000000,0.000000,0.471817,0.572236,0.547510,0.335570,0.105970,274.000000,62.000000,38.000000,0.000000,0.000000,0.000000,0.000000,0.000000;
#CREDIT:;
#NOTES:
0000
0000
0000
0000
,
0000
0000
0000
0000
,
0001
1000
0100
0000
0010
0010
0010
0000
,
1001
0000
0110
0000
0100
0010
2001
0000
,
3001
0000
0000
0000
1000
0000
0000
0000
0010
0000
0000
0100
0000
0000
0002
0000
,
0000
0000
1003
0000
0200
0000
0000
0000
0310
0000
0000
0001
0000
0001
0000
0000
,
1000
0000
0000
0000
0001
0000
0000
0000
0010
0000
0000
0100
0000
0000
2000
0000
,
0000
0000
3010
0000
0100
0000
0010
0000
1000
0000
0000
0001
0000
0001
0000
0000
,
1000
0000
0000
0000
0001
0000
0000
0000
1000
0000
0000
0100
0000
0000
0020
0000
,
0000
0000
0031
0000
2000
0000
0000
0000
3001
0000
0000
0100
0000
0100
0000
0000
,
0001
0000
0000
0000
1000
0000
0000
0000
1001
0000
0000
0110
0000
0000
1002
0000
,
0000
0000
0000
0000
0013
0000
0001
0000
0100
0000
0000
0010
0000
0010
0000
0000
,
1001
0000
0000
0000
0000
0000
0000
0000
0000
0100
0000
0000
1001
0000
0000
0000
,
0000
0000
0000
0000
0000
0101
0000
0000
1000
0000
0000
1000
0000
0000
0100
0000
,
0000
0100
0000
0000
0010
0000
0000
0001
0000
0000
0100
0000
0000
0010
0000
0000
,
1001
0000
0000
0000
0000
0000
0000
0000
0000
0100
0000
0000
1001
0000
0000
0000
,
0000
0000
0000
0000
0000
1010
0000
0000
0001
0000
0000
0001
0000
0000
0020
0000
,
0000
0030
0000
0000
0001
0000
0000
0100
0000
0000
1001
0000
0000
0110
0000
0000
,
2001
0000
0000
3001
0000
0000
0110
0000
,
1002
0000
0000
1003
0000
0000
1001
0000
,
0001
0100
1000
0100
,
0001
0001
0010
0100
,
1002
0000
0000
0013
0000
0010
0001
0000
,
2001
0000
0000
3010
0000
1000
0010
0000
,
0100
0000
0100
0002
0000
0000
0013
0000
,
1001
0110
1001
1001
,
0001
0000
0001
0000
1000
0000
0000
0100
,
0000
0010
0001
0100
,
0000
0000
0001
0000
1000
0000
0000
0100
,
0000
1000
0010
0100
,
0001
0000
0001
0000
1000
0000
0000
0010
,
0000
1000
0100
0010
,
0000
0000
0001
0000
1000
0000
0000
0010
,
0000
1000
0001
0010
,
0100
0000
1000
0000
0001
0000
0000
1000
,
0000
0010
1000
0100
,
0000
0000
0010
0000
0001
0000
0000
0100
,
0000
1000
0100
0001
,
1000
0000
0100
0000
1000
0000
0000
0010
,
0000
0100
0001
0010
,
0000
0000
0100
0000
1000
0000
0000
0010
,
0000
0001
0010
1000
,
0200
0000
0310
0010
,
0001
0100
2001
0100
,
3001
0001
1001
1001
,
1000
0100
0010
0010
,
0001
0001
1010
0010
,
1000
0100
1002
0100
,
1003
1000
1001
1001
,
0001
0100
0010
0010
,
1001
0000
1000
0000
0001
0000
0001
0000
0000
1000
0000
0000
0100
0000
0010
0000
,
0001
0000
0000
0000
0000
0000
0000
0000
0100
0000
0000
0000
0000
0000
0000
0000
1000
0000
0000
0000
0000
0000
0000
0000
0100
0000
0000
0000
0000
0000
0000
0000
0001
0000
0000
0000
0000
0000
0000
0000
0001
0000
0000
0000
0000
0000
0000
0000
2002
3003
0000
0000
0000
0000
0000
0000
0000
0000
0000
0000
0000
0000
0000
0000
,
1010
0000
1010
0000
0011
0000
0000
0001
,
0010
0001
0101
1100
,
1000
1000
0001
1001
,
2000
3200
0302
0023
,
1030
0100
0110
0000
,
2001
0010
0010
3010
,
1000
0100
0011
1100
,
2020
3030
0202
0303
,
0011
0000
0011
0000
1010
0000
0000
1000
,
0010
1000
1100
0101
,
0001
0001
1000
1001
,
0002
0203
2300
3020
,
0031
0100
0110
0000
,
1002
0010
0010
0013
,
0001
0100
1010
0101
,
0022
0033
1100
0011
,
1000
0001
1000
0100
,
0000
0010
0010
0010
,
0000
2002
3003
0001
,
0100
0110
0110
2002
,
3003
0000
0000
0000
;

//---------------dance-single - ----------------
#NOTEDATA:;
#CHARTNAME:;
#STEPSTYPE:dance-single;
#DESCRIPTION:;
#CHARTSTYLE:;
#DIFFICULTY:Beginner;
#METER:3;
#RADARVALUES:0.240955,0.286118,0.211939,0.026492,0.000000,164.000000,24.000000,3.000000,0.000000,0.000000,0.000000,0.000000,0.000000,0.240955,0.286118,0.211939,0.026492,0.000000,164.000000,24.000000,3.000000,0.000000,0.000000,0.000000,0.000000,0.000000;
#CREDIT:;
#NOTES:
// measure 0
0000
0000
0000
0000
,  // measure 1
0000
0000
0000
0000
,  // measure 2
0001
0000
1000
0000
,  // measure 3
0001
0001
1000
1001
,  // measure 4
0001
0000
0100
0100
,  // measure 5
0100
0000
0010
0000
,  // measure 6
1000
0000
0001
0001
,  // measure 7
0001
0000
0010
0000
,  // measure 8
0001
0000
1000
1000
,  // measure 9
1000
0000
0010
0000
,  // measure 10
1000
0000
0000
0000
0001
0000
0000
1001
,  // measure 11
0000
0000
0001
1000
,  // measure 12
1001
0000
0000
1001
,  // measure 13
0000
0000
0000
0000
1000
0000
0000
0100
,  // measure 14
0000
0000
0010
0000
0000
0001
0000
0000
,  // measure 15
1001
0000
0000
1001
,  // measure 16
0000
0000
0000
0000
0001
0000
0000
0100
,  // measure 17
0000
0000
1001
0000
0000
0110
0000
0000
,  // measure 18
1001
0000
1000
0000
,  // measure 19
0001
0000
0001
0000
,  // measure 20
0100
0100
0100
0000
,  // measure 21
0010
0010
1000
1000
,  // measure 22
0001
0000
0001
0001
,  // measure 23
0001
0000
1000
0000
,  // measure 24
0100
0100
0100
0000
,  // measure 25
1001
0000
1001
1001
,  // measure 26
0000
0001
0000
1000
,  // measure 27
0000
0001
0000
0100
,  // measure 28
0000
0010
0000
1000
,  // measure 29
0000
0010
0000
0100
,  // measure 30
0000
0001
0000
1000
,  // measure 31
0000
0001
0000
0010
,  // measure 32
0000
0100
0000
1000
,  // measure 33
0000
0100
0000
0010
,  // measure 34
0000
0001
0000
0100
,  // measure 35
0000
0010
0000
1000
,  // measure 36
0000
0100
0000
0010
,  // measure 37
0000
0001
0000
0100
,  // measure 38
0000
0010
0000
1000
,  // measure 39
0000
0001
0000
1000
,  // measure 40
0000
0100
0000
0010
,  // measure 41
0000
0001
0001
0001
,  // measure 42
0002
0000
0003
0000
,  // measure 43
0100
0000
1001
0000
,  // measure 44
1000
0000
0001
0000
,  // measure 45
1000
0000
0100
0000
,  // measure 46
1000
0000
1001
0000
,  // measure 47
0001
0000
1001
0000
,  // measure 48
0001
0000
1000
0000
,  // measure 49
0010
0000
0010
0010
,  // measure 50
0010
0000
0000
1000
,  // measure 51
0000
0100
0000
1001
,  // measure 52
1000
1000
1000
0000
,  // measure 53
0100
0000
0010
0000
,  // measure 54
0001
0001
1000
1000
,  // measure 55
0001
0000
0100
0000
,  // measure 56
0010
0010
0010
0000
,  // measure 57
1001
0000
1001
0000
,  // measure 58
0001
0001
0001
0000
,  // measure 59
1001
0000
0110
0000
,  // measure 60
0001
0001
0001
0000
,  // measure 61
0100
0000
0010
0000
,  // measure 62
1000
1000
0001
0001
,  // measure 63
1000
0000
0100
0000
,  // measure 64
0010
0010
0010
0000
,  // measure 65
1001
0000
1001
0000
,  // measure 66
1000
1000
1000
0000
,  // measure 67
1001
0000
1000
0001
,  // measure 68
1000
0001
0000
0000
,  // measure 69
0000
1000
0000
0000
,  // measure 70
0000
0001
0000
1000
,  // measure 71
0000
0001
1000
2002
,  // measure 72
3003
0000
0000
0000
;
