#TITLE:3;
#SUBTITLE:;
#ARTIST:BRITNEY SPEARS;
#TITLETRANSLIT:;
#SUBTITLETRANSLIT:;
#ARTISTTRANSLIT:;
#GENRE:POP;
#CREDIT:;
#BANNER:[Round 2 Singles] - 3.png;
#BACKGROUND:[Round 2 Singles] - 3-bg.png;
#LYRICSPATH:;
#CDTITLE:cdtitle.png;
#MUSIC:[Round 2 Singles] - 3.mp3;
#OFFSET:-0.069220;
#SAMPLESTART:71.148308;
#SAMPLELENGTH:13.000000;
#SELECTABLE:YES;
#DISPLAYBPM:135.000000;
#BPMS:0.000000=135.000000
;
#STOPS:
;
#BGCHANGES:;
#KEYSOUNDS:;
#ATTACKS:;

//---------------dance-single - ----------------
#NOTES:
     dance-single:
     :
     Beginner:
     1:
     0.095579,0.134538,0.009696,0.000000,0.000000,68.000000,1.000000,0.000000,0.000000,0.000000,0.000000,0.095579,0.134538,0.009696,0.000000,0.000000,68.000000,1.000000,0.000000,0.000000,0.000000,0.000000:
0000
0000
0000
0000
,
0000
0000
0000
0000
,
0000
0000
0000
0000
,
0000
0000
0000
0000
,
1000
0000
0000
0000
,
0000
0000
0000
0000
,
0001
0000
0000
0000
,
0000
0000
0000
0000
,
0010
0000
0000
0000
,
0010
0000
0000
0000
,
0100
0000
0000
0000
,
0100
0000
0000
0000
,
0100
0000
0100
0000
,
0100
0100
0100
0000
,
0100
0000
0100
0000
,
0100
0100
0100
0000
,
0000
0000
0000
0000
,
1000
0000
0000
0000
,
0001
0000
0000
0000
,
0010
0000
0000
0000
,
0100
0000
0000
0000
,
1000
0000
0000
0000
,
0001
0000
0000
0000
,
0010
0000
0000
0000
,
0010
0000
0000
0000
,
0100
0000
0000
0000
,
1000
0000
0000
0000
,
0010
0000
0000
0000
,
1000
0000
0000
0000
,
0100
0000
0000
0000
,
0010
0000
0000
0000
,
1001
0000
0000
0000
,
0001
0001
0001
0000
,
0001
0000
0000
0000
,
1000
0000
0000
0000
,
0010
0000
0000
0000
,
0100
0100
0100
0000
,
0100
0000
0000
0000
,
0001
0000
0000
0000
,
1000
0000
0000
0000
,
0010
0010
0010
0000
,
0010
0000
0000
0000
,
0100
0000
0000
0000
,
0100
0000
0000
0000
,
0001
0001
0001
0000
,
0001
0000
0000
0000
,
1000
0000
0000
0000
,
0100
0000
0000
0000
,
1000
1000
1000
0000
,
1000
0000
0000
0000
,
0001
0000
0000
0000
,
0010
0000
0000
0000
,
0100
0100
0100
0000
,
0100
0000
0000
0000
,
0010
0000
0000
0000
,
0100
0000
0100
0000
;

//---------------dance-single - ----------------
#NOTES:
     dance-single:
     :
     Hard:
     7:
     0.470968,0.434399,0.358767,0.067875,0.019393,296.000000,37.000000,7.000000,0.000000,0.000000,0.000000,0.470968,0.434399,0.358767,0.067875,0.019393,296.000000,37.000000,7.000000,0.000000,0.000000,0.000000:
0000
0000
0000
0000
,
0000
0000
0000
0000
,
0000
0000
0000
0000
,
0000
0000
0000
0000
,
1100
0000
0000
0101
0000
0000
0000
1000
,
1100
0000
0000
0101
0000
0000
0000
1000
,
1100
0000
0000
0101
0000
0000
0000
0001
,
0011
0000
0000
1010
0000
1000
0100
1000
,
0100
0000
1000
0100
0000
0000
1000
1000
,
0001
0000
0100
0001
0000
0000
0100
0100
,
0001
0000
0010
0001
0000
0000
0010
0010
,
0001
0000
0000
1000
0000
0100
1000
0100
,
1000
0000
0000
0000
0100
0000
1000
1000
,
1000
1000
0100
0000
0010
0000
0001
0001
,
1000
0000
0000
0000
0100
0000
0010
0001
,
1000
1000
0100
0000
0020
0000
0030
0000
,
0001
0000
0100
0002
0000
0000
1003
0000
,
0001
0001
0010
0100
1000
0000
0001
0000
,
1000
1000
0100
1000
0001
0000
0001
0000
,
0100
0100
0001
0100
0010
0010
0100
0100
,
1001
0000
0100
0010
0001
0000
1000
0000
,
0001
0001
1000
0100
1000
0000
0001
0000
,
1000
1000
0100
1000
0001
0000
0010
0000
,
0100
0100
0000
0000
0010
0001
0010
0001
,
1000
0010
1000
0010
1000
0010
1000
0010
,
0100
0010
0100
0001
0100
0001
0100
0001
,
1000
0001
1000
0001
1000
0001
1000
0001
,
0010
0001
0010
0100
0010
0100
0010
0100
,
1000
0010
1000
0010
1000
0010
1000
0010
,
0100
0010
0100
0001
0100
0001
0100
0001
,
2001
3100
1002
0103
,
1000
0000
0100
0000
1000
0000
0001
0000
0100
0000
0001
0000
,
0010
0000
1001
0000
0010
0000
0100
0001
,
0010
0100
1000
0000
1100
0000
0001
0010
,
1000
0000
1000
0100
0001
0000
0001
0010
,
0100
0000
0010
0100
1000
0000
0100
1000
,
0101
0000
0011
0001
1001
0000
0001
1000
,
0001
0010
0100
0000
1000
0000
0001
0010
,
0001
1000
0100
0000
1100
0000
0001
0010
,
0100
1000
0001
0000
0202
0000
0303
0000
,
0011
0000
1001
0000
0101
0000
0010
1000
,
0100
0010
0001
0000
1100
0000
1000
0010
,
0001
0000
0001
0100
1000
0000
1000
0010
,
1000
0000
0001
0100
0002
0000
0013
0000
,
0011
0000
0110
0000
1100
0000
0100
1000
,
0001
0010
0100
0000
0110
0000
0100
1000
,
0010
0000
0100
0001
0010
0000
0001
1000
,
0100
1000
0001
0000
0011
0000
0001
1000
,
0010
0000
0110
0000
1001
0000
1000
0100
,
1000
0001
0010
0000
1100
0000
0010
0001
,
0100
0000
0100
1000
0010
0000
0001
1000
,
0010
0001
0010
1000
0001
0000
1000
0100
,
0011
0000
1001
0000
0101
0000
0010
1000
,
0100
1000
0010
0000
0110
0000
0001
0001
,
0010
0010
0100
0000
0011
0000
0001
0010
,
0100
1000
0001
0000
1001
1000
0001
0100
,
0101
0000
0000
0000
;

//---------------dance-single - ----------------
#NOTES:
     dance-single:
     :
     Easy:
     3:
     0.170380,0.161445,0.048482,0.000000,0.000000,118.000000,5.000000,0.000000,0.000000,0.000000,0.000000,0.170380,0.161445,0.048482,0.000000,0.000000,118.000000,5.000000,0.000000,0.000000,0.000000,0.000000:
0000
0000
0000
0000
,
0000
0000
0000
0000
,
0000
0000
0000
0000
,
0000
0000
0000
0000
,
0001
0010
0100
0000
,
0100
0000
0100
0000
,
1000
0000
1000
0000
,
0010
0010
0010
0000
,
1000
0000
0000
0000
,
0001
0000
0000
0000
,
1010
0000
0000
0000
,
0101
0000
0000
0000
,
0010
0000
0010
0000
,
0001
0001
0001
1000
,
0100
0000
0100
0000
,
1000
1000
0010
0000
,
1000
0100
0001
0000
,
1000
0100
0001
0000
,
1000
0010
0001
0000
,
0010
0000
0010
0000
,
1000
0000
0100
0000
,
1000
0010
0100
0000
,
0001
0000
0001
0000
,
0010
0001
0010
0000
,
0100
0100
0100
0000
,
0100
0000
0000
0000
,
0010
0001
0010
0000
,
0001
0000
0000
0000
,
1000
1000
1000
0000
,
0010
0000
0000
0000
,
0100
0000
0100
0000
,
1001
0000
0000
0000
,
0010
0010
0010
0000
,
1000
0000
0100
0000
,
1000
0100
0001
0010
,
1000
0000
0000
0000
,
0001
0001
0001
0000
,
1000
1000
1000
0000
,
0010
0000
0010
0000
,
0100
0000
1001
0000
,
0010
0001
0100
0000
,
0010
0000
0010
0000
,
1000
0100
0001
0010
,
1000
0000
0001
0000
,
0010
0100
0010
0000
,
0100
0000
0000
0000
,
0010
0010
0010
0000
,
0010
0000
0100
0000
,
1000
0010
0100
0000
,
0001
0000
0000
0000
,
0010
1000
0100
0001
,
0010
0000
0010
0000
,
0100
0100
0100
0000
,
0001
0000
0000
0000
,
0010
0000
0000
0000
,
0100
0000
1001
0000
;

//---------------dance-single - ----------------
#NOTES:
     dance-single:
     :
     Medium:
     6:
     0.378160,0.380099,0.242410,0.019393,0.000000,246.000000,25.000000,2.000000,0.000000,0.000000,0.000000,0.378160,0.380099,0.242410,0.019393,0.000000,246.000000,25.000000,2.000000,0.000000,0.000000,0.000000:
// measure 0
0000
0000
0000
0000
,  // measure 1
0000
0000
0000
0000
,  // measure 2
0000
0000
0000
0000
,  // measure 3
0000
0000
0000
0000
,  // measure 4
1000
0100
1000
0000
,  // measure 5
0001
0100
0001
0000
,  // measure 6
1000
0010
1000
0000
,  // measure 7
0001
0000
0011
0000
,  // measure 8
0100
0000
1000
0010
0000
0000
1000
0000
,  // measure 9
0100
0000
1000
0010
0000
0000
1000
0000
,  // measure 10
0100
0000
1000
0010
0000
0000
1000
0000
,  // measure 11
0100
0000
0010
0001
0000
0010
0001
0010
,  // measure 12
0001
0000
0000
0000
0010
0000
0001
0001
,  // measure 13
0001
0001
0010
0000
0100
0000
1000
1000
,  // measure 14
0001
0000
0000
0000
0010
0000
0001
0001
,  // measure 15
0001
0001
0010
0000
0100
0000
0000
0000
,  // measure 16
1010
0000
0100
0010
0001
0000
0100
0000
,  // measure 17
0010
0100
0010
0100
0010
0000
0000
0000
,  // measure 18
1000
0100
1000
0100
1000
0000
0000
0000
,  // measure 19
0001
0000
0001
0000
,  // measure 20
1000
0010
1000
0010
1000
0000
0001
0000
,  // measure 21
0100
0001
0100
0000
0010
0000
0000
0000
,  // measure 22
1000
0100
1000
0100
1000
0000
0000
0000
,  // measure 23
0001
0000
1000
0000
,  // measure 24
1000
0010
1000
0010
1000
0010
1000
0000
,  // measure 25
0001
0010
0001
0010
0001
0010
0001
0000
,  // measure 26
1000
0001
1000
0001
1000
0001
1000
0000
,  // measure 27
0010
0100
0010
0100
0010
0100
0010
0000
,  // measure 28
1000
0100
1000
0100
1000
0100
1000
0000
,  // measure 29
0001
0010
0001
0010
0001
0010
0001
0000
,  // measure 30
2000
3100
2000
3100
,  // measure 31
0011
0000
0011
0000
,  // measure 32
1001
1001
1001
0000
,  // measure 33
0010
1000
0010
0000
0100
0000
0100
0000
,  // measure 34
0001
0010
1000
0100
,  // measure 35
0001
0010
0001
0010
0001
0000
0000
0000
,  // measure 36
1100
0000
1100
0000
1100
0000
0010
0001
,  // measure 37
0100
0000
0010
1000
0100
0000
1000
1000
,  // measure 38
0010
0000
1000
0000
0100
0000
0010
0001
,  // measure 39
0010
0100
1001
0000
,  // measure 40
0101
0000
0101
0000
0101
0000
0010
1000
,  // measure 41
0100
1000
0010
0100
,  // measure 42
0001
0010
1000
0100
,  // measure 43
0001
0010
0001
0010
0100
1000
0100
1000
,  // measure 44
1010
1010
1010
0000
,  // measure 45
0001
0010
0100
0000
0010
0000
0100
1000
,  // measure 46
0100
0000
1000
0000
0010
0000
0100
0001
,  // measure 47
0100
0010
1000
0000
1001
0000
0000
0000
,  // measure 48
0011
0000
0011
0000
0011
0000
0100
1000
,  // measure 49
0010
0000
0100
0001
0010
0000
0100
0000
,  // measure 50
1000
0010
0001
0100
,  // measure 51
1000
0100
1000
0100
1000
0001
1000
0001
,  // measure 52
1000
1010
1010
0010
,  // measure 53
0100
0000
0001
0000
0010
0000
0100
1000
,  // measure 54
0010
0000
0100
0001
0010
0000
0100
1000
,  // measure 55
0100
0010
0001
0000
0011
0000
0000
0000
,  // measure 56
1001
0000
0000
0000
;
