#TITLE:童話回廊;
#SUBTITLE:;
#ARTIST:DJ TOTTO;
#TITLETRANSLIT:Douwa kairou;
#SUBTITLETRANSLIT:;
#ARTISTTRANSLIT:;
#GENRE:;
#CREDIT:Silverhawke;
#MENUCOLOR:;
#METERTYPE:DDR;
#BANNER:[Round 2 Singles & Doubles] - Douwa kairou.png;
#BACKGROUND:[Round 2 Singles & Doubles] - Douwa kairou-bg.png;
#LYRICSPATH:;
#CDTITLE:cdtitle.png;
#MUSIC:[Round 2 Singles & Doubles] - Douwa kairou.mp3;
#OFFSET:-0.028;
#SAMPLESTART:22.229;
#SAMPLELENGTH:15.000;
#SELECTABLE:YES;
#LISTSORT:;
#BPMS:0.000=262.000;
#STOPS:;
#BGCHANGES:0.000=[Round 2 Singles & Doubles] - Douwa kairou.avi=1.000=1=0=0,
99999=-nosongbg-=1.000=0=0=0 // don't automatically add -songbackground-
;
#ATTACKS:;

//---------------dance-single - ----------------
#NOTES:
     dance-single:
     :
     Hard:
     9:
     0.673,0.733,0.161,0.500,0.000:
0000
0000
0000
0000
,
0000
0000
0000
0000
,
0000
0000
0000
0000
,
0000
0000
0000
0000
,
0000
0000
0000
0000
,
0000
0000
0000
0000
,
0001
0000
0010
0100
0000
0100
0010
0000
,
0001
0000
1000
0000
0010
0100
0000
0100
,
0010
0000
1000
0000
0001
0000
0100
0010
,
0000
0010
0100
0000
0001
0000
1000
0100
,
0000
0010
0001
0000
1000
0010
0100
0001
,
1000
0000
0001
0100
0000
0100
0010
0000
,
1000
0000
0001
0000
0010
0100
0000
0100
,
1000
0000
0001
0000
0100
0000
0010
1000
,
0000
1000
0001
0000
0010
0000
0100
0000
,
1000
0001
0000
0001
0010
0000
0100
0000
,
1000
0000
0010
0100
0000
0100
0001
0000
,
1000
0000
0100
0000
0010
0001
0000
0001
,
1000
0000
0010
0000
0100
0000
0001
1000
,
0000
1000
0100
0000
0010
0000
0001
0000
,
0100
0010
0000
0010
0100
0000
0100
0000
,
0100
2002
0000
0000
,
0000
3000
0000
0200
,
0000
0000
0000
0303
,
0000
0000
1001
0000
0000
0001
0100
0001
,
0100
0010
1000
0002
,
0000
1003
0100
1000
0100
0000
0010
0000
,
0001
0000
2000
0000
0000
3010
0100
0010
,
0100
0001
1000
0200
,
0000
0310
0001
0010
0200
0000
0000
0000
,
1300
0002
0000
0103
,
0100
0010
1000
0002
,
0000
0000
0013
0100
1000
0000
0010
0000
,
0100
0000
0001
0000
0000
1000
0000
0001
,
0100
0000
0010
1000
0001
1000
0100
0000
,
0010
0000
0001
1000
0002
0000
0000
0000
,
0003
0000
1001
0000
0000
1000
0100
1000
,
0100
0010
0001
2000
,
0000
3001
0100
0001
0100
0000
0010
0000
,
1000
0000
0002
0000
0000
0013
0100
0010
,
0100
1000
0001
0200
,
0000
0310
0100
0010
1000
0000
0001
0000
,
1000
0000
0020
0000
0000
0130
0001
0100
,
0001
0000
0010
0100
1000
0000
0002
0000
,
0000
1003
0100
0010
0100
0000
1000
0000
,
0001
0000
0020
0000
0000
0000
0031
0100
,
0010
1000
0001
0020
,
0100
0000
0130
0000
1000
0001
0100
0001
,
1000
0000
0001
0000
1000
0100
0000
0100
,
0010
0000
0001
0000
1000
0000
0010
0100
,
0000
0100
0001
0000
1000
0000
0100
0000
,
0010
0001
0000
0001
1000
0000
0010
0000
,
0100
0000
0001
1000
0000
1000
0010
0000
,
0100
0000
0001
0000
0010
0100
0000
0100
,
1000
0000
0001
0000
0100
0000
0010
1000
,
0000
1000
0001
0000
0010
0000
0100
0000
,
1000
0001
0000
0001
0100
0000
0010
0000
,
1000
0000
0100
0010
0000
0010
0100
0000
,
0100
1000
0100
0010
0100
0000
1000
0000
,
0001
0100
0010
0000
1000
0000
0001
0010
,
0100
0010
0001
1001
,
0000
1000
0001
0100
0001
0000
0000
0001
,
1000
0100
1000
0000
0001
0010
0100
0010
,
0001
0100
0010
2020
,
0000
3030
0200
0000
,
0301
0000
0020
0000
0000
0130
1000
0001
,
1000
0010
0100
0002
,
0000
1003
0100
0010
0002
0000
0000
0000
,
0103
0010
1000
0001
,
0022
0000
0000
0000
,
0000
0000
0033
0000
,
1000
0100
0010
0001
,
2000
0000
0000
0000
,
3000
0010
0200
0000
,
0000
0000
0300
0001
,
2000
0000
0000
0000
,
0000
3000
1001
0000
,
0001
0010
0100
1000
,
0002
0000
0000
0000
,
0003
0100
0020
1000
,
1000
1000
1000
1030
,
1001
0000
0001
1000
0000
0001
1000
0010
,
0100
0001
0100
0010
2000
0000
3001
0000
,
0010
0000
0100
0000
1000
0001
0100
0001
,
0100
0010
1000
1200
,
0000
0000
0310
0001
1000
0000
0001
0000
,
0100
0010
0100
0000
0010
1000
0001
1000
,
0100
0010
0001
2002
,
0000
3003
0002
0103
,
0010
0000
1000
0000
0001
1000
0100
1000
,
0100
0010
0001
0201
,
0000
0310
2001
0000
,
3100
0000
0021
0000
0000
0130
1000
0100
,
0010
0001
0100
0010
,
1000
0001
0101
0010
,
1000
0011
0100
1000
,
0110
0001
0100
2001
,
0000
0000
3010
0100
0002
0000
1000
0000
,
1003
0020
2030
3002
,
0023
0230
2300
3002
,
0000
0000
0103
0010
,
1000
0002
0023
0230
,
2300
3020
0230
0302
,
2003
0000
0000
0000
3001
0000
0010
0100
,
0010
0000
0001
0000
0100
0010
0100
0000
,
0001
0000
1000
0100
1000
0000
0010
0000
,
0100
0000
0101
0000
0010
0000
1000
0001
,
1000
0000
0100
0000
0010
0001
0010
0000
,
0100
0000
1000
0010
1000
0000
0001
0010
,
0100
0000
1000
0000
0001
0100
0001
0100
,
0010
0000
1000
0100
1000
0100
0010
0000
,
0001
0100
0010
0000
1000
0000
0001
0010
,
0100
1000
0100
0010
0002
0000
0000
0000
,
0000
0000
0000
0000
,
0000
0000
0000
0100
,
0100
0000
0000
0000
,
0000
0000
0000
0000
,
0000
0003
0000
0000
;

//---------------dance-single - ----------------
#NOTES:
     dance-single:
     :
     Medium:
     6:
     0.455,0.523,0.045,0.170,0.000:
0000
0000
0000
0000
,
0000
0000
0000
0000
,
0000
0000
0000
0000
,
0000
0000
0000
0000
,
0000
0000
0000
0000
,
0000
0000
0000
0000
,
0001
0010
0100
1000
,
0001
1000
0010
0100
,
0001
1000
0001
0010
,
0100
1000
0001
1000
,
0010
0100
0001
1000
,
0001
0000
0000
0010
0000
0000
0100
0000
,
1000
0000
0001
0000
0000
0100
0000
0000
,
0010
0000
0100
0000
0001
0000
0000
1000
,
0000
0100
0010
0001
,
0000
1000
0000
0000
0010
0000
0010
0000
,
1000
0000
0000
0100
0000
0000
0010
0000
,
0001
0000
1000
0000
0000
0010
0000
0000
,
0100
0000
0010
0000
1000
0000
0000
0100
,
0000
0010
0001
0100
,
0000
0010
0000
0000
0100
0000
0100
0000
,
0100
0020
0000
0000
,
0000
0000
0030
0200
,
0000
0000
0000
0000
,
0300
1001
0000
0001
,
0010
0100
1000
0010
,
0000
0100
0001
1000
,
0001
0010
0000
0100
,
1000
0001
1000
0010
,
0000
0100
0001
0000
,
0010
0100
0000
1000
,
1000
0100
0010
0001
,
0000
0000
0100
0010
0100
0000
0001
0000
,
1000
0000
0100
0000
0000
0010
0000
0000
,
0100
1000
0010
0100
,
0000
0000
0001
1000
0001
0000
0000
0000
,
0000
1001
0000
1000
,
0010
0100
0001
0010
,
0000
0100
1000
0001
,
1000
0010
0000
0100
,
0001
1000
0001
0010
,
0000
0100
1000
0010
,
0100
0001
0000
1000
,
0100
0010
0100
1000
,
0000
0001
0001
0100
,
0010
0000
1000
0000
0000
0000
0001
0100
,
0001
1000
0100
0020
,
0000
0000
0030
0000
,
0000
0000
0001
0000
0000
1000
0000
0000
,
0100
0000
0010
0000
0001
0000
0000
0100
,
0000
0010
1000
0100
,
0000
0010
0000
0000
0001
0000
0100
0000
,
0010
0000
0000
1000
0000
0000
0001
0000
,
0001
0000
0100
0000
0000
0010
0000
0000
,
1000
0000
0001
0000
0010
0000
0000
0100
,
0000
1000
0001
0100
,
0000
0010
0000
0000
1000
0000
0001
0000
,
0010
0000
0000
0100
0000
0000
1000
0000
,
0001
0000
1000
0100
1000
0000
0000
0000
,
0001
0100
0001
0000
0000
0000
1000
0010
,
1000
0001
0010
0200
,
0000
0000
1300
0001
1000
0000
0000
0000
,
0010
0100
0010
0000
1000
0000
0100
0000
,
0010
0001
1000
0002
,
0000
0003
1000
0000
,
0100
0000
0100
0000
0000
0000
0010
0001
,
0010
0001
1000
0010
,
0000
0000
0100
0001
0100
0000
0000
0000
,
0010
1000
0001
0010
,
0200
0000
0000
0000
,
0000
0000
0300
0000
,
1000
0100
0010
0001
,
2000
0000
0000
3000
,
0000
0010
0200
0000
,
0000
0300
0000
0001
,
0020
0000
0000
0030
,
0000
0000
1001
0000
,
0001
0100
0010
1000
,
0002
0000
0000
0003
,
0000
0010
0200
0000
,
0000
1300
0001
1000
,
0001
1000
0001
1000
,
0010
0100
0001
0000
,
0010
0200
0000
1300
,
0001
0100
0010
1000
,
0000
0001
0010
0000
,
0100
1000
0001
0100
,
0010
1000
0001
1001
,
0000
0000
0001
0000
,
0100
0020
0000
1030
,
0100
0010
0001
0100
,
0000
0010
2000
0000
,
3001
0020
0000
0130
,
1000
0001
0100
1000
,
0100
0001
1000
0100
,
0100
0010
0001
0001
,
1000
0010
0100
0110
,
0000
0000
1000
0001
0020
0000
0000
0000
,
0030
0001
0100
0010
,
1000
0100
0010
0002
,
0000
0003
1000
0000
,
0000
0010
0100
0001
,
0010
0100
1000
0001
,
1000
0000
0010
0100
,
0010
0100
0001
0100
,
0001
1000
0001
1000
,
0100
0010
0001
0100
,
0001
0100
0010
0100
,
0010
1000
0010
1000
,
0100
0010
0001
1000
,
0001
1000
0010
1000
,
0010
0100
0010
0100
,
0001
0020
0200
0000
,
0000
0000
0000
0000
,
0000
0000
0000
0000
,
0030
0000
0000
0000
,
0000
0000
0000
0000
,
0000
0300
0000
0000
;

//---------------dance-single - ----------------
#NOTES:
     dance-single:
     :
     Easy:
     4:
     0.251,0.314,0.000,0.027,0.000:
0000
0000
0000
0000
,
0000
0000
0000
0000
,
0000
0000
0000
0000
,
0000
0000
0000
0000
,
0000
0000
0000
0000
,
0000
0000
0000
0000
,
0001
0000
0000
0100
,
0000
0010
0000
0000
,
1000
0000
0100
0000
,
0000
0010
0000
0001
,
0000
0000
1000
0000
,
0010
0000
0000
0100
,
0000
0001
0000
0000
,
0010
0000
0100
0000
,
0000
1000
0000
0001
,
0000
0000
0100
0000
,
0010
0000
0000
1000
,
1000
1000
0000
0000
,
0001
0001
0001
0000
,
0000
1000
1000
1000
,
0000
0000
0001
0001
,
0000
0001
0000
0000
,
0000
0000
0000
0100
,
0000
0000
0000
0000
,
0000
0000
0010
0000
0000
0100
0000
0000
,
0010
0000
0000
1000
,
0000
0001
0000
0000
1000
0000
0000
0000
,
0000
0000
0010
0000
0000
0100
0000
0000
,
0010
0000
0000
1000
,
0000
0001
0000
0000
1000
0000
0000
0000
,
0000
0100
0000
0000
,
0010
0000
0000
0001
,
0100
0001
0100
0000
,
0000
0010
0000
0000
,
1000
0000
1000
0100
,
0000
0100
0010
0000
,
0000
0000
0100
0000
0000
0010
0000
0000
,
0100
0000
0000
1000
,
0000
0001
0000
0000
1000
0000
0000
0000
,
0000
0000
0100
0000
0000
0010
0000
0000
,
0100
0000
0000
1000
,
0000
0001
0000
0000
1000
0000
0000
0000
,
0000
0010
0000
0000
,
0100
0000
0000
0001
,
0000
0001
0010
0000
,
0000
0100
0000
0100
,
1000
0000
1000
0002
,
0000
0000
0003
0000
,
0000
0100
0000
0000
,
0010
0010
1000
0000
,
0000
1000
1000
0001
,
0000
0000
0001
0001
,
0010
0000
0000
0010
,
0010
0100
0000
0000
,
0100
0100
1000
0000
,
0000
1000
1000
0001
,
0000
0000
0001
0001
,
0010
0000
0000
0010
,
0010
0100
0100
0000
,
0000
1000
0000
0000
,
0001
0100
0001
0100
,
0000
0000
0010
0000
,
0000
1000
0000
0000
,
0001
0010
0001
0010
,
0000
0000
0100
0000
,
0000
1000
0000
0000
,
0001
1000
0001
1000
,
0000
0000
0100
0000
,
0000
0010
0000
0010
,
0002
0000
0000
0000
,
0000
0000
0003
0000
,
0000
0000
0000
0000
,
1000
0000
0000
0000
,
0000
0000
0010
0000
,
0000
0000
0000
0000
,
0001
0000
0000
0000
,
0000
0000
0100
0000
,
0000
0000
0000
0000
,
1000
0000
0000
0000
,
0000
0000
0100
0000
,
0000
0000
0000
0000
,
0010
0000
0000
0001
,
1000
0001
1000
0000
,
0000
0010
0000
0000
,
0100
0001
0100
0001
,
0000
0000
1000
0000
,
0000
0100
0010
0000
,
0001
0000
0000
0100
,
0000
0000
0010
0000
,
0000
1000
0000
0000
,
0001
1000
0001
1000
,
0000
0000
0100
0000
,
0010
0001
0000
0000
,
1000
0000
0000
0010
,
0100
0001
1000
0000
,
0000
0100
0000
0000
,
0010
0001
0010
0100
,
0000
0000
1000
0000
,
0000
0001
0000
0000
,
0100
0010
0100
0010
,
0000
0000
1000
0000
,
0000
0001
0000
0000
,
0010
0100
1000
0100
,
0000
0000
0010
0000
,
0000
0001
0000
0000
,
0100
0000
0000
0010
,
1000
0010
1000
0000
,
0000
0100
0000
0000
,
0010
0000
0000
0001
,
0100
0001
0100
0000
,
0000
0010
0000
0000
,
1000
0000
0000
0100
,
0010
0100
0020
0000
,
0000
0000
0000
0000
,
0000
0000
0000
0000
,
0000
0000
0000
0000
,
0000
0000
0000
0000
,
0000
0030
0000
0000
;

//---------------dance-double - ----------------
#NOTES:
     dance-double:
     :
     Hard:
     9:
     0.636,0.733,0.107,0.348,0.000:
00000000
00000000
00000000
00000000
,
00000000
00000000
00000000
00000000
,
00000000
00000000
00000000
00000000
,
00000000
00000000
00000000
00000000
,
00000000
00000000
00000000
00000000
,
00000000
00000000
00000000
00000000
,
00010000
00000000
00001000
01000000
00000000
01000000
00100000
00000000
,
00010000
00000000
00001000
00000000
00010000
00000100
00000000
00000100
,
00000010
00000000
00001000
00000000
00010000
00000000
00001000
00100000
,
00000000
00100000
01000000
00000000
00010000
00000000
00001000
00000010
,
00000000
00000010
00000100
00000000
00010000
00001000
00100000
01000000
,
10000000
00000000
00100000
01000000
00000000
01000000
00010000
00000000
,
00100000
00000000
00001000
00000000
00010000
00000100
00000000
00000100
,
00001000
00000000
00000010
00000000
00000100
00000000
00001000
00010000
,
00000000
00010000
00100000
00000000
01000000
00000000
00010000
00000000
,
10000000
01000000
00000000
01000000
00010000
00000000
00001000
00000000
,
00000100
00000000
00000010
00001000
00000000
00001000
00000001
00000000
,
00000010
00000000
00000100
00000000
00010000
00001000
00000000
00001000
,
00100000
00000000
01000000
00000000
00010000
00000000
00001000
00000100
,
00000000
00000100
00000010
00000000
00010000
00000000
00001000
00000000
,
01000000
00100000
00000000
00100000
10000000
00000000
10000000
00000000
,
10000000
10020000
00000000
00000000
,
00000000
00000000
00000000
00030100
,
00000000
00000000
00000000
00000000
,
00000000
00000000
00001001
00000000
00000000
00000001
00000100
00000001
,
00000100
00000010
00010000
00002000
,
00000000
00103000
01000000
00100000
01000000
00000000
10000000
00000000
,
00010000
00000000
02000000
00000000
00000000
03001000
00100000
00001000
,
00100000
01000000
00010000
00002000
,
00000000
00003100
00000010
00000100
00000020
00000000
00000000
00000000
,
00001030
00000002
00000000
00000103
,
00000100
00001000
00010000
00200000
,
00000000
00000000
01300000
00001000
00010000
00000000
01000000
00000000
,
10000000
00000000
10000000
00000000
00000000
00010000
00000000
01000000
,
00001000
00000000
00010000
00000100
00001000
00000100
00020000
00000000
,
00000000
00000000
01030000
10000000
00020000
00000000
00000000
00000000
,
00030000
00000000
10010000
00000000
00000000
10000000
01000000
10000000
,
01000000
00100000
00001000
00020000
,
00000000
00030010
00000100
00000010
00000100
00000000
00000001
00000000
,
00001000
00000000
00000200
00000000
00000000
00010300
00000010
00010000
,
00000010
00000100
00001000
00020000
,
00000000
01030000
00100000
01000000
10000000
00000000
00010000
00000000
,
01000000
00000000
00200000
00000000
00000000
10300000
01000000
10000000
,
00100000
00010000
00001000
00000020
,
00000000
00000031
00000100
00000001
00001000
00000000
00000100
00000000
,
00010000
00000000
00002000
00000000
00000000
00000000
00013000
01000000
,
00100000
00010000
01000000
20000000
,
00000000
00000000
00000000
00000000
,
30000000
00000000
01000000
00000000
00010000
10000000
00010000
10000000
,
01000000
00000000
01000000
00000000
00100000
00000000
00001000
00010000
,
00001000
00010000
00000010
00000000
00000010
00000000
00000100
00000000
,
00000001
00001000
00000001
00001000
00000100
00000000
00000100
00000000
,
00010000
00000000
00001000
00100000
00001000
00100000
01000000
00000000
,
01000000
00000000
10000000
00000000
00010000
01000000
00010000
01000000
,
00100000
00000000
00100000
00000000
00010000
00000000
00001000
00010000
,
00001000
00010000
00000100
00000000
00000100
00000000
00000010
00000000
,
00000001
00001000
00000001
00001000
00000100
00000000
00000100
00000000
,
00010000
00000000
00001000
01000000
00001000
01000000
00100000
00000000
,
00100000
10000000
00100000
01000000
00200000
00000000
00000000
00000000
,
10300000
01000000
00200000
00000000
00000000
00301000
00010000
00000100
,
00001000
00000010
00000100
00000002
,
00000000
00001003
00000100
00010000
00002000
00000000
00000000
01003000
,
00010000
01000000
00010000
00000000
10000000
00000000
01000000
00100000
,
00010000
10000000
00100000
02200000
,
00000000
03300000
00020000
00000000
,
10030000
00000000
02000000
00000000
00000000
03100000
00001000
00010000
,
00001000
00000010
00000100
00002000
,
00000000
00003001
00000100
00000010
00020000
00000000
00000000
00000000
,
00031000
01000000
00100000
00010000
,
00002000
00000000
00000000
00000000
,
00000000
00000000
00003000
00000000
,
00000100
00000010
00001000
00010000
,
02000000
00000000
00000000
03000000
,
00000000
00100000
20000000
00000000
,
00000000
30000000
00000000
01000000
,
00020000
00000000
00000000
00000000
,
00030000
00000000
00011000
00000000
,
00001000
00000100
00000010
00010000
,
00002000
00000000
00000000
00003000
,
00000000
00000010
00000001
00001000
,
00001000
00000010
00010000
00010000
,
00001000
00000000
00100000
01000000
00000000
00100000
01000000
00000000
,
10000000
00000000
00010000
10000000
00100000
00000000
01000000
00000000
,
00010000
00000000
00100000
00000000
00001000
00010000
00000100
00010000
,
00000100
00000010
00000001
00001001
,
00000000
00000000
00001000
00000010
00010000
00000000
00001000
00000000
,
00100000
01000000
00100000
00000000
00010000
01000000
00100000
10000000
,
00010000
00100000
01000000
22000000
,
00000000
33000000
10000000
00010000
,
01000000
00000000
00001000
00000000
00010000
00000100
00000010
00000100
,
00000010
00000001
00000100
00000110
,
00000000
00000010
00020000
00000000
,
00130000
00000000
02000000
00000000
00000000
03100000
10000000
00010000
,
00100000
00001000
00010000
00001000
,
00000100
00000001
00000101
00000100
,
00001000
00011000
00010000
00100000
,
10100000
10000000
01000000
01100000
,
00000000
00000000
00100000
00010000
10000000
00000000
00100000
01000000
,
00000000
00001000
01000000
00000000
00001000
00000000
00010000
00000000
,
00000100
00001000
00000001
00000000
00000010
00000000
00000200
00000000
,
00000000
00000000
00020300
00000000
,
00000000
00031000
01000000
00100000
,
10000000
00010000
10000000
00000000
01000000
00000000
00100000
00000000
,
00002000
00000000
00000000
00000000
00013000
00000000
00001000
01000000
,
00001000
00000000
00010000
00000000
00000100
00001000
00000100
00000000
,
00000010
00000000
00000001
00000100
00000001
00000000
00001000
00000000
,
00000100
00000000
00010000
00000000
00001000
00000000
01000000
00100000
,
01000000
00000000
00010000
00000000
10000000
01000000
10000000
00000000
,
00100000
00000000
01000000
00001000
01000000
00000000
00010000
00100000
,
00010000
00000000
01000000
00000000
00001000
00010000
00000100
00000000
,
00000010
00000000
00000001
00000100
00000010
00000000
00001000
00000000
,
00000100
00010000
00000100
00000000
01000000
00000000
00010000
00100000
,
01000000
10000000
01000000
00010000
00002000
00000000
00000000
00000000
,
00000000
00000000
00000000
00000000
,
00000000
00000000
00000000
10000000
,
10000000
00000000
00000000
00000000
,
00000000
00000000
00000000
00000000
,
00000000
00003000
00000000
00000000
;

//---------------dance-double - ----------------
#NOTES:
     dance-double:
     :
     Medium:
     6:
     0.356,0.366,0.062,0.054,0.000:
00000000
00000000
00000000
00000000
,
00000000
00000000
00000000
00000000
,
00000000
00000000
00000000
00000000
,
00000000
00000000
00000000
00000000
,
00000000
00000000
00000000
00000000
,
00000000
00000000
00000000
00000000
,
00001000
00000000
00000000
01000000
00000000
00000000
00010000
00000000
,
00010000
00000000
01000000
00000000
00000000
00100000
00000000
00000000
,
10000000
00000000
10000000
00000000
01000000
00000000
00000000
00100000
,
00000000
00001000
00001000
00010000
,
00000000
00000100
00000000
00000000
00000010
00000000
00000010
00000000
,
00000001
00000000
00000000
00001000
00000000
00000000
00000100
00000000
,
00000010
00000000
00000100
00000000
00000000
00001000
00000000
00000000
,
00000001
00000000
00000100
00000000
00000001
00000000
00000000
00001000
,
00000000
00000100
00010000
00000100
,
00000000
00010000
00000000
00000000
00001000
00000000
01000000
00000000
,
00010000
00000000
00000000
10000000
00000000
00000000
00100000
00000000
,
01000000
00000000
00100000
00000000
00000000
10000000
00000000
00000000
,
00010000
00000000
00100000
00000000
00010000
00000000
00000000
01000000
,
00000000
00001000
00010000
00001000
,
00000000
00010000
00000000
00000000
00000100
00000000
00001000
00000000
,
00000100
00002000
00000000
00000000
,
00000000
00003000
00000000
00000002
,
00000000
00000000
00000000
00000003
,
00000000
00001001
00000000
00000001
,
00001000
00000001
00000001
00000100
,
00000000
00000010
00001000
00000000
,
00001000
00000100
00000000
00010000
,
00001000
00010000
00010000
00001000
,
00000000
01000000
00010000
00000000
,
00010000
01000000
00000000
00100000
,
00100000
10000000
00100000
01000000
,
00000000
00010000
10000000
00000000
,
10000000
00010000
00000000
00100000
,
01000000
00100000
00100000
00010000
,
00000000
10000000
01000000
00000000
,
00000000
10010000
00000000
10000000
,
01000000
10000000
10000000
00010000
,
00000000
01000000
00001000
00000000
,
00001000
00010000
00000000
00001000
,
00010000
00001000
00001000
00100000
,
00000000
00001000
00010000
00000000
,
00010000
00000100
00000000
00000010
,
00000001
00000010
00000010
00000100
,
00000000
00000010
00000001
00001000
,
00001000
00000001
00000000
00000100
,
00000010
00000000
00000010
00020000
,
00000000
00000000
00000000
00030000
,
00000000
00000000
00001000
00000000
00000000
01000000
00000000
00000000
,
00001000
00000000
01000000
00000000
00010000
00000000
00000000
10000000
,
00000000
00010000
10000000
01000000
,
00000000
00100000
00000000
00000000
01000000
00000000
00100000
00000000
,
00001000
00000000
00000000
00010000
00000000
00000000
00001000
00000000
,
00010000
00000000
00000100
00000000
00000000
00001000
00000000
00000000
,
00000100
00000000
00001000
00000000
00000001
00000000
00000000
00000100
,
00000000
00000001
00000100
00000010
,
00000000
00001000
00000000
00000000
00000010
00000000
00001000
00000000
,
00000100
00000000
00000000
00010000
00000000
00000000
00000100
00000000
,
00010000
00000100
00001000
00000000
,
00001000
00000001
00000000
00000001
,
00000100
00000000
00000100
00000010
,
00000000
00000010
00010000
00000000
,
00010000
00001000
00000000
00001000
,
00100000
00000000
00100000
01000000
,
00000000
00000000
10000000
00000000
,
10000000
00010000
00000000
00010000
,
01000000
00000000
01000000
00001000
,
00000000
00001000
00010000
00000000
,
00010000
00000100
00000000
00000100
,
00000020
00000000
00000000
00000000
,
00000000
00000000
00000030
00000000
,
00000001
00000100
00000000
00000100
,
00000010
00000000
00000000
00000000
,
00000000
00000010
00010000
00000000
,
00000000
00000000
00000000
00010000
,
00001000
00000000
00000000
00000000
,
00000000
00000000
01000000
00000000
,
00100000
10000000
00000000
10000000
,
00010000
00000000
00000000
00000000
,
00000000
00100000
01000000
00000000
,
00000000
01000000
00000000
00000000
,
01000000
00100000
01000000
00100000
,
00000000
00000000
00010000
00000000
,
01000000
00001000
00000000
00001000
,
00010000
00000000
00010000
00000100
,
00000000
00000000
00000010
00000000
,
00000000
00000001
00001000
00000001
,
00001000
00000000
00000000
00000100
,
00000000
00000000
00000010
00000000
,
00000010
00000001
00000000
00000001
,
00001000
00000000
00001000
00000100
,
00000000
00000100
00010000
00000000
,
00010000
00001000
00000000
00001000
,
01000000
00010000
10000000
00010000
,
00000000
00000000
11000000
00000000
,
00000000
01010000
00000000
00000000
,
10010000
00000000
00000000
01100000
,
00000000
00000000
10000000
00000000
,
00000000
01000000
00100000
00001000
,
00010000
00000000
00010000
00000100
,
00000000
00000000
00000010
00000000
,
00000000
00000001
00001000
00000001
,
00001000
00000000
00000010
00000100
,
00000000
00000000
00001000
00000000
,
00000000
00010000
00000000
00000000
,
00100000
01000000
00010000
10000000
,
00000000
00000000
01000000
00000000
,
00000000
00100000
00000000
00000000
,
00001000
00010000
00001000
00010000
,
00000000
00000000
00000100
00000000
,
00000000
00000010
00000000
00000000
,
00000001
00001000
00000001
00001000
,
00000000
00000000
00002002
00000000
,
00000000
00000000
00000000
00000000
,
00000000
00000000
00000000
00000000
,
00000003
00000000
00000000
00000000
,
00000000
00000000
00000000
00000000
,
00000000
00003000
00000000
00000000
;

//---------------dance-double - ----------------
#NOTES:
     dance-double:
     :
     Easy:
     4:
     0.251,0.314,0.000,0.027,0.000: // measure 1
00000000
00000000
00000000
00000000
,  // measure 2
00000000
00000000
00000000
00000000
,  // measure 3
00000000
00000000
00000000
00000000
,  // measure 4
00000000
00000000
00000000
00000000
,  // measure 5
00000000
00000000
00000000
00000000
,  // measure 6
00000000
00000000
00000000
00000000
,  // measure 7
10000000
00000000
00000000
01000000
,  // measure 8
00000000
00100000
00000000
00000000
,  // measure 9
01000000
00000000
00100000
00000000
,  // measure 10
00000000
00001000
00000000
00100000
,  // measure 11
00000000
00000000
00001000
00000000
,  // measure 12
00010000
00000000
00000000
00000100
,  // measure 13
00000000
00010000
00000000
00000000
,  // measure 14
00000100
00000000
00001000
00000000
,  // measure 15
00000000
00000100
00000000
00001000
,  // measure 16
00000000
00000000
00000001
00000000
,  // measure 17
00000100
00000000
00000000
00000001
,  // measure 18
00000001
00000001
00000000
00000000
,  // measure 19
00000100
00000100
00000100
00000000
,  // measure 20
00000000
00000010
00000010
00000010
,  // measure 21
00000000
00000000
00010000
00010000
,  // measure 22
00000000
00010000
00000000
00000000
,  // measure 23
00000000
00000000
00000000
00001000
,  // measure 24
00000000
00000000
00000000
00000000
,  // measure 25
00000000
00000000
00100000
00000000
00000000
01000000
00000000
00000000
,  // measure 26
00100000
00000000
00000000
00010000
,  // measure 27
00000000
10000000
00000000
00000000
00010000
00000000
00000000
00000000
,  // measure 28
00000000
00000000
00100000
00000000
00000000
01000000
00000000
00000000
,  // measure 29
00100000
00000000
00000000
00001000
,  // measure 30
00000000
00010000
00000000
00000000
00001000
00000000
00000000
00000000
,  // measure 31
00000000
01000000
00000000
00000000
,  // measure 32
00100000
00000000
00000000
10000000
,  // measure 33
01000000
10000000
01000000
00000000
,  // measure 34
00000000
00100000
00000000
00000000
,  // measure 35
00001000
00000000
00001000
00010000
,  // measure 36
00000000
00010000
00000010
00000000
,  // measure 37
00000000
00000000
00001000
00000000
00000000
00000100
00000000
00000000
,  // measure 38
00001000
00000000
00000000
00000001
,  // measure 39
00000000
00000100
00000000
00000000
00000001
00000000
00000000
00000000
,  // measure 40
00000000
00000000
00000010
00000000
00000000
00000100
00000000
00000000
,  // measure 41
00000010
00000000
00000000
00000100
,  // measure 42
00000000
00010000
00000000
00000000
00000100
00000000
00000000
00000000
,  // measure 43
00000000
00010000
00000000
00000000
,  // measure 44
00001000
00000000
00000000
01000000
,  // measure 45
00000000
01000000
00100000
00000000
,  // measure 46
00000000
00100000
00000000
00100000
,  // measure 47
10000000
00000000
10000000
00020000
,  // measure 48
00000000
00000000
00030000
00000000
,  // measure 49
00000000
01000000
00000000
00000000
,  // measure 50
00001000
00001000
00010000
00000000
,  // measure 51
00000000
00010000
00010000
00000100
,  // measure 52
00000000
00000000
00000100
00000100
,  // measure 53
00001000
00000000
00000000
00001000
,  // measure 54
00001000
00000010
00000000
00000000
,  // measure 55
00000010
00000010
00000100
00000000
,  // measure 56
00000000
00000100
00000100
00000001
,  // measure 57
00000000
00000000
00000001
00000001
,  // measure 58
00000010
00000000
00000000
00000010
,  // measure 59
00000010
00000100
00000100
00000000
,  // measure 60
00000000
00010000
00000000
00000000
,  // measure 61
00001000
01000000
00001000
01000000
,  // measure 62
00000000
00000000
00010000
00000000
,  // measure 63
00000000
10000000
00000000
00000000
,  // measure 64
00010000
01000000
00010000
01000000
,  // measure 65
00000000
00000000
00100000
00000000
,  // measure 66
00000000
10000000
00000000
00000000
,  // measure 67
01000000
00100000
01000000
00100000
,  // measure 68
00000000
00000000
00001000
00000000
,  // measure 69
00000000
00010000
00000000
00010000
,  // measure 70
00002000
00000000
00000000
00000000
,  // measure 71
00000000
00000000
00003000
00000000
,  // measure 72
00000000
00000000
00000000
00000000
,  // measure 73
01000000
00000000
00000000
00000000
,  // measure 74
00000000
00000000
00100000
00000000
,  // measure 75
00000000
00000000
00000000
00000000
,  // measure 76
10000000
00000000
00000000
00000000
,  // measure 77
00000000
00000000
01000000
00000000
,  // measure 78
00000000
00000000
00000000
00000000
,  // measure 79
00100000
00000000
00000000
00000000
,  // measure 80
00000000
00000000
00001000
00000000
,  // measure 81
00000000
00000000
00000000
00000000
,  // measure 82
00010000
00000000
00000000
00000100
,  // measure 83
00010000
00000100
00010000
00000000
,  // measure 84
00000000
00000010
00000000
00000000
,  // measure 85
00000100
00000001
00000100
00000001
,  // measure 86
00000000
00000000
00001000
00000000
,  // measure 87
00000000
00000100
00010000
00000000
,  // measure 88
00001000
00000000
00000000
01000000
,  // measure 89
00000000
00000000
00100000
00000000
,  // measure 90
00000000
10000000
00000000
00000000
,  // measure 91
00010000
01000000
00010000
01000000
,  // measure 92
00000000
00000000
00100000
00000000
,  // measure 93
10000000
00100000
00000000
00000000
,  // measure 94
01000000
00000000
00000000
00010000
,  // measure 95
00100000
01000000
10000000
00000000
,  // measure 96
00000000
01000000
00000000
00000000
,  // measure 97
00100000
00010000
00100000
00001000
,  // measure 98
00000000
00000000
00010000
00000000
,  // measure 99
00000000
00001000
00000000
00000000
,  // measure 100
00010000
00000100
00010000
00000100
,  // measure 101
00000000
00000000
00000010
00000000
,  // measure 102
00000000
00000001
00000000
00000000
,  // measure 103
00000100
00000010
00001000
00000010
,  // measure 104
00000000
00000000
00010000
00000000
,  // measure 105
00000000
00001000
00000000
00000000
,  // measure 106
00100000
00000000
00000000
01000000
,  // measure 107
10000000
01000000
10000000
00000000
,  // measure 108
00000000
00010000
00000000
00000000
,  // measure 109
01000000
00000000
00000000
00001000
,  // measure 110
00010000
00001000
00010000
00000000
,  // measure 111
00000000
00000100
00000000
00000000
,  // measure 112
00001000
00000000
00000000
00000001
,  // measure 113
00001000
00000001
00002000
00000000
,  // measure 114
00000000
00000000
00000000
00000000
,  // measure 115
00000000
00000000
00000000
00000000
,  // measure 116
00000000
00000000
00000000
00000000
,  // measure 117
00000000
00000000
00000000
00000000
,  // measure 118
00000000
00003000
00000000
00000000
;
