#TITLE:Zirkfied;
#SUBTITLE:;
#ARTIST:iconoclasm;
#TITLETRANSLIT:;
#SUBTITLETRANSLIT:;
#ARTISTTRANSLIT:;
#GENRE:;
#CREDIT:;
#BANNER:Zirkfied-bn.png;
#BACKGROUND:Zirkfied-bg.png;
#LYRICSPATH:;
#CDTITLE:;
#MUSIC:Zirkfied.ogg;
#OFFSET:-0.550634;
#SAMPLESTART:33.117741;
#SAMPLELENGTH:15.000000;
#SELECTABLE:YES;
#DISPLAYBPM:210.000000;
#BPMS:0.000000=105.000000
,16.000000=210.000000
,197.000000=105.000000
,237.000000=210.000000
,314.000000=105.000000
,315.000000=210.000000
;
#STOPS:52.000000=0.857000,
236.666672=0.857000
;
#BGCHANGES:;
#KEYSOUNDS:;
#ATTACKS:;

//---------------dance-single - ----------------
#NOTES:
     dance-single:
     :
     Hard:
     10:
     0.840220,1.000000,0.284467,0.330596,0.853400,685.000000,37.000000,43.000000,0.000000,0.000000,0.000000,0.840220,1.000000,0.284467,0.330596,0.853400,685.000000,37.000000,43.000000,0.000000,0.000000,0.000000:
0000
0000
0000
0000
,
0000
0000
0000
0000
,
2000
0000
3010
0100
0002
0000
1003
0100
0010
0100
0001
0000
0100
1000
0010
0000
,
0200
0000
0000
0000
0001
0000
0000
0000
0310
0000
1000
0000
0100
0000
0010
0000
0002
0000
0000
0000
0010
0000
0000
0000
2003
0000
0000
0000
3100
0000
1000
0001
,
1000
0000
0000
1100
,
1001
0000
0000
0101
,
1001
0010
1100
0010
,
0101
0000
0000
0000
0000
1000
0001
0000
0000
0100
0000
0000
,
0110
0000
0000
1000
0100
1000
0100
1000
0100
0010
0000
0000
,
1001
0000
0000
0001
0100
0001
0100
0001
0100
0010
0000
0000
,
1001
0010
1100
0010
,
0001
1000
0100
0010
0001
0100
0010
0000
0000
0001
0000
0010
,
1000
0010
0100
0001
0010
0100
1000
0010
0100
0001
0010
0100
,
2000
3000
0000
0000
0000
0000
0000
0000
0000
0000
0000
0000
0000
0000
0000
0000
0100
0000
0000
0000
0000
0000
0000
0000
0010
0000
0000
0000
0000
0000
0000
0000
0001
0000
0000
0000
0000
0000
0000
0000
0100
0000
0000
0000
0001
0000
0000
0000
0100
0000
0000
0000
0000
0000
0000
0000
0010
0000
0000
0000
0000
0000
0000
0000
,
1000
0000
0001
0000
1000
0000
0100
0000
0010
0000
0001
0000
0100
0001
0100
0000
,
0010
0000
0000
0000
1000
0000
0010
0000
0100
0000
0001
1000
0001
0000
0100
0000
,
0010
0000
1000
0000
0100
0000
0010
0000
0100
0000
1000
0000
0001
1000
0001
0000
,
0100
0000
0000
0000
0010
0000
1000
0000
0100
0000
0010
0000
0001
0000
0010
0100
,
0010
0000
1000
0000
0010
0000
0001
0000
1000
0000
0100
0000
0010
0100
0010
0000
,
0001
0000
0001
0100
1000
0100
0001
0010
,
1000
0010
0100
0010
0001
1000
0001
0100
,
0010
0100
0010
0100
0010
0000
1000
0000
0001
0000
2000
0000
0000
0000
3100
0000
,
0010
0000
0100
0000
1000
0001
1000
0000
0001
0000
0000
0000
0101
0000
0000
0000
,
0110
0000
0100
0000
0010
1000
0001
0000
0010
0000
0000
0000
0100
0000
1000
0000
,
0100
0000
1000
0000
0001
0000
0100
0000
0010
0000
0100
0001
0100
0001
0100
0000
,
0010
0000
1000
0000
0001
0000
0010
0100
0010
0000
2000
0000
0000
0000
3010
0000
,
0100
0000
0010
0000
0001
0000
1000
0001
1000
0000
0020
0000
0000
0000
0130
0000
,
0001
0000
1000
0000
0001
0000
0100
0010
0100
0000
0001
0000
1000
0000
0100
0010
,
0100
0000
1000
0000
0010
0000
0100
0010
0100
0000
0001
0000
1000
0001
1000
0000
,
0010
0110
0000
0001
,
0000
1000
0000
0100
,
0000
0010
0110
0000
1000
0000
0001
0000
,
0100
0000
0000
0002
0000
0000
2003
0000
0000
3100
0010
0001
,
0100
0010
1000
0001
0000
0000
0000
0000
0000
1000
0000
0000
,
0000
0010
0000
0100
,
0000
0001
0000
1000
,
0000
0100
0000
0010
,
0010
0001
1000
0001
,
0100
0010
1000
0100
,
0010
0000
0000
0001
0000
0001
1000
0000
1000
0010
0000
0010
,
0100
0000
0100
0010
0000
0000
1001
0000
0000
0001
0100
0010
,
1000
0100
0010
0100
0000
0000
1100
0000
1000
0001
0000
0000
,
0101
0000
0010
1000
0000
0000
1010
0000
0100
0001
0000
0000
,
0011
0000
0100
0010
0000
0000
1001
0000
0010
0100
0000
0000
,
0110
0000
1000
0010
0000
0000
0101
0000
1000
0001
0000
0000
,
0011
0000
0100
1000
0000
0001
0100
0000
1000
0100
0000
0001
,
0100
0000
0010
0100
0000
0001
1000
0000
0100
0010
0000
0001
,
1000
0000
0010
0100
0000
0010
0001
0000
0010
1000
0000
0001
,
1000
0000
0100
1000
0000
0100
0010
0000
0001
0100
0010
1000
,
0001
0010
0100
2000
0000
0000
3020
0000
0000
0230
0000
0000
,
0302
2003
3200
0302
,
0203
0320
0032
2003
,
3002
0203
0320
1000
0230
0010
0302
0010
,
2003
0100
3002
0000
0100
1000
0203
0000
,
0001
0010
0302
0000
0010
1000
0023
0000
,
0100
1000
0230
0000
0010
1000
0320
0100
,
0230
0010
2300
0100
0001
0010
3020
1000
,
0100
0000
0000
0000
1000
0000
0000
0000
1030
0100
1000
0100
1000
0100
1000
0100
1000
0000
0100
0000
0000
0000
1000
0000
0001
0100
0001
0100
0001
0100
0001
0100
,
0001
0000
0000
0000
0000
0000
0000
0000
0000
0000
0000
0000
0100
0000
0000
0000
0000
0000
0000
0000
0000
0000
0000
0000
0000
0000
0000
0000
0000
0000
0000
0000
0000
0000
0000
0000
0010
0000
0000
0000
0000
0000
0000
0000
0000
0000
0000
0000
0100
0000
0000
0000
0000
0000
0010
0000
0000
0000
0000
0000
0100
0000
0000
0000
0000
0000
0010
0000
0000
0000
0000
0000
0100
0000
0000
0000
0000
0000
0010
0000
0000
0000
0000
0000
0100
0000
0000
0000
0000
0000
0000
0000
0000
0000
0000
0000
0001
0000
0000
0000
0000
0000
0100
0000
0000
0000
0000
0000
0001
0000
0000
0000
0000
0000
0100
0000
0000
0000
0000
0000
0001
0000
0000
0000
0000
0000
0100
0000
0000
0000
0000
0000
0001
0000
0000
0000
0000
0000
0000
0000
0000
0000
0000
0000
1000
0000
0000
0000
0000
0000
0000
0000
0000
0000
0000
0000
0000
0000
0000
0000
0001
0000
0000
0000
0000
0000
0000
0000
0000
0000
0000
0000
0000
0000
0000
0000
0100
0000
0000
0000
0000
0000
0000
0000
0000
0000
0000
0000
0000
0000
0000
0000
,
0010
0000
0000
0000
0100
0000
0000
0000
1001
0000
0000
0000
0000
0000
0000
0000
0000
0000
0000
0000
0000
0000
0000
0000
0010
0000
0000
1000
0000
0000
0010
0000
0000
0100
0000
0000
0002
0000
0000
0000
0000
0000
0000
0000
0000
0000
0000
0000
,
0013
0000
0001
0000
0100
0000
0001
0000
0010
0100
0010
0000
0001
1000
0001
0000
,
0100
0001
0100
0000
0010
0100
0010
0000
1000
0100
0000
0000
0011
0000
0000
0000
,
0001
0100
0000
0000
1010
0000
0000
0000
0010
1000
0000
0000
0101
0000
0000
0000
,
1000
0100
0000
0000
0011
0000
0000
0000
0001
0100
0001
0100
0001
0100
0020
0000
,
0000
0000
0130
0000
0001
0000
1000
0000
0100
0010
0100
0010
0100
0010
0002
0000
,
0000
0000
0103
0000
0010
0000
0000
0000
1000
0100
1000
0000
0001
0000
0000
0000
,
0001
0000
0010
0000
0001
0000
0100
0000
0010
0100
0010
0000
1000
0000
0001
0000
,
0100
0000
0100
0000
0100
0000
0100
0000
0010
1000
0100
0010
0100
0000
0010
0000
,
0100
0000
1000
0000
0001
0000
0100
0000
1000
0100
1000
0000
0100
0010
0100
0000
,
0001
0100
0001
0000
1000
0100
1000
0100
0010
0001
0000
0000
1000
0001
0000
0000
,
0100
0001
0000
0000
1000
0001
0000
0000
0001
0100
0000
0000
0010
1000
0000
0000
,
0100
1000
0000
0000
0001
1000
0000
0000
0100
1000
0100
0010
0002
0000
0000
0000
,
1003
0000
0010
0000
1000
0000
0001
0000
1000
0010
0100
0001
0100
0000
0010
0100
,
0010
0000
1000
0001
0100
0000
0010
0100
0010
1000
0010
0000
0100
0000
0000
0000
,
0001
0100
0001
0000
1000
0000
0000
0000
0100
0010
0001
0000
1000
0100
1000
0000
,
0001
0100
0010
0000
0100
0010
0100
0000
0110
0000
0000
0000
0000
0000
0000
0000
,
0000
1000
0100
0000
,
0000
0010
0001
0010
,
0100
1000
0001
0011
,
1010
0000
0000
1001
0000
0000
0001
0100
0010
1000
0100
0010
,
0001
0000
0000
1001
0000
0000
1000
0100
0010
0001
0100
0010
,
1000
1001
0010
1100
,
0010
0000
0000
1001
0000
0000
0100
0000
0000
0010
0100
0010
,
0100
0010
0100
0001
0000
0100
0001
0000
0010
0100
0000
0100
,
1000
0000
0010
0100
0000
0001
1000
0000
1000
0100
0000
0010
,
0001
0000
0010
0100
0000
1000
0001
0000
0100
0010
0000
0010
,
1000
0000
1000
0001
0000
0001
0010
0000
0010
0100
1000
0100
,
1000
0100
1000
0001
0000
0100
1000
0000
0100
0010
0000
1000
,
0100
0000
0010
0001
0100
0010
0100
0000
0001
0010
0100
1000
,
0001
0000
0010
0001
0100
0001
1000
0100
1000
0001
0010
0100
,
1000
0001
1000
0001
0100
0010
1000
0100
0010
0100
1000
0001
,
0100
0010
0100
0001
0010
0100
1000
0010
0100
0001
0000
0000
,
2002
0000
0000
0000
,
3003
0000
0000
0000
;

//---------------dance-single - ----------------
#NOTES:
     dance-single:
     :
     Challenge:
     11:
     1.000000,1.000000,0.453609,0.361349,1.000000,830.000000,59.000000,47.000000,0.000000,0.000000,0.000000,1.000000,1.000000,0.453609,0.361349,1.000000,830.000000,59.000000,47.000000,0.000000,0.000000,0.000000:
0000
0000
0000
0000
,
0000
0000
0000
0000
,
0020
0000
0001
0130
2000
0000
0010
3001
0100
0020
1000
0030
0002
1000
0103
0000
,
0020
0000
0000
0000
0100
0000
0000
0000
2030
0000
0100
0000
3001
0000
0010
0000
0200
0000
0000
0000
0010
0000
0000
0000
2300
0000
0000
0000
3001
0000
0100
0010
,
1001
0100
0010
1100
,
1001
0100
0010
0101
,
1001
0110
1010
1100
,
0101
0000
0000
0000
0000
1000
0001
0000
0000
0100
0000
0000
,
0110
0000
0000
0001
0100
0010
0100
1000
0100
0001
0000
0000
,
0110
0000
0000
1000
0100
0010
0100
0001
0100
1000
0000
0000
,
0101
1010
1100
0011
,
0101
0010
1000
0100
0010
0001
0100
0000
0000
0010
0000
0100
,
0010
0100
0001
0010
0100
0001
0100
1000
0010
0100
1000
0100
,
0001
0000
0000
0000
1000
0100
0010
0000
0001
0000
1000
0100
0010
0100
1000
0000
,
0001
0000
0100
0000
0010
1000
0100
0000
0010
0000
0001
1000
0100
1000
0001
0000
,
0100
0000
0000
0000
0001
1000
0100
0000
0010
0000
0100
1000
0001
1000
0100
0000
,
0010
0000
0001
0000
1000
0001
0100
0000
0010
0000
0100
0001
0100
0001
1000
0000
,
0100
0000
0000
0000
0010
0001
0100
0000
0010
0000
0100
0010
1000
0100
0010
0000
,
0100
0000
1000
0000
0001
0010
0100
0000
0010
0000
1000
0010
0100
0010
0001
0000
,
1000
0000
0000
0000
0001
0100
0010
0000
1000
0000
0001
0000
1000
0100
0010
0000
,
0001
0000
1000
0100
0001
0000
1000
0000
0010
0000
0100
0010
0001
0010
0100
0010
,
0001
0010
0100
1000
0001
0000
1000
0100
0010
0001
2000
0000
0000
0000
3001
0000
,
0100
0000
0010
1000
0001
0100
0010
0000
1000
0000
0000
0000
0010
1000
0001
0000
,
0100
0001
1000
0001
0100
0010
1000
0000
0001
0000
0000
0000
0010
0000
0100
0000
,
0010
0000
0100
0000
1000
0001
0100
0000
0010
0000
0100
0001
0010
0100
1000
0000
,
0010
0100
0001
1000
0001
0000
0010
0100
0010
0001
2000
0000
0000
0000
3010
0000
,
0100
0000
0001
0000
1000
0000
0100
0010
0100
1000
0002
0000
0000
0000
0103
0000
,
0010
0000
0100
0000
0001
0000
0010
0001
0100
0000
0010
0000
0100
0000
0010
1000
,
0100
0000
0010
0000
0001
0010
0001
0010
0001
0010
0001
0010
0100
1000
0001
0100
,
0010
1000
0001
0010
0100
0000
1000
0000
0010
0000
1000
0000
0001
0000
1000
0000
,
0100
1000
0010
1000
0001
1000
0100
1000
,
0001
0000
0000
1000
0000
0000
1100
0000
0001
0000
0010
0000
0100
0000
1000
0000
0001
0000
0100
0000
1000
0000
0100
0000
,
0001
1000
0100
0010
0001
1000
0100
0000
0000
0010
1000
0010
,
0001
1000
0010
0001
0000
0000
0010
0000
0000
1010
0000
0000
,
0001
1100
0010
1100
,
0010
0101
1000
0011
,
1000
0101
0010
1100
,
1100
1001
0101
0011
,
0110
1010
0101
0110
,
1100
0000
0000
0001
0000
0100
1000
0000
0001
0010
0000
1000
,
0100
0000
0010
0011
0000
0000
1100
0000
0000
0101
0010
1000
,
0100
0010
0001
1000
0000
0000
1010
0000
0100
0010
0000
0000
,
0011
0000
0100
1000
0000
0000
1010
0000
0001
0010
0000
0000
,
0011
0000
0100
0010
0000
0000
1010
0000
0100
0001
0000
0000
,
1100
0000
0001
0010
0000
0000
1010
0000
0100
1000
0000
1000
,
0001
0000
0100
0001
0010
0100
1000
0000
1000
0001
0100
0010
,
1000
0000
0001
1000
0010
0100
0001
0000
0001
1000
0100
0010
,
0001
0000
0001
1000
0100
1000
0001
0010
0001
1000
0010
1000
,
0001
0100
0001
1000
0010
0001
0010
0100
1000
0100
0001
1000
,
0100
0010
0001
2000
0000
0000
3020
0000
0000
0032
0000
0000
,
0203
0320
0032
2003
,
3020
0230
2300
3002
,
0203
2300
3020
0100
0032
0100
2003
0100
,
3020
0100
0032
0000
0010
1000
0203
0000
,
0001
0010
2300
0000
0100
0001
3020
0000
,
1000
0100
0032
0000
0010
1000
0203
0001
,
0010
1000
2300
0100
0001
0010
3020
1000
,
0100
0000
0000
0000
0001
0000
0000
0000
0031
0100
0010
0100
0001
0100
0010
0100
0001
1000
0100
0000
0000
0000
0010
0000
0100
1000
0001
1000
0100
1000
0001
1000
,
0100
0000
0000
0000
0000
0000
0010
0000
0000
0000
0000
0000
0001
0000
0000
0000
0000
0000
0000
0000
0000
0000
0000
0000
0000
0000
0000
0000
0000
0000
0000
0000
0000
0000
0000
0000
0010
0000
0000
0000
0000
0000
0000
0000
0000
0000
0000
0000
0001
0000
0000
0000
0000
0000
0100
0000
0000
0000
0000
0000
0010
0000
0000
0000
0000
0000
0100
0000
0000
0000
0000
0000
0001
0000
0000
0000
0000
0000
0100
0000
0000
0000
0000
0000
0010
0000
0000
0000
0000
0000
0100
0000
0000
0000
0000
0000
0001
0000
0000
0000
0000
0000
0010
0000
0000
0000
0000
0000
0100
0000
0000
0000
0000
0000
0010
0000
0000
0000
0000
0000
0001
0000
0000
0000
0000
0000
0010
0000
0000
0000
0000
0000
0100
0000
0000
0000
0000
0000
1000
0000
0000
0000
0000
0000
0001
0000
0000
0000
0000
0000
0000
0000
0100
0000
0000
0000
0000
0000
0000
0000
1000
0000
0000
0000
0000
0000
0000
0000
0100
0000
0000
0000
0000
0000
0000
0000
0010
0000
0000
0000
0000
0000
0000
0000
0100
0000
0000
0000
0000
0000
0000
0000
,
0001
0000
1000
0000
0100
0000
0010
0000
1100
0000
0000
0000
0000
0000
0000
0000
0000
0000
0000
0000
0000
0000
0000
0000
1000
0000
0000
0100
0000
0000
0010
0000
0000
0001
0000
0000
2000
0000
0000
0000
0000
0000
0000
0000
0000
0000
0000
0000
,
0000
0000
3010
0000
0100
0010
0100
0000
0010
0100
0010
0100
0001
0100
0001
0100
,
0001
1000
0001
1000
0100
1000
0100
0010
0001
0100
0000
0000
0010
1000
0000
0000
,
0100
1000
0000
0000
0001
1000
0000
0000
1000
0010
0000
0000
0100
0001
0000
0000
,
0010
0001
0000
0000
1000
0001
0000
0000
1000
0100
0010
0001
0100
0010
2000
0000
,
0000
0000
0010
0000
3100
0000
1000
0000
0001
0100
0010
1000
0100
0010
0002
0000
,
0000
0000
0010
0000
0103
0000
0010
0000
1000
0100
0001
0000
0100
0000
0000
0000
,
1000
0000
0100
0000
0010
0000
0001
0000
1000
0000
0010
1000
0100
0000
0010
0000
,
0100
0000
0110
0000
0100
0000
0110
0000
1000
0100
0010
0001
2000
0000
0000
0000
,
3010
0000
0100
0000
0001
0000
1000
0000
0100
1000
0100
1000
0001
0100
0001
0100
,
0010
1000
0010
1000
0001
0010
0100
1000
0001
0100
0010
0000
1000
0100
0000
0000
,
0010
0001
1000
0000
0001
0100
0000
0000
0010
1000
0100
0000
0010
0100
0000
0000
,
1000
0001
0100
0000
0010
0100
0000
0000
0010
1000
0100
0010
0002
0000
0000
0000
,
1003
0000
0001
0000
0100
0000
0001
0000
0010
0001
0010
0001
1000
0001
1000
0001
,
0100
0001
0100
0001
0100
0010
0100
0010
1000
0100
0010
0100
2000
0000
0000
0000
,
3001
0100
0010
0100
0002
0000
0003
0000
0001
0010
0001
0010
0100
1000
0100
1000
,
0010
0000
0000
0100
0000
0000
0010
0000
0000
0100
0000
0000
0001
0000
0000
1000
0000
0000
0001
0000
0000
0000
0000
0000
1100
0000
0000
0000
0000
0000
0000
0000
0000
0000
0000
0000
1000
0000
0000
0000
0100
0000
0000
0000
0001
0000
0000
0000
,
1000
0010
0001
1000
0000
0000
0110
0000
0000
0001
0100
1000
,
0001
0010
1000
0001
0000
0001
0010
0000
0010
0100
0000
0100
,
1000
0000
0000
0000
1000
0000
0001
0000
0000
0000
0001
0000
1000
0100
0010
0001
0100
0010
1001
0000
0000
0000
0000
0000
,
0110
0000
0000
1001
0000
0000
0100
0001
0010
1000
0010
0100
,
0001
0000
0000
0110
0000
0000
0010
0001
0100
1000
0100
0010
,
1000
0101
1010
1100
,
0011
0000
0000
0101
0010
1000
0001
1000
0100
0001
0100
0010
,
0001
0010
0100
0001
0000
0100
1000
0001
0100
0010
0000
0010
,
1000
0100
0010
0001
0000
0001
0100
0010
1000
0100
0000
0010
,
0100
1000
0001
0100
0000
0100
0010
1000
0001
0010
0000
0010
,
0001
0100
0010
1000
0000
0001
1000
0100
0010
0001
0010
1000
,
0010
0001
0010
0100
0000
0010
0001
0000
0001
1000
0000
0100
,
0001
0000
0100
0010
1000
0010
0002
0000
0100
0013
0001
0010
,
2000
0000
3100
0010
0001
0010
1000
0001
0100
1000
0100
0001
,
1000
0010
0001
0100
0010
0001
1000
0100
0001
1000
0100
0010
,
1000
0001
0100
0010
0001
0100
0010
1000
0100
0110
0000
0000
,
2002
0000
0000
0000
,
3003
0000
0000
0000
;

//---------------dance-single - ----------------
#NOTES:
     dance-single:
     :
     Medium:
     9:
     0.644718,0.750761,0.376726,0.445921,0.242181,480.000000,49.000000,58.000000,0.000000,0.000000,0.000000,0.644718,0.750761,0.376726,0.445921,0.242181,480.000000,49.000000,58.000000,0.000000,0.000000,0.000000:
0000
0000
0000
0000
,
0000
0000
0000
0000
,
2000
0010
3002
0000
0203
1000
0320
0000
,
2030
0000
3100
0000
0010
0001
0010
0001
2000
0000
0000
0000
0002
0000
3003
0000
,
1001
0000
0000
1010
,
1001
0000
0000
0011
,
1001
0001
0110
0100
,
1001
0000
0000
0000
0000
1000
0001
0000
0000
0100
0000
0000
,
0110
0000
0000
1010
,
1001
0000
0000
0011
,
1001
1000
0110
0100
,
1001
0000
0000
0000
0000
0001
1000
0000
0000
0010
0000
0000
,
0100
0000
0100
0001
0000
0001
1000
0000
1000
0100
0000
0100
,
0010
0000
0100
0010
0001
2000
0000
3001
,
0100
0010
0100
0001
1000
0000
1100
0000
,
1000
0001
0100
0010
0100
0000
0002
0000
,
2003
0000
3100
0010
0100
0000
0020
0000
,
0032
0000
1003
0001
0000
0200
0000
0310
,
1000
0001
1000
0100
0000
0020
0000
0130
,
1000
0001
0200
0000
0310
0100
0002
0000
,
1003
0100
0020
0000
0130
1000
0001
0100
,
1000
0100
0001
1000
0100
0020
0000
0130
,
1000
0001
1000
0001
0100
0000
0110
0000
,
1010
0000
1000
0001
0010
0000
0011
0000
,
0100
0000
1100
0000
0010
0000
0001
0100
,
1000
0000
0100
0001
1000
0200
0000
0310
,
0100
1000
0001
0100
0010
0200
0000
1300
,
0100
0001
2000
0000
3100
0010
0002
0000
,
0103
0010
2000
0000
3100
0010
0001
1000
,
0010
0100
0000
0000
,
0000
0000
0000
0000
,
0000
0001
1000
0000
0000
0000
0000
0000
,
0000
0000
0002
0000
2003
0000
3100
0010
,
0001
1000
0010
0000
0000
0000
0101
0000
,
0000
0010
0000
1100
,
0000
0010
0000
1001
,
0000
0100
0000
1010
,
0010
1000
0001
0010
,
0100
1000
0001
0100
,
0010
0000
0000
0001
0000
0001
0010
0000
0010
1000
0000
1000
,
0100
0110
0011
2002
,
3003
0000
0000
1000
0000
0000
0001
0000
0001
0100
0000
0000
,
0010
0000
0010
1000
0000
0000
0001
0000
0001
0010
0000
0000
,
0100
0000
0100
1000
0000
0000
0001
0000
0001
0100
0000
0000
,
0010
0000
0010
1000
0000
0000
0001
0000
0001
0100
0000
0100
,
0001
0000
0001
1000
0000
0000
1000
0000
1000
0100
0000
0000
,
0010
0000
0010
0001
0000
0000
1000
0000
1000
0010
0000
0000
,
0100
0000
0100
0001
0000
0000
1000
0000
1000
0100
0000
0000
,
0010
0000
0010
0100
0000
0000
1000
0000
1000
0001
0000
0001
,
0100
0000
0100
0020
0000
0000
2030
0000
0000
3200
0000
0000
,
0320
0032
0203
2300
,
3200
0320
2030
3200
,
0301
0100
1000
0001
1000
0010
0001
0010
,
1000
0001
0200
0000
0310
1000
0200
0000
,
0310
0000
0002
0000
1003
0001
0200
0000
,
0310
0000
2000
0000
3100
0010
0010
0100
,
0010
0001
1000
0010
0100
0001
0010
1000
,
0010
0001
2000
0000
3100
0000
0020
0000
,
0031
0000
0000
0200
0000
0000
0320
0000
0000
1030
0001
0010
,
0100
0000
1000
0000
1001
0000
0000
0000
0000
0000
0000
0000
0010
0000
0000
1000
0000
0000
0002
0000
0000
0000
0000
0000
,
1003
0100
0010
0001
0010
0100
0010
0100
,
1000
0001
1000
0001
0100
0000
0110
0000
,
0001
1001
0100
1100
,
0010
0000
0101
0000
0010
1000
0100
0020
,
0000
0100
0130
0000
1000
0001
0100
0020
,
0000
0100
0130
0000
0001
1000
0200
0000
,
0310
0100
1000
0001
0100
0010
0100
0020
,
0000
0100
0100
0130
0001
1000
0200
0000
,
0310
0001
1000
0010
0100
0001
0100
0001
,
1000
0100
1000
0100
0010
0000
0011
0000
,
0100
1001
0100
1010
,
0010
0000
1001
0000
0001
0100
0020
0000
,
0130
0001
1000
0100
0001
0100
0001
0100
,
1000
0100
1000
0100
0010
0010
0001
0000
,
1000
1000
0001
0000
0100
0010
1000
0100
,
0001
0100
1000
0000
1001
0000
0000
0000
,
0000
1000
0001
0000
,
0000
0100
0001
0010
,
0100
1000
0001
0101
,
1100
1001
0100
0010
,
0110
1001
1000
0100
,
0110
1001
0101
1100
,
0110
0000
0000
1001
0000
0000
0100
0000
0000
0010
0100
0010
,
0100
0010
0100
0010
0000
0000
0110
0000
0001
1000
0000
0000
,
0100
0000
0010
0100
0000
0000
1000
0000
0100
1000
0000
0000
,
0001
0000
0100
0010
0000
0000
1000
0000
0100
0010
0000
0000
,
0001
0000
1000
0100
0000
0000
1000
0000
0001
0100
0000
0000
,
0010
0000
0100
0001
0000
0001
0010
0000
0010
0100
0000
0100
,
1000
0000
1000
0001
0000
0001
0200
0000
0000
0310
0000
0010
,
2000
0000
0000
3001
0000
0001
0010
0000
0010
0100
0000
0100
,
1000
0000
1000
0001
0000
0001
0100
0000
0100
0010
0000
0010
,
1000
0000
1000
0001
1000
0001
1000
0001
1000
0001
0000
0000
,
0220
0000
0000
0000
,
0330
0000
0000
0000
;

//---------------dance-single - ----------------
#NOTES:
     dance-single:
     :
     Easy:
     7:
     0.429446,0.572008,0.153766,0.369038,0.023065,323.000000,20.000000,48.000000,0.000000,0.000000,0.000000,0.429446,0.572008,0.153766,0.369038,0.023065,323.000000,20.000000,48.000000,0.000000,0.000000,0.000000:
// measure 0
0000
0000
0000
0000
,  // measure 1
0000
0000
0000
0000
,  // measure 2
0200
0302
2003
3200
,  // measure 3
0320
0032
0203
0302
,  // measure 4
1003
0000
0000
0100
,  // measure 5
0100
0000
0000
0010
,  // measure 6
0010
0001
1000
0001
,  // measure 7
0100
0000
0010
0010
,  // measure 8
1000
0000
0000
0001
,  // measure 9
0001
0000
0000
0100
,  // measure 10
0100
0010
1000
0001
,  // measure 11
1000
0000
0100
0100
,  // measure 12
0010
0001
0100
0010
,  // measure 13
0110
0010
0010
1000
,  // measure 14
0001
1000
0100
0010
,  // measure 15
0001
1000
0001
0100
,  // measure 16
0010
1000
0001
1000
,  // measure 17
0000
0001
0010
0100
,  // measure 18
0100
0010
0001
1000
,  // measure 19
1000
0001
0100
1000
,  // measure 20
0100
0001
0010
1000
,  // measure 21
0010
0000
0001
0000
0001
0100
0000
0001
,  // measure 22
0100
0000
0010
1000
0010
0000
1000
0000
,  // measure 23
1000
0000
0001
1000
0001
0000
0100
0000
,  // measure 24
0100
0010
1000
0001
,  // measure 25
1000
0000
0001
0010
0000
0200
0000
0000
,  // measure 26
0310
0000
0001
0010
0000
0200
0000
0000
,  // measure 27
0310
0001
1000
0010
,  // measure 28
0100
1000
0100
0001
,  // measure 29
1000
1001
0000
0000
,  // measure 30
0000
0000
0000
0000
,  // measure 31
0000
0001
1000
0000
0000
0000
0000
0000
,  // measure 32
0000
0002
2003
0002
,  // measure 33
0000
3003
1000
0000
0000
0000
0010
0000
,  // measure 34
0000
0100
0000
0001
,  // measure 35
0000
1000
0000
0100
,  // measure 36
0000
0010
0000
0100
,  // measure 37
0100
1000
0001
0100
,  // measure 38
0010
1000
0100
0010
,  // measure 39
0001
1000
0010
0100
,  // measure 40
0001
1001
0110
2002
,  // measure 41
3003
1000
1000
0001
,  // measure 42
0001
0100
0100
0010
,  // measure 43
0010
1000
1000
0001
,  // measure 44
0001
0010
0010
0100
,  // measure 45
0100
1000
0001
0100
,  // measure 46
1000
0100
0001
1000
,  // measure 47
0100
0010
0100
0001
,  // measure 48
0100
1000
0010
0100
,  // measure 49
0001
2000
0000
3200
,  // measure 50
0000
0320
0000
0032
,  // measure 51
0203
0320
0000
0230
,  // measure 52
0000
0302
2003
3020
,  // measure 53
0230
0302
0010
2003
,  // measure 54
0000
3020
0100
2030
,  // measure 55
0000
3200
0010
0320
,  // measure 56
0001
0032
0100
2003
,  // measure 57
0010
3200
0300
0020
,  // measure 58
0030
0000
0000
0002
0000
0000
2003
0000
0000
3010
0100
0010
,  // measure 59
0100
0000
0010
0000
0100
0000
0000
0000
0000
0000
0000
0000
0010
0000
0000
1000
0000
0000
0020
0000
0000
0000
0000
0000
,  // measure 60
0130
0001
1000
0001
,  // measure 61
0100
0010
1000
1000
,  // measure 62
0001
0001
0010
0010
,  // measure 63
0100
0000
0100
0000
1000
0100
1000
0200
,  // measure 64
0000
0000
0310
0000
0001
0100
0001
0200
,  // measure 65
0000
0000
0310
0000
1000
0001
1000
0000
,  // measure 66
0100
0010
0002
0000
,  // measure 67
1000
0000
1003
0000
0001
0100
0002
0000
,  // measure 68
1003
0100
0010
0001
,  // measure 69
1000
0001
0100
0100
,  // measure 70
0010
0010
1000
1000
,  // measure 71
0001
0000
0001
0000
1000
0100
0020
0000
,  // measure 72
0001
0130
1000
0001
,  // measure 73
0100
0010
0100
1001
,  // measure 74
0100
1001
0001
0010
,  // measure 75
0100
0010
1001
0000
,  // measure 76
0000
0000
0100
0000
,  // measure 77
0000
0000
0010
0000
,  // measure 78
1000
0000
0100
1001
,  // measure 79
0110
1001
0000
0000
,  // measure 80
0110
1001
0000
0000
,  // measure 81
0110
1001
0110
1001
,  // measure 82
0110
1001
0000
1000
,  // measure 83
1000
0001
0100
0010
,  // measure 84
1000
0100
0010
0001
,  // measure 85
1000
0001
0100
1000
,  // measure 86
0100
0001
0010
0100
,  // measure 87
1000
1000
0100
0001
,  // measure 88
0100
0000
0000
1000
0000
1000
0002
0000
0000
0103
0000
0100
,  // measure 89
0020
1030
0100
0001
,  // measure 90
0100
1000
0010
0100
,  // measure 91
0001
1000
0001
1000
,  // measure 92
0220
0000
0000
0000
,  // measure 93
0330
0000
0000
0000
;

//---------------dance-double - ----------------
#NOTES:
     dance-double:
     :
     Hard:
     10:
     0.788599,1.000000,0.299843,0.369038,0.718855,631.000000,39.000000,48.000000,0.000000,0.000000,0.000000,0.788599,1.000000,0.299843,0.369038,0.718855,631.000000,39.000000,48.000000,0.000000,0.000000,0.000000:
00000000
00000000
00000000
00000000
,
00000000
00000000
00000000
00000000
,
00020000
00000000
00031000
00010000
00000200
00000000
00000310
00000001
00001000
00000100
00010000
00000000
00001000
00100000
00010000
00000000
,
00200000
00000000
00000000
00000000
00010000
00000000
00000000
00000000
00301000
00000000
00000100
00000000
00000010
00000000
00010000
00000000
00002000
00000000
00000000
00000000
00000100
00000000
00000000
00000000
00023000
00000000
00000000
00000000
01030000
00000000
00010000
00001000
,
00010000
00000000
00000000
00011000
,
00010100
00000000
00000000
00011000
,
00101000
01000000
10100000
01000000
,
10010000
00000000
00000000
00000000
00000000
10000000
00010000
00000000
00000000
01000000
00000000
00000000
,
01100000
00000000
00000000
00011000
,
00000110
00000000
00000000
00011000
,
01100000
00010000
00101000
00010000
,
00001100
00000000
00000000
00000000
00000000
00001000
00000001
00000000
00000000
00000100
00000000
00000000
,
00000010
00001000
00000010
00001000
00000010
00001000
00000010
00010000
00000010
00010000
00000010
00010000
,
00001000
00000000
00000000
00000000
00001000
00000000
00100000
00000000
01000000
00000000
10000000
00010000
10000000
00000000
00100000
00000000
,
01000000
00000000
00010000
00000000
10000000
00000000
01000000
00000000
00010000
00000000
00001000
00000000
00010000
00001000
00010000
00000000
,
00000100
00000000
00000000
00000000
00000010
00000000
00000001
00000000
00001000
00000000
00000001
00000100
00000001
00000000
00000100
00000000
,
00001000
00000000
00010000
00000000
01000000
00000000
10000000
00000000
00010000
00000000
10000000
00000000
00010000
01000000
00010000
00000000
,
01000000
00000000
00100000
10000000
01000000
00020000
00000000
00031000
,
00000100
00000001
00000010
00000100
00010000
00002000
00000000
00013000
,
01000000
10000000
00010000
00100000
10000000
00100000
00010000
01000000
,
10000000
01000000
00100000
00010000
00001000
00000100
00000001
00001000
,
00000010
00000100
00000010
00000100
00000010
00000000
00001000
00000001
00001000
00000000
00000020
00000000
00000000
00000000
00000130
00000000
,
00001000
00000000
00010000
00000000
01000000
10000000
00010000
00000000
01000000
00000000
00000000
00000000
01100000
00000000
00000000
00000000
,
00100000
00000000
01000000
00000000
00100000
10000000
00010000
00000000
00100000
00000000
00000000
00000000
01000000
10000000
01000000
00000000
,
00100000
00000000
00000000
00000000
00010000
00000000
01000000
00000000
00100000
00000000
00010000
00001000
00010000
00001000
00010000
00000000
,
00001000
00000000
00000100
00000000
00000001
00000000
00000010
00000001
00001000
00000000
00000020
00000000
00000000
00000000
00000130
00000000
,
00001000
00000000
00010000
00000000
01000000
00000000
10000000
00010000
01000000
00000000
00200000
00000000
00000000
00000000
01300000
00000000
,
10000000
01000000
00010000
00100000
10000000
00100000
00010000
01000000
,
00100000
00010000
00001000
00000100
00000001
00000010
00001000
00010000
,
01000000
11000000
00000000
00000000
,
00000000
00000000
00000000
00000000
,
00000000
10000000
10010000
00000000
00000000
00000000
00000000
00000000
,
00000000
00000000
00000000
00000200
00000000
00000000
00020300
00000000
00000000
00031000
00010000
00001000
,
00010000
00001000
00010000
00000100
00000000
00000000
00000000
00000000
00000000
00000010
00000000
00000000
,
00000000
00001000
00000000
00100000
,
00000000
00000010
00000000
00010000
,
00000000
01000000
00000000
00100000
,
00100000
00010000
10000000
01000000
,
00010000
00001000
00000100
00000001
,
00000010
00000000
00000000
00000100
00000000
00000100
00010000
00000000
00010000
01000000
00000000
01000000
,
10000000
00000000
10000000
00010000
00000000
00000000
01100000
00000000
00000000
10000000
01000000
10000000
,
01000000
10000000
01000000
00010000
00000000
00000000
00011000
00000000
00010000
00000100
00000000
00000000
,
00000110
00000000
00000010
00000001
00000000
00000000
00001001
00000000
00000001
00000100
00000000
00000000
,
00001100
00000000
00001000
00010000
00000000
00000000
01010000
00000000
01000000
10000000
00000000
00000000
,
10100000
00000000
10000000
00010000
00000000
00000000
00110000
00000000
00100000
00001000
00000000
00000000
,
00010100
00000000
00001000
00000001
00000000
00000001
00000010
00000000
00000100
00001000
00000000
00001000
,
00000100
00000000
00010000
00001000
00000000
00001000
00100000
00000000
00010000
01000000
00000000
00100000
,
10000000
00000000
00010000
10000000
00000000
10000000
01000000
00000000
01000000
00010000
00000000
00010000
,
00001000
00000000
00001000
00000100
00000000
00000100
00000001
00000000
00000001
00001000
00000100
00001000
,
00000100
00001000
00000100
00020000
00000000
00000000
00030200
00000000
00000000
00002300
00000000
00000000
,
00003002
00000203
00002300
00023000
,
02030000
03200000
00302000
00003200
,
00000302
00000203
00000320
00000100
00020030
00001000
02030000
00100000
,
23000000
00100000
30020000
00000000
01000000
10000000
02030000
00000000
,
00100000
10000000
03200000
00000000
01000000
00010000
02300000
00000000
,
00010000
03002000
00023000
00000000
00001000
00000010
00032000
00010000
,
00003200
00000010
00000302
00000010
00001000
00000100
00000203
00000010
,
00001000
00000000
00000000
00000000
00000310
00000000
00000000
00000000
00010000
00000010
00010000
00000010
00010000
00000000
00000010
00000000
00010000
00000000
00001000
00000000
00000000
00000000
00010000
00000000
00001000
01000000
00001000
01000000
00001000
00000000
01000000
00000000
,
00010000
00000000
00000000
00000000
00000000
00000000
00000000
00000000
00000000
00000000
00000000
00000000
10000000
00000000
00000000
00000000
00000000
00000000
00000000
00000000
00000000
00000000
00000000
00000000
00000000
00000000
00000000
00000000
00000000
00000000
00000000
00000000
00000000
00000000
00000000
00000000
00100000
00000000
00000000
00000000
00000000
00000000
00000000
00000000
00000000
00000000
00000000
00000000
10000000
00000000
00000000
00000000
00000000
00000000
01000000
00000000
00000000
00000000
00000000
00000000
10000000
00000000
00000000
00000000
00000000
00000000
01000000
00000000
00000000
00000000
00000000
00000000
10000000
00000000
00000000
00000000
00000000
00000000
00000000
00000000
00000000
00000000
00000000
00000000
00000000
00000000
00000000
00000000
00000000
00000000
00000000
00000000
00000000
00000000
00000000
00000000
00010000
00000000
00000000
00000000
00000000
00000000
01000000
00000000
00000000
00000000
00000000
00000000
00010000
00000000
00000000
00000000
00000000
00000000
01000000
00000000
00000000
00000000
00000000
00000000
00010000
00000000
00000000
00000000
00000000
00000000
00000000
00000000
00000000
00000000
00000000
00000000
00000000
00000000
00000000
00000000
00000000
00000000
00000000
00000000
00000000
00000000
00000000
00000000
10000000
00000000
00000000
00000000
00000000
00000000
00000000
00000000
00000000
00000000
00000000
00000000
00000000
00000000
00000000
00000000
01000000
00000000
00000000
00000000
00000000
00000000
00000000
00000000
00000000
00000000
00000000
00000000
00000000
00000000
00000000
00000000
00010000
00000000
00000000
00000000
00000000
00000000
00000000
00000000
00000000
00000000
00000000
00000000
00000000
00000000
00000000
00000000
,
00001000
00000000
00000000
00000000
00000100
00000000
00000000
00000000
00001001
00000000
00000000
00000000
00000000
00000000
00000000
00000000
00000000
00000000
00000000
00000000
00000000
00000000
00000000
00000000
00000001
00000000
00000000
00000100
00000000
00000000
00000001
00000000
00000000
00000100
00000000
00000000
00000020
00000000
00000000
00000000
00000000
00000000
00000000
00000000
00000000
00000000
00000000
00000000
,
00001030
00000000
00000100
00000000
00000010
00000000
00000001
00000000
00000010
00000100
00000010
00000000
00000100
00001000
00000100
00000000
,
00010000
00000100
00010000
00000000
00001000
00010000
00001000
00000000
00010000
00001000
00000000
00000000
00001000
00100000
00000000
00000000
,
00100000
00010000
00000000
00000000
10000000
00100000
00000000
00000000
01000000
00100000
00000000
00000000
10000000
01000000
00000000
00000000
,
01000000
00010000
00000000
00000000
00001000
00010000
00000000
00000000
00001000
00010000
00001000
00010000
00001000
00010000
00000200
00000000
,
00000000
00000000
00000010
00000000
00000310
00000000
00000000
00000000
00000001
00000100
00000001
00000100
00000001
00000100
00000020
00000000
,
00000000
00000000
00001030
00000000
00000100
00000000
00000000
00000000
00000010
00000000
00000001
00000100
00000010
00000000
00000000
00000000
,
00001000
00000100
00000010
00001000
00010000
01000000
00100000
00010000
,
10000000
00000000
10000000
00000000
10000000
00000000
10000000
00000000
00010000
01000000
00010000
01000000
00200000
00000000
00000000
00000000
,
10300000
00000000
01000000
00000000
00100000
00000000
01000000
00000000
10000000
00100000
10000000
00000000
00100000
01000000
00100000
00000000
,
01000000
00010000
01000000
00000000
00001000
01000000
00001000
00000000
00010000
00001000
00000000
00000000
00010000
00000100
00000000
00000000
,
00001000
00000100
00000000
00000000
00000010
00000001
00000000
00000000
00000100
00000001
00000000
00000000
00000100
00000010
00000000
00000000
,
00001000
00000010
00000000
00000000
00010000
00001000
00000000
00000000
00010000
00001000
00010000
00001000
00020000
00000000
00000000
00000000
,
01030000
00000000
00100000
00000000
00010000
00000000
10000000
00000000
00010000
01000000
00010000
01000000
00010000
00000000
01000000
00100000
,
10000000
00000000
00010000
10000000
00010000
00000000
10000000
01000000
00100000
00010000
00100000
00000000
00001000
00000000
00000000
00000000
,
00010000
00001000
00010000
00000000
00000100
00000000
00000000
00000000
00000010
00000000
00000001
00000100
00000010
00000000
00000100
00000010
,
00001000
00000000
00000010
00010000
00001000
00000000
00010000
00000000
00011000
00000000
00000000
00000000
00000000
00000000
00000000
00000000
,
00000000
00010000
00001000
00000000
,
00000000
00000100
00000001
00000010
,
00001000
00010000
01000000
11000000
,
01010000
00011000
00000000
00000000
,
00000110
00011000
00000000
00000000
,
01100000
00011000
00000110
00001001
,
00010100
00000000
00000000
01010000
00000000
00000000
01000000
00000000
00000000
00100000
10000000
00100000
,
10000000
00100000
10000000
01000000
00000000
01000000
00100000
00000000
00100000
00010000
00000000
00100000
,
00001000
00000000
00001000
00010000
00000000
00010000
00000100
00000000
00000010
00000001
00000000
00000001
,
00001000
00000000
00000010
00000100
00000000
00000100
00001000
00000000
00001000
00010000
00000000
00010000
,
01000000
00000000
00100000
00010000
00000000
00010000
10000000
00000000
10000000
00100000
01000000
00100000
,
01000000
00100000
01000000
00010000
00000000
00100000
01000000
00000000
01000000
10000000
00000000
00010000
,
01000000
00000000
00100000
10000000
01000000
10000000
00020000
00000000
00000000
00130000
00010000
00100000
,
00002000
00000000
00000000
00003100
00000010
00000100
00000001
00000000
00000100
00000010
00010000
00001000
,
00010000
00000000
00001000
00010000
00001000
00010000
00001000
00010000
01000000
10000000
00010000
10000000
,
00010000
01000000
00100000
01000000
00010000
00100000
01000000
10000000
00100000
01000000
00000000
00000000
,
20020000
00000000
00000000
00000000
,
30030000
00000000
00000000
00000000
;

//---------------dance-double - ----------------
#NOTES:
     dance-double:
     :
     Medium:
     9:
     0.650209,0.750761,0.292155,0.438232,0.295999,497.000000,38.000000,57.000000,0.000000,0.000000,0.000000,0.650209,0.750761,0.292155,0.438232,0.295999,497.000000,38.000000,57.000000,0.000000,0.000000,0.000000:
00000000
00000000
00000000
00000000
,
00000000
00000000
00000000
00000000
,
20000000
01000000
30020000
00000000
02030000
00100000
03002000
00000000
,
00003200
00000000
00000301
00000000
00001000
00000100
00000010
00000001
00000200
00000000
00000000
00000000
00000020
00000000
00000000
00000330
,
00000110
00000000
00000000
00000110
,
00001010
00000000
00000000
00001000
,
00010100
00010000
00011000
00001000
,
00101000
00000000
00000000
00000000
00000000
00100000
00010000
00000000
00000000
10000000
00000000
00000000
,
10010000
00000000
00000000
01100000
,
01010000
00000000
00000000
00100000
,
00101000
00001000
00011000
00010000
,
00010010
00000000
00000000
00000000
00000000
00000010
00001000
00000000
00000000
00000001
00000000
00000000
,
00000100
00000001
00000100
00000001
00000000
00000000
00001000
00000001
00001000
00000001
00000000
00000000
,
00000010
00000000
00000100
00001000
00000100
00000020
00000000
00000031
,
00000010
00000100
00001000
00000001
00000100
00000000
00000110
00000000
,
00000100
00001000
00010000
00100000
01000000
00000000
00020000
00000000
,
00230000
00000000
01300000
00010000
00001000
00000000
00000200
00000000
,
00000302
00000000
00000013
00000100
00000000
00020000
00000000
00031000
,
00000100
00000001
00001000
00000001
00000000
00000020
00000000
00000130
,
00001000
00000001
00000200
00000000
00001300
00010000
00200000
00000000
,
10300000
01000000
00200000
00000000
00310000
10000000
01000000
00010000
,
00002000
00000000
00013000
00001000
00000100
00000020
00000000
00000130
,
00001000
00010000
00000100
00000010
00001000
00000000
00020000
00000000
,
01030000
00100000
00010000
10000000
00100000
00000000
01010000
00000000
,
00001000
00000000
00010100
00000000
00000010
00000000
00000001
00000100
,
00000010
00000000
00000001
00000010
00001000
00000200
00000000
00000310
,
00001000
00010000
01000000
00100000
00010000
02000000
00000000
13000000
,
01000000
00010000
20000000
00000000
31000000
00100000
00020000
00000000
,
01030000
00100000
00020000
00000000
00031000
00000100
00000001
00001000
,
00000100
00000010
00000000
00000000
,
00000000
00000000
00000000
00000000
,
00000000
00000001
00001000
00000000
00000000
00000000
00000000
00000000
,
00000000
00000000
00000002
00000000
00002003
00000000
00003100
00000010
,
00001000
00010000
01000000
00000000
00000000
00000000
00100000
00000000
,
00000000
00010000
00000000
10000000
,
00000000
00100000
00000000
00010000
,
00000000
00001000
00000000
00010000
,
00010000
00000100
00000010
00000001
,
00001000
00000001
00000100
00001000
,
00010000
00000000
00000000
01000000
00000000
01000000
10000000
00000000
10000000
00010000
00000000
00010000
,
01000000
00000000
01000000
00100000
00000000
00000000
01100000
00000000
00000000
20020000
00000000
00000000
,
30030000
00000000
00000000
10000000
00000000
00000000
00010000
00000000
00010000
00100000
00000000
00000000
,
01000000
00000000
01000000
10000000
00000000
00000000
00010000
00000000
00010000
01000000
00000000
00000000
,
00001000
00000000
00001000
00010000
00000000
00000000
00000100
00000000
00000100
00000010
00000000
00000000
,
00000001
00000000
00000001
00001000
00000000
00000000
00000010
00000000
00000010
00000100
00000000
00000100
,
00000001
00000000
00000001
00001000
00000000
00000000
00001000
00000000
00001000
00000100
00000000
00000000
,
00010000
00000000
00010000
00001000
00000000
00000000
00100000
00000000
00100000
00010000
00000000
00000000
,
01000000
00000000
01000000
00010000
00000000
00010000
10000000
00000000
10000000
01000000
00000000
01000000
,
00100000
00000000
00100000
00001000
00000000
00001000
00010000
00000000
00010000
00000100
00000000
00000100
,
00000010
00000000
00000010
00000002
00000000
00000000
00000203
00000000
00000000
00000320
00000000
00000000
,
00002030
00023000
02030000
03200000
,
20300000
00000000
30000000
20000000
00000000
00000000
32000000
00000000
00000000
03020000
00000000
00000000
,
00031000
00010000
01000000
00100000
00001000
00000100
00000010
00000001
,
00000010
00000100
00000002
00000000
00000013
00000100
00000020
00000000
,
00000130
00001000
00000200
00000000
00001300
00000100
00020000
00000000
,
00031000
00100000
00020000
00000000
00130000
01000000
01000000
10000000
,
00100000
00010000
00100000
10000000
01000000
00010000
01000000
00100000
,
00001000
00000000
00010000
00000000
00000100
00001000
00000100
00001000
00000100
00000000
00000000
00000000
00000010
00000001
00000010
00000001
,
00000010
00000000
00000000
00000000
00000000
00000000
00000000
00000000
00000000
00000000
00000000
00000000
00000001
00000000
00000000
00000100
00000000
00000000
00000001
00000000
00000000
00000100
00000000
00000000
00000010
00000000
00000000
00001000
00000000
00000000
00000010
00000000
00000000
00001000
00000000
00000000
00000001
00000000
00000000
00000000
00000010
00000000
00000000
00000000
00000100
00000000
00000000
00000000
,
00001000
00000000
00000001
00000000
00000100
00000000
00000000
00000000
00000000
00000000
00000000
00000000
00000010
00000000
00000000
00000100
00000000
00000000
00000002
00000000
00000000
00000000
00000000
00000000
,
00001003
00000100
00000010
00000001
00000010
00000100
00000010
00000100
,
00001000
00000100
00001000
00000100
00010000
00000000
00011000
00000000
,
00100000
00110000
01000000
11000000
,
10000000
00000000
10010000
00000000
10000000
01000000
00100000
00020000
,
00000000
01000000
01030000
00000000
00100000
00010000
00001000
00000200
,
00000000
00000010
00000310
00000000
00000100
00000001
00001000
00000000
,
00000100
00000010
00000001
00001000
00000001
00000100
00000010
00000200
,
00000000
00000010
00000010
00000310
00001000
00000100
00000020
00000000
,
00000130
00001000
00000001
00000100
00001000
00010000
00001000
00010000
,
01000000
10000000
01000000
10000000
00010000
00000000
01010000
00000000
,
00001000
00011000
00000100
00001100
,
00000010
00000000
00000011
00000000
00001000
00000100
00000020
00000000
,
00000130
00001000
00000001
00000100
00001000
00010000
00001000
00010000
,
00000100
00000010
00000100
00000010
00000001
00000001
00002000
00000000
,
00003010
00000010
00000200
00000000
00000301
00000100
00001000
00000100
,
00001000
00010000
01000000
10000000
00010000
00000000
00000000
00000000
,
00000000
01000000
00010000
00000000
,
00000000
01000000
00010000
00100000
,
01000000
10000000
00010000
00110000
,
01100000
10010000
00000000
00000000
,
01010000
01001000
00000000
00000000
,
00011000
00010100
00001100
00001001
,
00000101
00000000
00000000
00000110
00000000
00000000
00000100
00000000
00000000
00000010
00000100
00000010
,
00000100
00000010
00000100
00000010
00000000
00000000
00001000
00000000
00001000
00000100
00000000
00000000
,
00000100
00000000
00000100
00010000
00000000
00000000
00010000
00000000
00010000
00001000
00000000
00000000
,
00001000
00000000
00001000
00100000
00000000
00000000
00100000
00000000
00100000
00010000
00000000
00000000
,
00010000
00000000
00010000
01000000
00000000
00000000
01100000
00000000
00000000
00100000
01000000
00100000
,
01000000
00100000
01000000
00100000
00000000
00100000
10000000
00000000
10000000
01000000
00000000
01000000
,
00100000
00000000
00000000
00010000
00100000
00010000
00200000
00000000
00000000
00310000
10000000
00010000
,
20000000
00000000
00000000
30100000
00000000
00100000
00010000
00000000
00010000
00001000
00000000
00001000
,
00000100
00000000
00000100
00000001
00000000
00000001
00000010
00000000
00000010
00000100
00000000
00000100
,
00001000
00000000
00000000
00000001
00001000
00000001
00001000
00000001
00001000
00000001
00000000
00000000
,
00000220
00000000
00000000
00000000
,
00000330
00000000
00000000
00000000
;

//---------------dance-double - ----------------
#NOTES:
     dance-double:
     :
     Easy:
     7:
     0.479969,0.572008,0.123013,0.415167,0.061506,367.000000,16.000000,54.000000,0.000000,0.000000,0.000000,0.479969,0.572008,0.123013,0.415167,0.061506,367.000000,16.000000,54.000000,0.000000,0.000000,0.000000:
00000000
00000000
00000000
00000000
,
00000000
00000000
00000000
00000000
,
00002000
00003020
00020030
00030200
,
00000320
00000032
00002003
00003020
,
00000130
00000000
00000000
00000001
,
00000001
00000000
00000000
00000100
,
00000001
00000010
00000100
00001000
,
00000010
00000000
00000100
00001000
,
00010000
00000000
00000000
00001000
,
00001000
00000000
00000000
00010000
,
00001000
00010000
01000000
00100000
,
00010000
00000000
10000000
10000000
,
00010000
01000000
10000000
01000000
,
00010000
10000000
01000000
00100000
,
01000000
00000000
10000000
00010000
10000000
00000000
00100000
00000000
,
00100000
00000000
01000000
00010000
01000000
00000000
00001000
00000000
,
00001000
00000000
00010000
00001000
00010000
00000000
00000100
00000000
,
00000100
00000000
00000010
00000100
00000000
00002000
00000000
00003001
,
00001000
00000000
00000001
00000100
00000000
00000020
00000000
00000130
,
00000010
00001000
00000100
00010000
,
00001000
00000000
01000000
00000000
00010000
00000000
01000000
00010000
,
01000000
00000000
00100000
00000000
10000000
00010000
00000000
10000000
,
00010000
00000000
10000000
01000000
10000000
00000000
00010000
00000000
,
01000000
00000000
00100000
01000000
00010000
00000000
00100000
00000000
,
01000000
00000000
00010000
00001000
00010000
00000000
00001000
00000000
,
00001000
00000000
00000100
00000010
00000000
00002000
00000000
00003100
,
00000010
00000000
00000001
00000100
00000000
00000020
00000000
00000130
,
00000001
00000010
00001000
00010000
,
01000000
00000000
10000000
00000000
00100000
00000000
01000000
00100000
,
01000000
01100000
00000000
00000000
,
00000000
00000000
00000000
00000000
,
00000000
00010000
10000000
00000000
00000000
00000000
00000000
00000000
,
00000000
00020000
20030000
02000000
,
00000000
33000000
00100000
00000000
00000000
00000000
00010000
00000000
,
00000000
10000000
00000000
00100000
,
00000000
00010000
00000000
00001000
,
00000000
00000100
00000000
00000001
,
00000001
00001000
00000001
00000010
,
00000100
00001000
00000001
00000100
,
00001000
00010000
01000000
10000000
,
00100000
01000000
01100000
20020000
,
30030000
10000000
00010000
10000000
,
00100000
01000000
00010000
10000000
,
01000000
00010000
00001000
00010000
,
00000100
00000010
00000001
00001000
,
00000001
00000000
00000000
00000100
00000000
00000000
00000100
00000000
00000100
00000010
00000000
00000000
,
00001000
00000000
00000000
00000100
00000000
00000000
00010000
00000000
00010000
00001000
00000000
00000000
,
00100000
00000000
00000000
00010000
00000000
00000000
01000000
00000000
01000000
00100000
00000000
00000000
,
10000000
00000000
10000000
00010000
00000000
00000000
00100000
00000000
00100000
01000000
00000000
00000000
,
10000000
00200000
02300000
03020000
,
20030000
32000000
03020000
00032000
,
00003200
00000320
00002030
00003002
,
00000013
00000100
00002000
00000000
00003020
00000000
00000230
00000000
,
00002300
00023000
00100000
00032000
,
00000000
00003200
00000010
00000302
,
00000000
00000023
00000100
00002030
,
00000010
00023000
01000000
00032000
,
00010000
00203000
00310000
00020000
,
10030000
00000000
00000000
20000000
00000000
00000000
30200000
00000000
00000000
01300000
00010000
10000000
,
00010000
00000000
10000000
00000000
00010000
00000000
00000000
00000000
00000000
00000000
00000000
00000000
10000000
00000000
00000000
01000000
00000000
00000000
20000000
00000000
00000000
00000000
00000000
00000000
,
31000000
00000000
00100000
00000000
00010000
10000000
00010000
00000000
,
01000000
00010000
01000000
00000000
00100000
00000000
00100000
00000000
,
10000000
10000000
00010000
00010000
,
00100000
00000000
00100000
00000000
01000000
00010000
01000000
00020000
,
00000000
00000000
00031000
00000000
00000100
00001000
00000100
00002000
,
00000000
00000000
00013000
00000000
00000100
00010000
00000100
00000000
,
00000010
00000001
00000200
00000300
,
00000010
00001000
00000010
00001000
00000001
00001000
00000200
00000000
,
00000310
00000000
00000001
00000000
00000100
00000010
00000100
00000000
,
00000001
00001000
00000001
00000000
00000100
00000000
00000100
00000000
,
00000001
00000001
00001000
00001000
,
00000100
00000000
00000100
00000000
00000010
00001000
00020000
00000000
,
00001000
00000000
00031000
00000000
00010000
00001000
00100000
00000000
,
00010000
00100000
01000000
00000000
10000000
00010000
10000000
00000000
,
00010000
01000000
00010000
00000000
00100000
00000000
01000000
00000000
,
10000000
00010000
10010000
00000000
,
00000000
10000000
00010000
00000000
,
00000000
01000000
00010000
00100000
,
01000000
10000000
00100000
01100000
,
01100000
01100000
00000000
00000000
,
01010000
01010000
00000000
00000000
,
01010000
01001000
01001000
00011000
,
00011000
00010100
00000100
00000010
,
00000010
00000001
00001000
00000001
,
00000100
00001000
00010000
01000000
,
10000000
00100000
01000000
00010000
,
10000000
01000000
00010000
00001000
,
00010000
00001000
00000100
00000001
,
00001000
00000000
00000000
00000100
00000000
00000100
00000020
00000000
00000000
00000031
00000000
00000001
,
00002000
00000000
00000000
00003010
00000000
00000010
00000100
00000000
00000000
00000010
00000000
00000010
,
00001000
00000000
00000000
00000100
00000000
00000100
00001000
00000000
00000000
00000100
00000000
00000000
,
00010000
00000000
00000000
00001000
00000000
00001000
00010000
00000000
00010000
00001000
00000000
00000000
,
00022000
00000000
00000000
00000000
,
00033000
00000000
00000000
00000000
;

//---------------dance-single - ----------------
#NOTES:
     dance-single:
     :
     Beginner:
     3:
     0.284467,0.321755,0.076883,0.276778,0.000000,213.000000,10.000000,36.000000,0.000000,0.000000,0.000000,0.284467,0.321755,0.076883,0.276778,0.000000,213.000000,10.000000,36.000000,0.000000,0.000000,0.000000:
// measure 0
0000
0000
0000
0000
,  // measure 1
0000
0000
0000
0000
,  // measure 2
1000
1000
1000
0000
,  // measure 3
0001
0001
0001
0000
,  // measure 4
1001
0000
0000
0000
,  // measure 5
1001
0000
0000
0000
,  // measure 6
0001
0000
0001
0000
,  // measure 7
0001
0000
1000
1000
,  // measure 8
1100
0000
0000
0000
,  // measure 9
0110
0000
0000
0000
,  // measure 10
0010
0000
0001
0000
,  // measure 11
1000
0000
0001
0000
,  // measure 12
0200
0000
0320
0000
,  // measure 13
1030
0001
0001
0001
,  // measure 14
0000
0010
0100
0010
,  // measure 15
0000
0100
0100
0100
,  // measure 16
0000
1000
0100
1000
,  // measure 17
0000
0001
0000
0001
,  // measure 18
0000
1000
0000
1000
,  // measure 19
0000
0010
0100
0010
,  // measure 20
0000
1000
0001
1000
,  // measure 21
0000
0100
0000
0000
,  // measure 22
0000
0100
0000
0000
,  // measure 23
0000
1000
0000
1000
,  // measure 24
0000
0001
0000
0001
,  // measure 25
0000
0200
0000
0300
,  // measure 26
0000
0020
0000
0030
,  // measure 27
0000
1000
0000
0001
,  // measure 28
0000
0010
0100
0010
,  // measure 29
0000
1001
0000
0000
,  // measure 30
0000
0000
0000
0000
,  // measure 31
0000
1001
0000
0000
,  // measure 32
0000
0020
0000
0030
,  // measure 33
0000
1000
0000
1000
,  // measure 34
0000
0001
0000
0001
,  // measure 35
0000
0100
0000
0100
,  // measure 36
0000
0010
0000
0010
,  // measure 37
0100
0010
0000
1000
,  // measure 38
0000
0001
0000
0010
,  // measure 39
0000
0100
0000
0010
,  // measure 40
0000
0100
0100
0200
,  // measure 41
0000
1300
0100
1000
,  // measure 42
0000
0001
0100
0001
,  // measure 43
0000
1000
0001
1000
,  // measure 44
0000
0010
0100
0010
,  // measure 45
0000
1000
1000
0100
,  // measure 46
0000
0010
0001
0010
,  // measure 47
0000
0001
0001
0100
,  // measure 48
0000
0010
1000
0010
,  // measure 49
0000
2000
3000
0002
,  // measure 50
0003
0200
0300
0002
,  // measure 51
0003
0020
0030
0200
,  // measure 52
0300
1000
1000
0001
,  // measure 53
0001
0200
0000
0320
,  // measure 54
0000
2030
0000
3002
,  // measure 55
0000
0023
0000
0230
,  // measure 56
0000
2300
0000
3002
,  // measure 57
0000
0203
0300
0020
,  // measure 58
0030
2000
3002
1003
,  // measure 59
1001
0000
0001
0001
,  // measure 60
0000
0001
0100
0010
,  // measure 61
0100
0000
0010
1000
,  // measure 62
0010
0000
1000
0001
,  // measure 63
1000
0000
0100
0200
,  // measure 64
0000
0310
0001
0002
,  // measure 65
0000
1003
1000
0000
,  // measure 66
0001
0000
0100
0100
,  // measure 67
0100
0000
0010
0010
,  // measure 68
1000
0000
0001
0001
,  // measure 69
0010
0100
0010
0000
,  // measure 70
0100
0000
1000
0000
,  // measure 71
0001
0000
0100
0200
,  // measure 72
0000
0310
1000
1000
,  // measure 73
0001
0001
2000
3000
,  // measure 74
0002
0003
0100
0010
,  // measure 75
0100
0010
1001
0000
,  // measure 76
0000
0000
0000
0000
,  // measure 77
0000
0000
0000
0000
,  // measure 78
0000
0000
0100
0010
,  // measure 79
0010
0110
0000
0000
,  // measure 80
0001
1000
0000
0000
,  // measure 81
0100
0010
0100
0010
,  // measure 82
0100
1000
0000
0002
,  // measure 83
0000
0103
0100
0010
,  // measure 84
0000
1000
0001
1000
,  // measure 85
0000
0100
1000
0001
,  // measure 86
0000
0100
0001
1000
,  // measure 87
0000
0010
0010
1000
,  // measure 88
0000
0002
0003
2000
,  // measure 89
3000
0200
0300
0020
,  // measure 90
0030
0001
1000
0001
,  // measure 91
0000
0100
0010
0100
,  // measure 92
0220
0000
0000
0000
,  // measure 93
0330
0000
0000
0000
;
