#VERSION:0.82;
#TITLE:ワールズエンド・ダンスホール;
#SUBTITLE:;
#ARTIST:wowaka;
#TITLETRANSLIT:World's End Dancehall;
#SUBTITLETRANSLIT:;
#ARTISTTRANSLIT:;
#GENRE:;
#ORIGIN:;
#CREDIT:Lisek;
#BANNER:[Round 1 Singles] - World's End Dancehall.png;
#BACKGROUND:[Round 1 Singles] - World's End Dancehall-bg.png;
#PREVIEWVID:;
#JACKET:[Round 1 Singles] - World's End Dancehall-jacket.png;
#CDIMAGE:;
#DISCIMAGE:;
#LYRICSPATH:;
#CDTITLE:cdtitle.png;
#MUSIC:[Round 1 Singles] - World's End Dancehall.ogg;
#OFFSET:-5.247600;
#SAMPLESTART:38.935314;
#SAMPLELENGTH:11.339985;
#SELECTABLE:YES;
#BPMS:0.000=171.000;
#STOPS:;
#DELAYS:;
#WARPS:;
#TIMESIGNATURES:0.000=4=4;
#TICKCOUNTS:0.000=4;
#COMBOS:0.000=1;
#SPEEDS:0.000=1.000=0.000=0;
#SCROLLS:0.000=1.000;
#FAKES:;
#LABELS:0.000=Song Start;
#BGCHANGES:;
#KEYSOUNDS:;
#ATTACKS:
;

//---------------dance-single - ----------------
#NOTEDATA:;
#CHARTNAME:;
#STEPSTYPE:dance-single;
#DESCRIPTION:;
#CHARTSTYLE:;
#DIFFICULTY:Challenge;
#METER:9;
#RADARVALUES:0.629464,0.731901,0.385417,0.104167,0.192708,376.000000,37.000000,10.000000,0.000000,0.000000,0.000000,0.000000,0.000000,0.629464,0.731901,0.385417,0.104167,0.192708,376.000000,37.000000,10.000000,0.000000,0.000000,0.000000,0.000000,0.000000;
#CREDIT:Lisek;
#NOTES:
1000
0000
0000
0100
0000
0000
1000
0000
0000
0000
0010
0000
0100
0000
0001
0000
,
0010
0000
0000
0001
0000
0000
0010
0000
0000
0000
0001
0000
1000
0000
0000
0000
,
0001
0000
0000
0010
0000
0000
0001
0000
0000
0000
0100
0000
0010
0000
1000
0000
,
0100
0000
0000
1000
0000
0000
0100
0000
0000
0000
1000
0000
0001
0000
0000
0000
,
1000
0000
0000
0100
0000
0000
0010
0000
0000
0000
0001
0000
0010
0000
0100
0000
,
1000
0000
0000
0001
0000
0000
0100
0000
0000
0000
0010
0000
0100
0000
0001
0000
,
1000
0000
0000
0100
0000
0000
0010
0000
0000
0000
0001
0000
0100
0000
0010
0000
,
1000
0000
0000
0100
0000
0000
0010
0000
0000
0000
0001
0000
1000
0000
0000
0000
,
0001
0000
0000
1000
0100
0000
1000
0000
0000
0000
0010
0000
0100
0000
0001
0000
,
0100
0000
0000
0010
0000
0000
2000
0000
0000
0000
3001
0000
1000
0000
0000
0000
,
0001
0000
0000
0010
0000
0000
0100
0000
0000
0000
0010
0000
0001
0000
1000
0000
,
0010
0000
0000
0100
0000
0000
0020
0000
0000
0000
0030
0000
0110
0000
0000
0000
,
0010
0000
0000
1000
0000
0000
0002
0000
0000
0000
0013
0000
0100
0000
1000
0000
,
0100
0000
0000
0010
0000
0000
0200
0000
0000
0000
0300
0000
1100
0000
0000
0000
,
1000
0000
0000
0001
0000
0000
0200
0000
0000
0000
0310
0000
0100
0000
0001
0000
,
0010
0011
0001
1001
,
1000
0000
0100
0000
0001
0000
0100
0000
1000
0000
0010
0000
0100
0010
0100
0000
,
0001
0000
0100
0000
1000
0000
0100
0000
0001
0000
0100
0000
0010
0100
0010
0000
,
1000
0100
1000
0100
1000
0000
0001
0100
0001
0100
0001
0000
1000
0000
0100
0000
,
0002
0203
2300
3002
,
1003
0100
1000
0100
0010
0001
0010
0001
1000
0000
1000
0000
1000
0000
0000
0000
,
0001
0100
0001
0100
0010
1000
0010
1000
0001
0000
0001
0000
0001
0000
0000
0000
,
1001
0000
0001
0100
1000
0000
0100
0001
,
1000
0100
0010
0001
1000
0000
0000
0000
,
1001
0000
1000
0100
0010
0000
0001
0100
,
1000
0100
0010
0100
0001
0000
1000
0000
,
1010
0000
0000
0010
0110
0000
0000
0100
,
0001
1000
0100
0001
0100
0000
1100
0000
,
1001
0000
0001
0010
0100
0000
0010
0001
,
1000
0100
0001
0100
0010
0000
0001
0000
,
0101
0000
0000
0100
0110
0000
0000
0100
,
0010
1000
0010
0100
0001
0000
0101
0000
,
1001
0000
1000
0100
0010
0001
0010
0100
,
0010
0001
1000
0100
0010
0000
0001
0000
,
0011
0000
0000
0010
0110
0000
0000
0100
,
1000
0010
0100
0001
1000
0010
0100
0000
,
1001
0000
0001
0100
0010
1000
0100
0010
,
0100
1000
0001
0010
0100
0000
1000
0000
,
1010
0000
0000
1000
1100
0000
0000
0100
,
0010
0001
1000
0100
0010
0000
0011
0000
,
1001
0000
0001
0100
0010
0000
1000
0100
,
0001
0100
1000
0010
0100
0000
0010
0000
,
0110
0000
0000
0100
0101
0000
0000
0001
,
0010
0100
0010
0001
1000
0000
1010
0000
,
1001
0000
1000
0010
0100
0000
0010
1000
,
0100
0001
0100
1000
0010
0000
0100
0000
,
0110
0000
0000
0010
1010
0000
0000
1000
,
0100
0010
0100
1000
0001
0000
0101
0000
,
1001
0000
0001
0010
0100
0000
0010
0001
,
0100
1000
0100
0001
0010
0000
0001
0000
,
0101
0000
0000
0100
0010
1000
0100
0010
,
0100
1000
0010
0100
0001
0000
0011
0000
,
1001
1010
1001
0101
,
1000
1000
0001
0001
0100
0000
0010
0000
,
0110
0000
0000
1000
1001
0000
0000
0001
,
0100
1000
0001
0020
0000
0000
0000
0030
,
1000
0000
0000
0100
0000
0000
0001
0000
0000
0000
0100
0000
1000
0000
0001
0000
,
0010
0000
0000
0001
0000
0000
0100
0000
0000
0000
1000
0000
0100
0000
0000
0000
,
0001
0000
0000
0100
0000
0000
1000
0000
0000
0000
0100
0000
0001
0000
1000
0000
,
0100
0000
0000
0001
0000
0000
0100
0000
0000
0000
1000
0000
0001
0000
0000
0000
,
1000
0000
0000
0010
0000
0000
0001
0000
0000
0000
0010
0000
1000
0000
0001
0000
,
0010
0000
0000
0001
0000
0000
0100
0000
0000
0000
1000
0000
0100
0000
0000
0000
,
1000
0000
0000
0100
0000
0000
0010
0000
0000
0000
1000
0000
0010
0000
0100
0000
,
0001
0000
0000
0010
0000
0000
0100
0000
0000
0000
1000
0000
0001
0000
0100
0000
;

//---------------dance-single - ----------------
#NOTEDATA:;
#CHARTNAME:;
#STEPSTYPE:dance-single;
#DESCRIPTION:;
#CHARTSTYLE:;
#DIFFICULTY:Beginner;
#METER:1;
#RADARVALUES:0.050595,0.064583,0.000000,0.000000,0.000000,34.000000,0.000000,0.000000,0.000000,0.000000,0.000000,0.000000,0.000000,0.050595,0.064583,0.000000,0.000000,0.000000,34.000000,0.000000,0.000000,0.000000,0.000000,0.000000,0.000000,0.000000;
#CREDIT:Lisek;
#NOTES:
1000
0000
0000
0000
,
0000
0000
0000
0000
,
0001
0000
0000
0000
,
0000
0000
0000
0000
,
0100
0000
0000
0000
,
0000
0000
0000
0000
,
0010
0000
0000
0000
,
0000
0000
0000
0000
,
1000
0000
0000
0000
,
0000
0000
0000
0000
,
0100
0000
0000
0000
,
0000
0000
0000
0000
,
0010
0000
0000
0000
,
0000
0000
0000
0000
,
0001
0000
0000
0000
,
0000
0000
0000
0000
,
1000
0000
0000
0000
,
0001
0000
0000
0000
,
1000
0000
0000
0000
,
0000
0000
0000
0000
,
0001
0000
0000
0000
,
1000
0000
0000
0000
,
0001
0000
0000
0000
,
0000
0000
0000
0000
,
1000
0000
0000
0000
,
0000
0000
0000
0000
,
0100
0000
0000
0000
,
0000
0000
0000
0000
,
0010
0000
0000
0000
,
0000
0000
0000
0000
,
0001
0000
0000
0000
,
0000
0000
0000
0000
,
1000
0000
0000
0000
,
0000
0000
0000
0000
,
0001
0000
0000
0000
,
0000
0000
0000
0000
,
0100
0000
0000
0000
,
0000
0000
0000
0000
,
0010
0000
0000
0000
,
0000
0000
0000
0000
,
1000
0000
0000
0000
,
0000
0000
0000
0000
,
0100
0000
0000
0000
,
0000
0000
0000
0000
,
0010
0000
0000
0000
,
0000
0000
0000
0000
,
0001
0000
0000
0000
,
0000
0000
0000
0000
,
1000
0000
0000
0000
,
0000
0000
0000
0000
,
0010
0000
0000
0000
,
0000
0000
0000
0000
,
0100
0000
0000
0000
,
0000
0000
0000
0000
,
0001
0000
0000
0000
,
0000
0000
0000
0000
,
1000
0000
0000
0000
,
0000
0000
0000
0000
,
0010
0000
0000
0000
,
0000
0000
0000
0000
,
0100
0000
0000
0000
,
0000
0000
0000
0000
,
0001
0000
0000
0000
;

//---------------dance-single - ----------------
#NOTEDATA:;
#CHARTNAME:;
#STEPSTYPE:dance-single;
#DESCRIPTION:;
#CHARTSTYLE:;
#DIFFICULTY:Easy;
#METER:2;
#RADARVALUES:0.102679,0.132813,0.000000,0.083333,0.000000,61.000000,0.000000,8.000000,0.000000,0.000000,0.000000,0.000000,0.000000,0.102679,0.132813,0.000000,0.083333,0.000000,61.000000,0.000000,8.000000,0.000000,0.000000,0.000000,0.000000,0.000000;
#CREDIT:Lisek;
#NOTES:
1000
0000
0000
0000
,
0000
0000
0000
0000
,
0001
0000
0000
0000
,
0000
0000
0000
0000
,
2000
0000
0000
0000
,
0000
0000
0000
3000
,
0002
0000
0000
0000
,
0000
0000
0000
0003
,
1000
0000
0000
0000
,
0001
0000
0000
0000
,
0100
0000
0000
0000
,
0010
0000
0000
0000
,
1000
0000
0000
0000
,
0100
0000
0000
0000
,
0010
0000
0000
0000
,
0002
0000
0003
0000
,
1000
0000
0001
0000
,
1000
0000
0001
0000
,
1000
0000
0001
0000
,
1000
0000
0000
0000
,
0001
0000
1000
0000
,
0001
0000
1000
0000
,
0001
0000
1000
0000
,
0002
0000
0003
0000
,
1000
0000
0000
0000
,
0010
0000
0000
0000
,
1000
0000
0000
0000
,
0010
0000
0000
0000
,
0100
0000
0000
0000
,
0001
0000
0000
0000
,
0100
0000
0000
0000
,
0001
0000
0000
0000
,
1000
0000
0000
0000
,
0100
0000
0000
0000
,
1000
0000
0000
0000
,
0100
0000
0000
0000
,
0010
0000
0000
0000
,
0001
0000
0000
0000
,
0010
0000
0000
0000
,
0001
0000
0000
0000
,
1000
0000
0000
0000
,
0001
0000
0000
0000
,
0100
0000
0000
0000
,
0010
0000
0000
0000
,
1000
0000
0000
0000
,
0100
0000
0000
0000
,
0010
0000
0000
0000
,
0001
0000
0000
0000
,
1000
0000
0000
0000
,
0001
0000
0000
0000
,
0010
0000
0000
0000
,
0100
0000
0000
0000
,
1000
0000
0000
0000
,
0001
0000
0000
0000
,
1000
0000
0000
0000
,
0000
0000
0000
0000
,
0002
0000
0000
0000
,
0000
0000
0000
0003
,
0200
0000
0000
0000
,
0000
0000
0000
0300
,
0020
0000
0000
0000
,
0000
0000
0000
0030
,
2000
0000
0000
0000
,
0000
0000
0000
3000
;

//---------------dance-single - ----------------
#NOTEDATA:;
#CHARTNAME:;
#STEPSTYPE:dance-single;
#DESCRIPTION:;
#CHARTSTYLE:;
#DIFFICULTY:Medium;
#METER:5;
#RADARVALUES:0.351190,0.396875,0.260417,0.125000,0.000000,199.000000,25.000000,12.000000,0.000000,0.000000,0.000000,0.000000,0.000000,0.351190,0.396875,0.260417,0.125000,0.000000,199.000000,25.000000,12.000000,0.000000,0.000000,0.000000,0.000000,0.000000;
#CREDIT:Lisek;
#NOTES:
1000
0000
0010
0000
,
0100
0000
0001
0000
,
1000
0000
0100
0000
,
0010
0000
0001
0000
,
2000
0000
0100
0000
,
3200
0000
0010
0000
,
0320
0000
0001
0000
,
0032
0000
1000
0000
,
1003
0100
1000
0000
,
0001
0100
0010
0100
,
0001
1000
0001
0000
,
1000
0010
0100
0010
,
1000
0100
1000
0000
,
0001
0100
0010
1000
,
0001
0100
0001
0000
,
0110
0110
1001
1001
,
1000
1000
1000
1000
,
0001
0001
0001
0001
,
2000
0000
3000
0002
0000
0003
0000
0000
,
2000
3200
0320
0032
,
1003
0000
1000
0000
1000
1000
1000
0000
,
0001
0000
0001
0000
0001
0001
0001
0000
,
1000
0001
1000
0001
,
0220
0000
0330
0000
,
1000
0100
0010
0001
,
1000
0001
0100
0001
,
0101
0000
0101
0000
,
1000
0010
0100
0010
,
1000
0100
0010
0001
,
1000
0010
1000
0010
,
1010
0000
1010
0000
,
0001
0100
0010
0100
,
0001
0010
0100
1000
,
0100
0010
0001
1000
,
1001
0000
1001
0000
,
1000
0010
0100
0001
,
0010
0001
0100
0001
,
1000
0010
0100
0010
,
0110
0000
0110
0000
,
0100
0001
1000
0100
,
1000
0001
0100
0010
,
0100
0001
1000
0100
,
1100
0000
1100
0000
,
0100
0010
0001
1000
,
0001
0100
0010
0100
,
0001
1000
0010
0100
,
0110
0000
0110
0000
,
0010
1000
0100
0010
,
0001
1000
0001
0100
,
0001
1000
0010
1000
,
1010
0000
1010
0000
,
0010
0100
0001
1000
,
1001
1001
0110
0110
,
0100
0010
1000
0001
,
1001
0000
1001
0000
,
1000
0001
0000
0000
,
1000
0000
0100
0000
,
0010
0000
0001
0000
,
1000
0000
0001
0000
,
0100
0000
0010
0000
,
1000
0000
0100
0000
,
0010
0000
0001
0000
,
1000
0000
0001
0000
,
0100
0000
0010
0000
;

//---------------dance-single - ----------------
#NOTEDATA:;
#CHARTNAME:;
#STEPSTYPE:dance-single;
#DESCRIPTION:;
#CHARTSTYLE:;
#DIFFICULTY:Hard;
#METER:8;
#RADARVALUES:0.520833,0.499023,0.260417,0.135417,0.057292,312.000000,25.000000,13.000000,0.000000,0.000000,0.000000,0.000000,0.000000,0.520833,0.499023,0.260417,0.135417,0.057292,312.000000,25.000000,13.000000,0.000000,0.000000,0.000000,0.000000,0.000000;
#CREDIT:Lisek;
#NOTES:
// measure 0
1000
0000
0001
0100
0000
0100
0010
0100
,  // measure 1
0010
0000
1000
0010
0000
0010
0200
0000
,  // measure 2
0301
0000
1000
0010
0000
0010
1000
0010
,  // measure 3
1000
0000
0001
0100
0000
0100
0002
0000
,  // measure 4
1003
0000
0000
0100
0000
0000
0020
0000
0000
0000
0000
0000
0031
0000
0000
0000
,  // measure 5
1000
0000
0000
0001
0000
0000
0200
0000
0000
0000
0000
0000
0310
0000
0000
0000
,  // measure 6
0100
0000
0000
0010
0000
0000
2000
0000
0000
0000
0000
0000
3001
0000
0000
0000
,  // measure 7
1000
0000
0000
0100
0000
0000
0020
0000
0000
0000
0000
0000
0031
0000
0000
0000
,  // measure 8
1000
0000
0000
0100
0000
0000
1000
0000
0000
0000
0000
0000
0010
0000
0000
0000
,  // measure 9
0100
0000
0000
0001
0000
0000
0100
0000
0000
0000
0000
0000
0010
0000
0000
0000
,  // measure 10
1000
0000
0000
0100
0000
0000
0010
0000
0000
0000
0000
0000
0001
0000
0000
0000
,  // measure 11
0100
0000
0000
0001
0000
0000
1000
0000
0000
0000
0000
0000
0010
0000
0000
0000
,  // measure 12
1000
0000
0000
0100
0000
0000
1000
0000
0000
0000
0000
0000
0001
0000
0000
0000
,  // measure 13
0100
0000
0000
0010
0000
0000
0100
0000
0000
0000
0000
0000
0001
0000
0000
0000
,  // measure 14
1000
0000
0000
0100
0000
0000
0010
0000
0000
0000
0000
0000
0001
0000
0000
0000
,  // measure 15
1000
1100
0100
0110
,  // measure 16
0010
0001
0100
0001
0010
0001
0100
0000
,  // measure 17
0010
1000
0010
0100
0010
1000
0010
0000
,  // measure 18
1000
0100
1000
0001
0100
0001
1000
0000
,  // measure 19
0002
0203
2300
3020
,  // measure 20
0031
0000
0001
0000
0100
0100
0100
0000
,  // measure 21
0010
0000
0010
0000
1000
1000
1000
0000
,  // measure 22
0001
0000
1000
0100
0010
0000
0001
0100
,  // measure 23
1000
0100
0001
1000
0001
0000
0000
0000
,  // measure 24
1001
0000
1000
0100
1000
0000
0001
0000
,  // measure 25
0100
0010
0100
0001
0100
0000
0010
0000
,  // measure 26
0110
0000
1010
0000
,  // measure 27
1000
0010
0100
0001
,  // measure 28
1001
0000
0001
0010
0001
0000
0100
0000
,  // measure 29
0010
1000
0010
0100
0010
0000
1000
0000
,  // measure 30
1010
0000
0110
0000
,  // measure 31
0100
0001
1000
0010
,  // measure 32
0110
0000
0010
0100
0010
0000
1000
0000
,  // measure 33
0001
0010
0100
0010
0001
0000
1000
0000
,  // measure 34
1100
0000
0110
0000
,  // measure 35
0010
0001
1000
0010
,  // measure 36
0110
0000
0100
0010
1000
0100
0010
0000
,  // measure 37
0001
0010
0100
0010
0001
0000
0100
0000
,  // measure 38
0101
0000
1001
0000
,  // measure 39
1000
0010
0100
0001
,  // measure 40
1001
0000
1000
0001
1000
0000
0001
0000
,  // measure 41
1000
0100
0001
0100
1000
0000
0001
0000
,  // measure 42
0101
0000
0000
0001
1000
0000
0000
0010
,  // measure 43
0100
0001
1000
0010
0100
0000
0010
0000
,  // measure 44
0110
0000
0010
0100
0010
0000
0100
0000
,  // measure 45
0001
0100
1000
0100
0001
0000
0100
0000
,  // measure 46
0110
0000
0000
1000
0001
0000
0000
0001
,  // measure 47
1000
0100
0010
0001
0100
0000
0001
0000
,  // measure 48
1001
0000
1000
0001
1000
0000
0001
0000
,  // measure 49
1000
0010
0001
0010
1000
0000
0001
0000
,  // measure 50
0101
0000
0000
0001
1000
0100
0010
0100
,  // measure 51
1000
0001
0100
0000
0010
0000
0100
0000
,  // measure 52
0101
1010
0101
1010
,  // measure 53
1000
0001
1000
0001
0100
0000
0010
0000
,  // measure 54
0110
0000
0000
1000
0001
0000
0000
1000
,  // measure 55
0100
0010
0001
1000
0000
0000
0000
0000
,  // measure 56
0001
0000
1000
0010
0000
0010
0100
0001
,  // measure 57
0100
0000
0010
0100
0000
0100
0020
0000
,  // measure 58
1030
0000
0100
0010
0000
0010
0001
0010
,  // measure 59
0100
0000
0010
0001
0000
0001
2000
0000
,  // measure 60
3001
0000
0100
0010
0000
0010
0100
0010
,  // measure 61
1000
0000
0100
0010
0000
0010
0002
0000
,  // measure 62
0103
0000
0010
1000
0000
1000
0010
0100
,  // measure 63
0010
0000
0100
0001
0000
0001
1000
0001
;
