#VERSION:0.81;
#TITLE:Tomoe;
#SUBTITLE:;
#ARTIST:SMiLE.dk;
#TITLETRANSLIT:;
#SUBTITLETRANSLIT:;
#ARTISTTRANSLIT:;
#GENRE:;
#ORIGIN:;
#CREDIT:;
#BANNER:tomoe-banner.png;
#BACKGROUND:tomoe-bg.png;
#PREVIEWVID:;
#JACKET:Tomoe-jacket.png;
#CDIMAGE:;
#DISCIMAGE:;
#LYRICSPATH:;
#CDTITLE:;
#MUSIC:Tomoe.ogg;
#OFFSET:-1.896294;
#SAMPLESTART:40.033718;
#SAMPLELENGTH:12.000000;
#SELECTABLE:YES;
#BPMS:0.000=140.000,
156.000=70.000,
168.000=140.000;
#STOPS:;
#DELAYS:;
#WARPS:;
#TIMESIGNATURES:0.000=4=4;
#TICKCOUNTS:0.000=4;
#COMBOS:0.000=1;
#SPEEDS:0.000=1.000=0.000=0;
#SCROLLS:0.000=1.000;
#FAKES:;
#LABELS:0.000=Song Start;
#BGCHANGES:;
#KEYSOUNDS:;
#ATTACKS:
;

//---------------dance-single - ----------------
#NOTEDATA:;
#CHARTNAME:;
#STEPSTYPE:dance-single;
#DESCRIPTION:;
#CHARTSTYLE:;
#DIFFICULTY:Beginner;
#METER:1;
#RADARVALUES:0.111665,0.156331,0.008685,0.000000,0.000000,89.000000,1.000000,0.000000,0.000000,0.000000,0.000000,0.000000,0.000000,0.111665,0.156331,0.008685,0.000000,0.000000,89.000000,1.000000,0.000000,0.000000,0.000000,0.000000,0.000000,0.000000;
#CREDIT:;
#NOTES:
0000
0000
0000
0000
,
0000
0000
0000
0000
,
0000
0000
0000
0000
,
0000
0000
0000
0000
,
0000
0000
0000
0000
,
1000
0000
1000
0000
,
0001
0000
0001
0000
,
0100
0000
0100
0000
,
0010
0000
0000
0000
,
1000
0000
1000
0000
,
0100
0000
0100
0000
,
0010
0000
0010
0000
,
0001
0000
0000
0000
,
1000
0000
0000
0000
,
0001
0000
0000
0000
,
0100
0000
0000
0000
,
0010
0000
0000
0000
,
1000
0000
0000
0000
,
0100
0000
0000
0000
,
0010
0000
0000
0000
,
0001
0000
0000
0000
,
1000
0000
0000
0000
,
0000
0000
0000
0000
,
1000
0000
1000
0000
,
1000
0000
0000
0000
,
0001
0000
0001
0000
,
0001
0000
0000
0000
,
0100
0000
0100
0000
,
0100
0000
0000
0000
,
0010
0000
0010
0000
,
0010
0000
0000
0000
,
1000
0000
1000
0000
,
0100
0000
0100
0000
,
0010
0000
0010
0000
,
0001
0000
0000
0000
,
1000
0000
1000
0000
,
0010
0000
0010
0000
,
0100
0000
0100
0000
,
0001
0000
0000
0000
,
1000
1000
1000
0000
,
0001
0001
0001
0000
,
0100
0100
0100
0000
,
0010
0000
0010
0000
,
0010
0000
0010
0000
,
1000
0000
0000
0000
,
1000
0000
0000
0000
,
0100
0000
0000
0000
,
0010
0000
0000
0000
,
0001
0000
0000
0000
,
1000
0000
1000
0000
,
0001
0000
0001
0000
,
0100
0000
0100
0000
,
0010
0000
0000
0000
,
1000
0000
1000
0000
,
0100
0000
0100
0000
,
0010
0000
0010
0000
,
0001
0000
0001
0000
,
1000
0000
1000
0000
,
0010
0000
0010
0000
,
0100
0000
0100
0000
,
1001
0000
0000
0000
;

//---------------dance-single - ----------------
#NOTEDATA:;
#CHARTNAME:;
#STEPSTYPE:dance-single;
#DESCRIPTION:;
#CHARTSTYLE:;
#DIFFICULTY:Easy;
#METER:4;
#RADARVALUES:0.251867,0.312663,0.060796,0.034740,0.000000,192.000000,7.000000,4.000000,0.000000,0.000000,0.000000,0.000000,0.000000,0.251867,0.312663,0.060796,0.034740,0.000000,192.000000,7.000000,4.000000,0.000000,0.000000,0.000000,0.000000,0.000000;
#CREDIT:;
#NOTES:
0000
0000
0000
0000
,
0000
0000
0000
0000
,
0000
0000
0000
0000
,
0000
0000
0000
0000
,
0000
0000
0000
0000
,
1000
0100
1000
1000
,
0001
0100
0001
0001
,
1000
0010
1000
1000
,
0001
0001
0001
0000
,
1000
0100
0010
0010
,
0001
0100
0010
0010
,
1000
0010
0100
0100
,
0001
0001
0001
0000
,
1000
0100
1000
0001
,
0100
0001
0010
0001
,
0100
0010
0100
0001
,
0010
0100
1000
1000
,
0001
0100
0010
0100
,
0001
0010
0100
0010
,
0001
1000
0010
0100
,
0001
0001
1000
1000
,
1100
0000
0101
0000
,
1001
1001
1001
1001
,
0001
1000
0100
0100
,
1000
0000
0001
1000
,
0010
0010
0100
0001
,
0010
0000
0001
0100
,
0010
0010
1000
0100
,
0010
0000
0100
1000
,
0010
0010
0100
0001
,
0010
0000
0100
0000
,
1000
0010
1000
1000
,
0001
0010
0001
0001
,
1000
0100
1000
1000
,
0001
0001
0001
0000
,
1000
0010
0100
0100
,
0001
0010
0100
0100
,
1000
0100
0010
0010
,
0001
0001
0001
0000
,
2000
0100
3010
0000
,
0020
0100
1030
0000
,
0002
0010
0103
0000
,
0100
0010
1000
0001
,
0100
0010
1000
0001
,
0020
0000
0000
0000
,
0130
0000
0100
0000
0000
0100
0000
0100
,
0000
0000
0000
0000
,
0010
0000
0010
0000
0000
0010
0000
0010
,
0000
0000
0000
0000
,
1000
0000
1000
0000
0000
0001
0000
0001
,
0000
0000
0100
0100
,
0010
0000
0010
0000
0000
1000
0000
1000
,
0000
0000
1000
1000
,
0001
0100
0001
0100
,
0010
1000
0010
1000
,
0001
0010
0001
0010
,
0100
1000
0100
1000
,
0001
0001
1000
1000
,
0010
0010
0100
0100
,
0001
0010
0100
0010
,
1001
0000
0000
0000
;

//---------------dance-single - ----------------
#NOTEDATA:;
#CHARTNAME:;
#STEPSTYPE:dance-single;
#DESCRIPTION:;
#CHARTSTYLE:;
#DIFFICULTY:Medium;
#METER:6;
#RADARVALUES:0.349885,0.530875,0.165017,0.069481,0.000000,255.000000,19.000000,8.000000,0.000000,0.000000,0.000000,0.000000,0.000000,0.349885,0.530875,0.165017,0.069481,0.000000,255.000000,19.000000,8.000000,0.000000,0.000000,0.000000,0.000000,0.000000;
#CREDIT:;
#NOTES:
0000
0000
0000
0000
,
0000
0000
0000
0000
,
0000
0000
0000
0000
,
0000
0000
0000
0000
,
0000
0000
0000
0000
,
1000
0000
0100
0000
1000
1000
1000
0000
,
0001
0000
0100
0000
0001
0001
0001
0000
,
0010
0000
0001
0000
0100
0100
0100
0000
,
0010
0010
0010
0000
1001
0000
0000
0000
,
1000
0000
0100
0000
1000
1000
1000
0000
,
0001
0000
0010
0000
0001
0001
0001
0000
,
1000
0000
0010
0000
0100
0100
0100
0000
,
0001
0001
0001
0000
0011
0000
0000
0000
,
0001
0000
0010
0000
0100
1000
0010
0000
,
0100
0000
0001
0000
1000
0100
1000
0000
,
0001
0000
0010
0000
0001
0100
0010
0000
,
0100
0001
0001
0000
,
1000
0000
0010
0000
1000
0100
0010
0000
,
0001
0000
0100
0000
0001
0100
0010
0000
,
1000
0000
0100
0000
0010
0100
1000
0000
,
0001
1000
1000
0000
,
1100
0000
0101
0000
,
1100
0000
0001
0100
0001
0100
0001
0100
,
0010
0000
0010
0000
0000
1000
0100
1000
,
0000
0000
0000
0001
0000
0001
0100
0000
,
0010
0000
0010
0000
0000
0100
0001
0100
,
0000
0100
0000
0010
0000
0010
1000
0000
,
0100
0000
0100
0000
0000
0010
0100
1000
,
0000
0000
0000
0001
0000
0001
0100
0000
,
0010
0000
0010
0000
0000
0100
0001
0100
,
0000
0001
0000
0001
0010
0000
0010
0000
,
0100
0000
1000
0000
0001
0001
0001
0000
,
1000
0000
0010
0000
0100
0100
0100
0000
,
0010
0000
1000
0000
0100
0100
0100
0000
,
0010
0010
0010
0000
0001
0000
0101
0000
,
0001
0000
0100
0000
0010
0010
0010
0000
,
1000
0000
0100
0000
1000
1000
1000
0000
,
0010
0000
0100
0000
0001
0001
0001
0000
,
0010
0010
0010
0000
0001
0000
1001
0000
,
2100
0010
3001
0000
0102
0010
1003
0000
,
2010
0100
3010
0000
0012
0100
0013
0000
,
2001
0100
3001
0000
1002
0100
1003
0000
,
1100
0001
0101
1000
,
1010
0001
0011
1000
,
1000
0001
0001
0001
,
1000
0001
1000
0000
0000
0001
1000
0001
,
0000
0000
0100
0010
,
0100
0010
0100
0000
0000
0010
0100
0010
,
0000
0000
0000
0000
,
1000
0100
1000
0000
0000
0001
0010
0001
,
0000
0000
0000
1000
0000
0010
1000
0010
,
0100
0000
0100
0000
0000
0001
0000
0001
,
0000
0000
1000
0100
0010
0001
0010
0100
,
1000
1100
0001
0100
,
0010
0000
0010
0000
0100
0001
0010
0100
,
1000
1000
0001
0100
,
0010
0000
0010
0000
0100
0001
0010
0100
,
1000
1000
0001
0001
,
0100
0100
0010
0010
,
0100
0000
0001
0000
0010
0000
0100
0010
,
0000
2002
0000
0000
0000
0000
0000
0000
,
0000
3003
0000
0000
0000
0000
0000
0000
;

//---------------dance-single - ----------------
#NOTEDATA:;
#CHARTNAME:;
#STEPSTYPE:dance-single;
#DESCRIPTION:;
#CHARTSTYLE:;
#DIFFICULTY:Hard;
#METER:8;
#RADARVALUES:0.518623,0.663594,0.199757,0.173702,0.112906,375.000000,23.000000,20.000000,0.000000,0.000000,0.000000,0.000000,0.000000,0.518623,0.663594,0.199757,0.173702,0.112906,375.000000,23.000000,20.000000,0.000000,0.000000,0.000000,0.000000,0.000000;
#CREDIT:;
#NOTES:
// measure 0
0000
0000
0000
0000
,  // measure 1
0000
0000
0000
0000
,  // measure 2
0000
0000
0000
0000
,  // measure 3
0000
0000
0000
0000
,  // measure 4
0000
0000
0000
0000
,  // measure 5
1000
0000
0001
0010
0100
0000
0010
0000
0001
0000
0001
0000
1000
0000
1000
0000
,  // measure 6
0010
0000
0100
0010
1000
0000
0100
0000
0010
0000
0010
0000
0100
0000
0000
0000
,  // measure 7
1000
0000
0001
0100
0010
0000
0100
0000
0010
0000
0010
0000
0100
0000
0100
0000
,  // measure 8
1000
0100
0001
0010
0100
0000
1001
0000
,  // measure 9
0001
0000
0010
0100
1000
0000
0010
0000
0100
0000
0100
0000
1000
0000
1000
0000
,  // measure 10
0100
0000
0001
0010
0100
0000
0001
0000
0100
0000
0100
0000
1000
0000
0000
0000
,  // measure 11
0001
0000
0010
0100
1000
0000
0010
0000
0100
0000
0100
0000
0001
0000
0100
0000
,  // measure 12
1000
0100
0001
0010
0100
0000
1001
0000
,  // measure 13
0001
0010
0100
1000
0010
0100
0001
0010
,  // measure 14
0100
0000
0000
0100
0010
0000
0001
0000
0100
0000
0010
0000
1000
0000
0000
0000
,  // measure 15
0001
1000
0100
0010
0100
1000
0010
0100
,  // measure 16
0001
0001
1000
1001
,  // measure 17
0001
1000
1100
0000
1000
0001
0101
0000
,  // measure 18
0001
0000
0000
0100
0010
0000
0010
0000
1000
0000
0100
0000
0010
0000
0000
0000
,  // measure 19
0100
1000
1010
0000
0100
0001
0011
0000
,  // measure 20
0100
1001
0010
1001
,  // measure 21
0102
0000
0000
1003
2100
0000
0000
3001
,  // measure 22
0011
0000
0000
0001
0100
0000
0010
0000
0100
0001
0100
0001
0010
0000
0100
1000
,  // measure 23
0010
0010
0101
0000
0001
0010
0100
1000
,  // measure 24
0001
0000
0001
0000
1000
0010
0100
0010
,  // measure 25
1000
0000
1100
0000
0100
1000
0010
0100
,  // measure 26
0001
0000
0001
0000
0010
0001
0100
0010
,  // measure 27
0100
0000
1001
0000
1000
0100
0010
0100
,  // measure 28
1000
0000
1000
0000
0010
0100
0001
0010
,  // measure 29
0100
0000
0011
0000
0001
0100
0010
0100
,  // measure 30
0001
0001
0000
1000
1000
0000
1100
0000
,  // measure 31
0001
0000
1000
0010
0100
0000
0010
0000
1000
0000
1000
0000
0001
0000
0001
0000
,  // measure 32
1000
0000
0100
0010
0100
0000
1000
0000
0001
0000
0001
0000
0100
0000
0000
0000
,  // measure 33
0010
0000
0100
0001
0010
0000
0100
0000
0001
0000
0001
0000
0100
0000
0100
0000
,  // measure 34
1000
0010
0100
0001
1000
0000
0101
0000
,  // measure 35
0001
0000
0010
0100
0010
0000
0100
0000
1000
0000
1000
0000
0001
0000
0001
0000
,  // measure 36
0100
0000
0010
0100
0001
0000
0100
0000
0010
0000
0010
0000
1000
0000
0000
0000
,  // measure 37
0001
0000
0010
0100
0010
0000
0100
0000
1000
0000
1000
0000
0100
0000
0010
0000
,  // measure 38
0001
0100
0010
1000
0001
0000
0011
0000
,  // measure 39
2000
0000
0100
0000
3020
0000
0000
0000
2030
0001
3002
0000
2003
0000
0100
0000
,  // measure 40
3002
0000
0100
0000
0023
0000
0000
0000
2030
0010
3020
0000
0032
0000
0000
0000
,  // measure 41
0203
0000
1000
0000
0302
0000
0000
0000
0023
0100
0230
0000
2300
0000
0001
0000
,  // measure 42
3001
1000
0001
1000
0010
0100
0010
0100
,  // measure 43
0001
0010
0001
0010
0100
1000
0100
1000
,  // measure 44
0002
0000
0000
0000
,  // measure 45
1003
0010
0000
0010
0000
0100
0000
0100
,  // measure 46
0000
0001
0000
0001
0000
0010
0000
0010
,  // measure 47
0100
0100
0000
1000
0000
1000
0000
0010
,  // measure 48
0000
0010
0000
0100
0000
0100
0000
0100
,  // measure 49
0001
0000
0011
0000
0001
0010
0100
1000
,  // measure 50
0010
0000
0010
0000
1000
0010
0100
0001
,  // measure 51
0010
0000
1100
0000
0001
0100
0010
0100
,  // measure 52
0001
0000
0000
0001
1000
0000
1000
0000
0100
0010
0100
0010
0100
1000
0100
1000
,  // measure 53
0001
0000
0001
0000
1000
0010
0100
0010
,  // measure 54
1000
0000
1000
0000
0010
0100
0001
0010
,  // measure 55
0100
0000
0100
0000
0010
0001
0100
0010
,  // measure 56
1000
0000
1000
0000
0010
0100
0001
0010
,  // measure 57
0100
1000
0100
0001
0000
0001
0100
1000
,  // measure 58
0010
0100
0001
0100
0000
0100
0010
0100
,  // measure 59
0001
0010
0100
1000
0000
0100
0010
1001
,  // measure 60
0000
0202
0000
0000
0000
0000
0000
0000
,  // measure 61
0000
0303
0000
0000
0000
0000
0000
0000
;
