#TITLE:Talking Body;
#SUBTITLE:;
#ARTIST:Tove Lo;
#TITLETRANSLIT:;
#SUBTITLETRANSLIT:;
#ARTISTTRANSLIT:;
#GENRE:;
#CREDIT:;
#BANNER:;
#BACKGROUND:;
#LYRICSPATH:;
#CDTITLE:;
#MUSIC:393292-talking-body-tove-lo.mp3;
#OFFSET:-0.335212;
#SAMPLESTART:39.960003;
#SAMPLELENGTH:15.000000;
#SELECTABLE:YES;
#BPMS:0.000000=120.000000
;
#STOPS:
;
#BGCHANGES:0.000=[Round 1 Singles] - Talking Body.avi=1.000=0=0=1=====#FF00FF,
99999=-nosongbg-=1.000=0=0=0 // don't automatically add -songbackground-
;
#KEYSOUNDS:;
#ATTACKS:;

//---------------dance-single - ----------------
#NOTES:
     dance-single:
     :
     Easy:
     4:
     0.213938,0.219019,0.009360,0.196556,0.000000,138.000000,1.000000,21.000000,0.000000,0.000000,0.000000,0.213938,0.219019,0.009360,0.196556,0.000000,138.000000,1.000000,21.000000,0.000000,0.000000,0.000000:
0000
0000
0000
0000
,
0000
0000
0000
0000
,
0000
0000
0000
0000
,
0000
0000
0000
0000
,
0000
1000
0001
0001
,
0001
1000
0010
0010
,
0010
0100
0001
0001
,
0001
0100
0010
0010
,
0010
1000
0001
0001
,
0001
1000
0100
0100
,
0100
0010
0001
0001
,
0001
0100
0010
0010
,
0010
0200
0000
0000
,
0000
0302
0000
0000
,
0000
2003
0000
0000
,
3000
0100
0000
0000
,
0000
0020
0000
0000
,
0000
0032
0000
0000
,
0000
2000
0003
0000
,
0000
3001
0000
0000
,
0000
1000
0001
1000
,
0010
0010
0100
0001
,
0100
0010
1000
0001
,
1000
1000
0100
0010
,
0001
1000
0100
0020
,
0031
0000
0001
0200
,
0310
0200
0300
0002
,
0003
2000
3000
0000
,
0000
0100
0010
0001
,
1000
1000
0010
1000
,
0100
1000
0001
0001
,
0100
0100
0010
1000
,
0001
1000
0100
0020
,
0031
0000
0001
0200
,
0310
0020
0030
2000
,
3000
0002
0003
0000
,
0000
1000
0001
0100
,
0010
0000
0010
0000
,
0010
1000
0001
1000
,
0100
0010
0000
0010
,
0000
0001
0001
0002
,
1003
0000
1000
2000
,
3001
0200
0300
0002
,
0003
2000
3000
0000
,
0010
0100
0010
0000
,
0010
0100
0010
0000
,
0010
0100
0001
0000
,
0001
1000
1000
0000
,
1000
0001
0001
0000
,
0001
0100
0100
0000
,
0100
0010
0010
0000
,
1000
0000
0001
0000
,
1001
0000
0000
0000
;

//---------------dance-single - ----------------
#NOTES:
     dance-single:
     :
     Medium:
     6:
     0.339627,0.340696,0.056159,0.318233,0.000000,214.000000,6.000000,34.000000,0.000000,0.000000,0.000000,0.339627,0.340696,0.056159,0.318233,0.000000,214.000000,6.000000,34.000000,0.000000,0.000000,0.000000:
// measure 0
0000
0000
0000
0000
,  // measure 1
0000
0000
0000
0000
,  // measure 2
0000
0000
0000
0000
,  // measure 3
0000
0000
0000
0000
,  // measure 4
0000
0001
0001
1000
,  // measure 5
1000
0010
0010
0000
0100
0000
0001
0000
,  // measure 6
1000
0001
0001
0000
0100
0000
0010
0000
,  // measure 7
1000
0100
0100
0000
0010
0000
0001
0000
,  // measure 8
1000
0001
0001
0000
0001
0000
0100
0000
,  // measure 9
0010
1000
1000
0000
0100
0000
0010
0000
,  // measure 10
0001
1000
1000
0000
1000
0000
0100
0000
,  // measure 11
0001
0100
0100
0000
1000
0000
0010
0000
,  // measure 12
0001
0010
0020
0000
0001
0000
1000
0000
,  // measure 13
0001
2030
0100
0001
,  // measure 14
0100
3020
0000
0001
,  // measure 15
1030
0010
1000
0001
,  // measure 16
1000
0002
0100
1000
,  // measure 17
0100
0023
0100
1000
,  // measure 18
0001
0230
1000
0010
,  // measure 19
0001
2000
0000
0000
,  // measure 20
3300
0000
0001
0001
1000
0000
2020
0000
,  // measure 21
3030
0000
0000
0100
0100
0001
0100
0010
,  // measure 22
1000
0001
1000
0100
0010
0000
0022
0000
,  // measure 23
0033
0000
0000
0001
0001
1000
0001
0100
,  // measure 24
0010
0000
1000
0000
0100
0010
0001
0010
,  // measure 25
0200
0000
1300
0000
0001
0100
0010
1000
,  // measure 26
0002
0000
2003
0000
3001
0002
0000
0013
,  // measure 27
0020
0000
0030
0000
0000
0000
0000
0100
,  // measure 28
0100
1000
0010
0100
0001
0000
0202
0000
,  // measure 29
0303
0000
0000
0001
0100
0010
1000
1000
,  // measure 30
0001
1000
0100
0010
0001
0000
2002
0000
,  // measure 31
3003
0000
0000
1000
1000
0001
0100
0010
,  // measure 32
1000
0000
0001
0000
1000
0100
0010
0001
,  // measure 33
2000
0000
3010
0000
0100
0001
0100
0010
,  // measure 34
0200
0000
0302
0000
1003
2000
0000
3001
,  // measure 35
0002
0000
0003
0000
0000
0000
0000
0100
,  // measure 36
0100
1000
0010
0100
0001
0000
0202
0000
,  // measure 37
0303
0000
0001
0000
0100
0000
0000
0010
,  // measure 38
0010
0000
1000
0100
0010
0000
0022
0000
,  // measure 39
0033
0000
0000
0000
0001
0000
0000
1000
,  // measure 40
1000
0000
0010
0000
1000
0100
0010
0001
,  // measure 41
2000
0000
3001
0000
0100
0001
0100
0010
,  // measure 42
0200
0000
0302
0000
1003
2000
0000
3100
,  // measure 43
0200
0300
0000
0000
,  // measure 44
0000
0010
0001
0000
,  // measure 45
1000
0001
0001
0000
0100
0000
0000
0010
,  // measure 46
0000
0010
1000
0000
0100
0000
0000
0000
,  // measure 47
1000
0100
0100
0000
1000
0000
0000
0100
,  // measure 48
0000
0100
0010
0000
0001
0000
0000
0000
,  // measure 49
0001
0100
0100
0000
0001
0000
0000
0001
,  // measure 50
0000
0001
0001
0000
0010
0000
0000
0000
,  // measure 51
0100
1000
1000
0000
0100
0000
0000
0010
,  // measure 52
0100
0000
0000
0000
;

//---------------dance-single - ----------------
#NOTES:
     dance-single:
     :
     Hard:
     8:
     0.433225,0.438038,0.084238,0.233995,0.000000,290.000000,9.000000,25.000000,0.000000,0.000000,0.000000,0.433225,0.438038,0.084238,0.233995,0.000000,290.000000,9.000000,25.000000,0.000000,0.000000,0.000000:
0000
0000
0000
0000
,
0000
0000
0000
0000
,
0000
0000
0000
0000
,
0000
0000
0000
0000
,
0000
0000
1000
0000
1000
0001
0100
0010
,
1000
0001
0001
0000
0010
0100
0010
0001
,
0010
0100
0100
0000
1000
0001
1000
0010
,
1000
0100
0100
0000
0100
0010
0000
0010
,
0001
1000
1000
0000
0010
0100
0001
1000
,
0010
0100
0100
0000
0001
1000
0010
1000
,
0100
0010
0010
0000
0001
1000
0001
0010
,
0100
0010
0010
0000
0001
1000
0000
1000
,
0001
0010
0020
0000
0100
0000
0001
0000
,
0130
1000
2000
0000
0001
0000
0100
0000
,
3001
0100
0200
0000
0010
0000
1000
0000
,
0310
0000
0001
0000
1000
0001
0000
0001
,
0100
0010
0200
0000
0010
0000
1000
0000
,
0310
0010
2000
0000
0001
0000
0100
0000
,
3001
0001
0020
0000
0001
0000
0100
0000
,
1030
0000
1001
0000
0000
0000
0000
0001
,
0001
1000
0100
0010
0001
0000
1001
0000
,
0002
0100
0103
0001
0100
0010
1000
0100
,
1000
0001
0001
0010
0100
0000
1100
0000
,
0200
0010
0310
0001
0010
0001
1000
0001
,
0200
0010
0310
1000
0100
0010
0001
0100
,
2000
0100
3100
0001
0010
0100
1000
0010
,
0002
0010
0023
0000
1030
0001
0000
0001
,
0020
0100
0130
0000
1001
0000
0010
0100
,
0001
1000
1000
0100
0010
0000
0101
0000
,
2000
0001
3001
0100
0010
1000
0100
1000
,
0001
1000
1000
0001
0100
0000
1010
0000
,
0020
0100
0130
0010
0100
0001
0100
0010
,
1000
0001
0001
0010
0100
1000
0001
0100
,
2000
0100
3100
0001
0010
0100
1000
0100
,
0002
0100
0203
0000
1300
0001
0000
0001
,
2000
0001
3001
0100
1000
0100
0001
0010
,
1000
0010
0001
0001
1000
0000
1010
0000
,
0200
0001
0301
0000
0010
0000
0010
0100
,
1000
0001
0001
0100
1000
0000
1100
0000
,
0200
0001
0301
0000
1000
0000
0100
1000
,
0001
0100
0100
0001
1000
0010
1000
0100
,
0002
0100
0103
1000
0001
0100
0001
0010
,
2000
0010
3020
0000
0031
0100
0000
0100
,
0020
1000
1030
0000
0001
0000
1000
0001
,
1000
0100
0100
0000
0010
0000
0000
0000
,
0001
1000
1000
0000
0001
0000
0000
0100
,
0000
0010
0010
0000
1000
0000
0000
0000
,
0001
0010
0010
0000
0010
0000
0000
0100
,
0000
1000
1000
0000
1000
0000
0000
0000
,
0001
0010
0010
0000
0001
0000
0000
1000
,
0000
0001
0001
0000
0100
0000
0000
0000
,
0010
1000
1000
0000
0100
0000
0000
0100
,
1001
0000
0000
0000
;
