#TITLE:Saltinka;
#SUBTITLE:;
#ARTIST:Rudi Bucar en Figoni;
#TITLETRANSLIT:;
#SUBTITLETRANSLIT:;
#ARTISTTRANSLIT:;
#GENRE:;
#CREDIT:;
#BANNER:Saltinka.png;
#BACKGROUND:Saltinka-bg.png;
#LYRICSPATH:;
#CDTITLE:;
#MUSIC:Saltinka.ogg;
#OFFSET:-0.060000;
#SAMPLESTART:79.460068;
#SAMPLELENGTH:14.999998;
#SELECTABLE:YES;
#BPMS:0.000000=160.000000
,144.000000=80.000000
,177.000000=160.000000
,280.000000=145.000137
;
#STOPS:177.000000=0.375000
;
#BGCHANGES:;
#KEYSOUNDS:;
#ATTACKS:;

//---------------dance-single - ----------------
#NOTES:
     dance-single:
     :
     Beginner:
     2:
     0.119342,0.125309,0.022887,0.011444,0.000000,140.000000,4.000000,2.000000,0.000000,0.000000,0.000000,0.119342,0.125309,0.022887,0.011444,0.000000,140.000000,4.000000,2.000000,0.000000,0.000000,0.000000:
0000
0000
0000
0000
,
0000
0000
0000
0000
,
0000
0000
0000
0000
,
0000
0000
0000
0000
,
0100
0000
0010
0000
,
1000
0000
0001
0000
,
1000
0000
0010
0000
,
0100
0000
0001
0000
,
1000
0000
1000
0000
,
0001
0000
0001
0000
,
0100
0000
0100
0000
,
0010
0000
0010
0000
,
1000
0000
1000
0000
,
0001
0000
0001
0000
,
0100
0000
0100
0000
,
0010
0000
0010
0000
,
1000
0000
0001
0000
,
1000
0000
0010
0000
,
1000
0000
0100
0000
,
0010
0000
0001
0000
,
0010
0000
0001
0000
,
0100
0000
0010
0000
,
1000
0000
0001
0000
,
1000
1000
1000
0000
,
0000
1001
0000
0000
,
0100
0000
0000
0000
,
0010
0000
0000
0000
,
1000
0000
0000
0000
,
0001
0001
0001
0001
,
0001
0000
1000
0000
,
1001
0000
0100
0000
,
0010
0000
1000
0000
,
0010
0010
0010
0010
,
0010
0000
0100
0000
,
0001
0000
1000
0000
,
0100
0100
0100
0000
,
0010
0000
1001
0000
,
0100
0000
0010
0000
,
1000
0001
0100
0010
,
0000
0010
0000
1000
,
0000
0001
0000
0100
,
0010
0000
0000
0000
,
0000
0000
0000
0000
,
0000
0000
0000
0000
,
0000
0000
1000
1000
,
1000
1000
1000
0000
,
0001
0000
0100
0000
,
0010
0000
1000
0000
,
0001
0000
0100
0100
,
0100
0100
0100
0000
,
0001
0000
0010
0000
,
0100
0000
1000
0000
,
0010
0000
1000
1000
,
1000
1000
1000
0000
,
0001
0000
0100
0000
,
0001
0000
0010
0000
,
0100
0000
0010
0010
,
0010
0010
0010
0000
,
0100
0000
1000
0000
,
0001
0000
0100
0000
,
0010
0000
0100
0000
,
0001
0000
1000
0000
,
0100
0000
1000
0000
,
0001
0000
0100
0000
,
0010
0000
1000
0000
,
0001
0000
0100
0000
,
0001
0000
0010
0000
,
0100
0000
1000
0000
,
0001
0000
0100
0000
,
0010
0000
1000
0000
,
0001
0000
2002
0000
,
0000
0000
0000
0000
,
0000
0000
0000
0000
,
3003
0000
0000
0000
;

//---------------dance-single - ----------------
#NOTES:
     dance-single:
     :
     Easy:
     4:
     0.232962,0.271503,0.160212,0.108716,0.000000,238.000000,28.000000,19.000000,0.000000,0.000000,0.000000,0.232962,0.271503,0.160212,0.108716,0.000000,238.000000,28.000000,19.000000,0.000000,0.000000,0.000000:
// measure 0
0000
0000
0000
0000
,  // measure 1
0000
0000
0000
0000
,  // measure 2
0000
0000
0000
0000
,  // measure 3
0000
0000
0000
0000
,  // measure 4
1000
0001
0100
0001
,  // measure 5
0010
0100
1000
0001
,  // measure 6
0100
0010
1000
0001
,  // measure 7
0100
0100
0100
0010
,  // measure 8
1000
0100
1000
0001
,  // measure 9
0100
0001
0010
0001
,  // measure 10
0100
0010
1000
0100
,  // measure 11
1000
0001
0100
0001
,  // measure 12
1000
0100
1000
0010
,  // measure 13
1000
0001
0100
0001
,  // measure 14
0010
0100
1000
0010
,  // measure 15
0100
0010
1000
0001
,  // measure 16
0100
0001
1000
0100
,  // measure 17
1000
0010
0100
0001
,  // measure 18
1000
0100
1000
0010
,  // measure 19
0100
0001
1000
0001
,  // measure 20
0010
0000
0100
0000
0010
0000
0001
0001
,  // measure 21
0001
0010
0100
1000
,  // measure 22
0010
0100
0001
1000
,  // measure 23
0100
0100
0200
0300
,  // measure 24
1000
0001
0100
0010
,  // measure 25
1000
0100
0010
0001
,  // measure 26
1000
0010
1000
0100
,  // measure 27
1000
0010
1000
0001
,  // measure 28
0101
0101
1010
1010
,  // measure 29
0010
1000
0001
0000
,  // measure 30
0100
0001
1000
0100
,  // measure 31
0010
0001
0100
0000
,  // measure 32
0110
0110
1010
1010
,  // measure 33
1000
0010
0100
0000
,  // measure 34
0001
1000
0100
0010
,  // measure 35
0001
1000
0001
0100
,  // measure 36
0110
0000
1001
0000
,  // measure 37
0100
0000
1000
0000
0100
0000
0010
0001
,  // measure 38
0100
0010
1000
0100
0010
0001
2000
0000
,  // measure 39
0000
3002
0000
0203
,  // measure 40
0000
0320
0000
2030
,  // measure 41
0002
0000
0000
0000
,  // measure 42
0000
0000
0000
0000
,  // measure 43
0000
0000
0000
0000
,  // measure 44
0000
3003
1100
1100
,  // measure 45
0011
0011
0001
0010
,  // measure 46
0100
0000
1000
0100
,  // measure 47
1000
0010
0100
0001
,  // measure 48
0010
0000
0011
0110
,  // measure 49
0110
1100
1000
0010
,  // measure 50
0100
0000
0001
1000
,  // measure 51
0100
0010
0001
1000
,  // measure 52
0010
0000
0110
1010
,  // measure 53
1001
0101
0001
0010
,  // measure 54
0100
0000
1000
0100
,  // measure 55
1000
0010
0100
0001
,  // measure 56
1000
0000
1100
1100
,  // measure 57
0011
0011
0010
0001
,  // measure 58
1000
0000
0100
1000
,  // measure 59
0010
0100
0001
1000
,  // measure 60
0001
1000
0100
1000
,  // measure 61
0010
0100
0001
0001
,  // measure 62
1000
1000
0100
0010
,  // measure 63
0001
1000
0020
0000
,  // measure 64
0230
0000
0301
1000
,  // measure 65
0100
0010
0001
1000
,  // measure 66
0010
0100
0010
1000
,  // measure 67
0100
0010
0002
0023
,  // measure 68
0230
2300
3020
0230
,  // measure 69
0302
2003
3100
0000
,  // measure 70
0110
0000
2002
0000
,  // measure 71
0000
0000
0000
0000
,  // measure 72
0000
0000
0000
0000
,  // measure 73
3003
0000
0000
0000
;

//---------------dance-single - ----------------
#NOTES:
     dance-single:
     :
     Medium:
     6:
     0.304894,0.438581,0.257484,0.131603,0.005722,305.000000,45.000000,23.000000,0.000000,0.000000,0.000000,0.304894,0.438581,0.257484,0.131603,0.005722,305.000000,45.000000,23.000000,0.000000,0.000000,0.000000:
// measure 0
0000
0000
0000
0000
,  // measure 1
0000
0000
0000
0000
,  // measure 2
0000
0000
0000
0000
,  // measure 3
0000
0000
0000
0000
,  // measure 4
1000
0000
0000
0001
0100
0001
1000
0000
,  // measure 5
0100
0000
1000
0100
0010
0000
0001
0000
,  // measure 6
0100
0000
0000
0010
0100
0010
1000
0000
,  // measure 7
0001
1000
0001
0010
0100
1000
0100
0010
,  // measure 8
0001
0010
0000
0100
0000
0010
0000
0001
,  // measure 9
0000
1000
0000
0100
0000
1000
0000
0010
,  // measure 10
0100
0001
0000
1000
0000
0100
0000
0010
,  // measure 11
0000
0100
0000
1000
0000
0001
0000
0100
,  // measure 12
0001
1000
0000
0100
0000
0010
0000
0100
,  // measure 13
0000
1000
0000
0010
0000
0100
0000
0010
,  // measure 14
1000
0001
0000
0100
0000
0001
0000
1000
,  // measure 15
0000
0100
0000
0010
0000
0100
0000
1000
,  // measure 16
0100
0010
0000
0001
0000
0010
0001
0010
,  // measure 17
0000
0100
0000
1000
0000
0010
1000
0010
,  // measure 18
0000
0100
0000
0001
0000
1000
0100
0010
,  // measure 19
0000
0001
0000
0100
0000
0010
1000
0001
,  // measure 20
0100
0000
0010
0000
1000
0000
0010
1000
,  // measure 21
0001
0000
0100
0000
0001
0000
0010
0100
,  // measure 22
1000
0000
0100
0010
0001
0000
1000
0001
,  // measure 23
0100
0010
1000
0100
0010
0000
0000
0000
,  // measure 24
0001
2001
0100
0010
,  // measure 25
3002
0100
0010
1000
,  // measure 26
0023
0100
0001
1000
,  // measure 27
0032
1000
0100
0013
,  // measure 28
1100
0011
0101
1010
,  // measure 29
0010
1000
0001
0100
0001
0000
1000
0000
,  // measure 30
0000
0100
0000
1000
0100
0000
0000
0010
,  // measure 31
0001
1001
0110
0000
,  // measure 32
1010
0110
1010
0101
,  // measure 33
0010
0001
1000
0100
0010
0000
0001
0000
,  // measure 34
0000
1000
0000
0001
0100
0000
0000
0001
,  // measure 35
1000
0000
0000
0100
0000
0000
0010
0000
0000
0100
0000
0000
1000
0000
0000
0000
0001
0000
0000
0000
0100
0000
0000
0000
,  // measure 36
0201
0000
0310
0000
0110
1000
0100
0010
,  // measure 37
0002
0000
2003
3000
0110
1000
0001
0100
,  // measure 38
0001
1000
2100
3001
0101
0001
2100
0000
,  // measure 39
3010
0000
1001
0100
0001
1000
0210
0000
,  // measure 40
0320
0030
1001
1000
0100
1000
0010
0100
,  // measure 41
1002
0000
0000
0000
,  // measure 42
0000
0000
0000
0000
,  // measure 43
0000
0000
0000
0000
,  // measure 44
0000
0003
1001
0110
,  // measure 45
1010
0000
1100
0000
0010
0100
1000
0001
,  // measure 46
0100
0000
0001
0000
0000
0100
0000
0001
,  // measure 47
0100
0000
0000
0010
1000
0000
1010
0000
,  // measure 48
0101
0000
0101
0011
,  // measure 49
1100
0000
1010
0000
0010
1000
0001
0100
,  // measure 50
0001
0000
0010
0000
0000
0100
0000
1000
,  // measure 51
0100
0000
0000
0010
0001
1000
0001
0100
,  // measure 52
0010
1000
1010
0101
,  // measure 53
0011
0000
1100
0000
0100
0010
0001
1000
,  // measure 54
0001
0000
0100
0000
0000
0010
0000
1000
,  // measure 55
0010
0000
0000
0100
0001
0000
1001
0000
,  // measure 56
0110
0000
0110
1001
,  // measure 57
0101
0000
0110
0000
0010
1000
0100
0010
,  // measure 58
0100
0000
1000
0000
0000
0001
0000
0100
,  // measure 59
0001
0000
0000
1000
0001
0010
0100
1000
,  // measure 60
0001
0000
0101
0000
0001
0000
0000
1000
,  // measure 61
0100
0010
0100
0000
1000
0000
0010
0100
,  // measure 62
0001
0000
1000
0000
0001
0000
0000
0010
,  // measure 63
0100
1000
0100
0000
0020
0000
0000
0000
,  // measure 64
0032
0000
0000
0000
0103
0000
0000
0010
,  // measure 65
1000
0010
0100
0000
0001
0000
0100
0001
,  // measure 66
0010
0000
0100
0000
1000
0000
0000
0100
,  // measure 67
1000
0010
0100
0000
0002
0000
0023
0000
,  // measure 68
0230
2300
3020
0230
,  // measure 69
0302
1003
1100
0000
,  // measure 70
0011
0000
2020
0000
,  // measure 71
0000
0000
0000
0000
,  // measure 72
0000
0000
0000
0000
,  // measure 73
3030
0000
0000
0000
;

//---------------dance-single - ----------------
#NOTES:
     dance-single:
     :
     Hard:
     9:
     0.558291,0.626545,0.246040,0.549300,0.271789,544.000000,43.000000,96.000000,0.000000,0.000000,0.000000,0.558291,0.626545,0.246040,0.549300,0.271789,544.000000,43.000000,96.000000,0.000000,0.000000,0.000000:
// measure 0
0000
0000
0000
0000
,  // measure 1
0000
0000
0000
0000
,  // measure 2
0000
0000
0000
0000
,  // measure 3
0000
0000
0000
0000
,  // measure 4
1001
0000
0000
0000
0000
0000
0000
0000
0000
0100
0000
0000
1000
0000
0000
0100
0010
0001
1000
0000
0000
0000
0000
0000
,  // measure 5
0001
0000
0000
0100
0001
1000
0001
0000
0000
1000
0000
0000
0010
0000
0000
0000
0000
0000
1100
0000
0000
0000
0000
0000
,  // measure 6
0011
0000
0000
0000
0000
0000
0000
0000
0000
0100
0000
0000
0001
0000
0000
1000
0001
0010
0001
0000
0000
0000
0000
0000
,  // measure 7
1000
0000
0000
0100
0010
0100
1000
0000
0000
0001
0000
0000
0100
0000
0000
0001
0000
0000
1000
0000
0000
0001
0000
0000
,  // measure 8
0010
0100
1000
0100
0010
0001
1000
0001
,  // measure 9
0100
0001
0010
0001
1000
0001
0010
0100
,  // measure 10
1000
0010
0100
0010
1000
0001
0100
0001
,  // measure 11
0010
0100
1000
0100
0010
0100
1000
0010
,  // measure 12
0100
0001
1000
0001
0010
0100
1000
0100
,  // measure 13
0010
0100
1000
0010
0100
0010
1000
0001
,  // measure 14
0100
0001
0010
0100
1000
0100
0010
0001
,  // measure 15
0100
0001
0010
0001
0100
0010
1000
0010
,  // measure 16
0100
0000
0000
0010
0000
0000
1000
0000
0000
0001
0000
0000
0100
0000
0000
0001
1000
0001
0010
0000
0000
0100
0000
0000
,  // measure 17
1000
0000
0000
0100
0000
0000
0010
0000
0000
0001
0000
0000
1000
0000
0000
0001
0100
0001
1000
0000
0000
0100
0000
0000
,  // measure 18
0010
0000
0000
0100
0000
0000
1000
0000
0000
0010
0000
0000
0100
0000
0000
0010
1000
0010
0100
0000
0000
0001
0000
0000
,  // measure 19
1000
0000
0000
0001
0000
0000
0010
0000
0000
0100
0000
0000
1000
0000
0000
0100
0010
0100
1000
0000
0000
0001
0000
0000
,  // measure 20
0100
0001
1000
0001
0010
0100
1000
0010
,  // measure 21
0100
0001
1000
0001
0010
0100
1000
0100
,  // measure 22
0010
0001
1000
0001
0100
0001
1000
0010
,  // measure 23
0100
0010
1000
0001
0100
0001
0010
0001
1000
0000
0100
0000
0010
0000
0100
0000
,  // measure 24
1000
1002
0203
0320
,  // measure 25
2030
3200
0320
0032
,  // measure 26
2003
3100
0020
0031
0200
0310
2000
3100
,  // measure 27
0020
0031
0200
0310
2000
3100
0020
0031
,  // measure 28
2002
3003
0220
0330
2020
3030
2200
3300
,  // measure 29
0010
0000
0001
0000
1000
0000
0001
0000
0100
0001
0100
0001
1000
0010
0100
0001
,  // measure 30
1000
0000
0100
0000
0010
0000
0001
0000
0100
0000
0001
0010
0001
0000
1000
0000
,  // measure 31
0100
0000
0010
0000
0001
0000
1000
0000
0010
0000
0100
0010
1000
0000
0001
0000
,  // measure 32
0202
0303
2020
3030
0202
0303
0220
0330
,  // measure 33
1000
0100
0010
0001
1001
0001
0100
0001
,  // measure 34
1000
0000
0001
0010
0100
0000
1000
0000
0100
0000
0010
0000
0001
0000
1000
0000
,  // measure 35
0001
0000
0000
0000
0000
0000
0100
0000
0000
0000
0000
0000
0010
0000
0000
0000
0000
0000
1000
0000
0000
0010
0000
0000
0100
0000
0000
0000
0010
0000
0000
0000
1000
0000
0000
0000
0001
0000
0000
0000
0100
0000
0000
0000
0001
0000
0000
0000
,  // measure 36
2000
0000
0000
0000
3100
0020
0000
0030
0012
0000
2003
0000
3020
0000
0130
0000
,  // measure 37
2002
0000
0000
0000
0000
0000
0000
0000
0000
0000
0000
0000
0000
0000
0000
0000
0000
0000
0000
0000
0000
0000
0000
0000
3000
0000
0000
0000
0000
0000
0000
0000
0000
0000
0000
0000
0000
0000
0000
0000
0000
0000
0000
0000
0000
0000
0000
0000
0023
0000
0000
0000
0000
0000
0000
0000
0100
0000
0000
0000
0000
0000
0000
0000
0000
0000
0000
0000
0000
0000
0000
0000
0000
0000
0000
0000
0000
0000
0000
0000
0000
0000
0000
0000
0030
0000
0000
0000
0000
0000
0000
0000
0000
0000
0000
0000
1200
0000
0000
0000
0000
0000
0000
0000
0000
0000
0000
0000
0000
0000
0000
0000
0000
0000
1300
0000
0000
0000
0000
0000
0020
0000
0000
0000
0000
0000
0000
0000
0000
0000
0000
0000
0000
0000
0000
0000
0000
0000
0000
0000
0000
0000
0000
0000
0230
0000
0000
0000
0000
0000
0000
0000
0000
0000
0000
0000
0000
0000
0000
0000
0000
0000
0000
0000
0000
0000
0000
0000
0302
0000
0000
0000
0000
0000
0000
0000
0000
0000
0000
0000
0000
0000
0000
0000
0000
0000
0000
0000
0000
0000
0000
0000
,  // measure 38
2003
0000
0000
0000
0000
0000
3200
0000
0000
0000
0000
0000
0320
0000
0000
0000
0000
0000
0032
0000
0000
0003
0000
0000
1010
0000
0000
0000
0001
0000
0100
0000
0000
0000
0000
0000
2002
0000
0000
0000
0000
0000
0003
0000
0000
0000
0000
0000
,  // measure 39
3200
0300
0012
2003
3020
0130
2020
0030
,  // measure 40
0002
0000
3003
0000
0102
0000
0023
0000
0230
0000
1300
0000
1010
1000
0100
0010
,  // measure 41
2002
0000
0000
0000
,  // measure 42
0000
0000
0000
0000
,  // measure 43
0000
0000
0000
0000
,  // measure 44
0000
0000
3003
0000
2002
3003
0202
0303
,  // measure 45
0220
0330
2200
3300
0010
0001
1000
0001
,  // measure 46
0100
0010
1000
0001
0100
0001
1000
0001
0010
0000
0100
0000
1000
0000
0001
0000
,  // measure 47
0010
0000
0001
0100
0001
0000
1000
0000
0100
0000
0010
0000
0100
0000
1000
0000
,  // measure 48
0010
0000
0100
0010
1000
0000
0010
0000
2020
0000
3030
0000
0202
0000
0303
0000
,  // measure 49
0022
0033
2200
3300
0010
0100
1000
0001
,  // measure 50
0101
0000
0001
0000
1000
0000
0100
0000
0010
0000
0100
1000
0100
0000
0010
0000
,  // measure 51
0001
0000
1000
0000
0001
0000
0100
0000
0010
0000
1000
0010
0100
0000
0010
0000
,  // measure 52
1000
0010
0100
0001
0022
0033
2200
3300
,  // measure 53
0220
0330
0022
0033
0100
0001
1000
0010
,  // measure 54
0100
0010
1000
0001
0100
0001
0010
0100
1000
0000
0100
0000
0010
0000
0001
0000
,  // measure 55
0100
0000
0001
1000
0001
0000
0010
0000
0100
0000
1000
0000
0010
0000
0100
0000
,  // measure 56
0010
0000
1000
0001
1000
0000
0100
0000
0022
0000
0033
0000
0220
0000
0330
0000
,  // measure 57
2020
3030
0202
0303
1000
0001
0010
0100
,  // measure 58
1100
0010
0001
1000
0001
0010
0100
1000
,  // measure 59
0100
0000
0010
0001
1000
0000
0001
0000
0100
0000
0010
0000
1000
0000
0010
0000
,  // measure 60
0100
0000
1001
0000
0010
0100
0010
0001
,  // measure 61
1000
0000
0000
0001
0010
0100
1000
0000
0000
0100
0000
0000
0010
0000
0000
0001
0100
0001
0100
0000
0000
0010
0000
0000
,  // measure 62
1000
0100
0010
0001
0100
0001
1000
0001
,  // measure 63
0010
0000
0000
0000
0000
0000
0100
0000
1000
0000
0100
0000
0010
0000
0000
0000
0000
0000
0001
0000
0000
0000
0000
0000
1000
0000
0000
0001
0000
0000
1000
0000
0000
0001
0000
0000
0100
0000
0000
0001
0000
0000
0100
0000
0000
0001
0000
0000
,  // measure 64
0010
0100
0010
0100
1000
0100
1000
0001
0010
0000
0001
0000
1000
0000
0001
0000
,  // measure 65
0100
0000
0000
0010
1000
0001
0100
0000
0000
0001
0000
0000
1000
0000
0000
0100
0010
0100
1000
0000
0000
0001
0000
0000
,  // measure 66
0100
0001
1000
0100
0010
0100
1000
0001
,  // measure 67
0100
0000
0000
0000
0000
0000
0001
0000
0010
0000
0001
0000
1000
0000
0000
0000
0000
0000
0100
0000
0000
0000
0000
0000
0010
0000
0000
0001
0000
0000
0010
0000
0000
0001
0000
0000
0010
0000
0000
0100
0000
0000
0010
0000
0000
0100
0000
0000
,  // measure 68
1000
0100
1000
0100
0010
0001
0010
0001
0100
0001
0100
0001
1000
0010
1000
0010
,  // measure 69
0100
0000
0000
0001
0000
0000
0100
0000
0000
0001
0000
0000
1000
0000
0000
0001
0000
0000
1000
0000
0000
0100
0000
0000
0010
0000
0000
0000
0001
0000
0000
0000
0100
0000
0000
0000
0001
0000
0000
0000
1000
0000
0000
0000
0001
0000
0000
0000
,  // measure 70
0020
0000
0100
0000
0130
0000
2002
0000
0000
0000
0000
0000
,  // measure 71
0000
0000
0000
0000
,  // measure 72
0000
0000
0000
0000
,  // measure 73
3003
0000
0000
0000
;
