#VERSION:0.82;
#TITLE:ファントム・バイブレーション;
#SUBTITLE:;
#ARTIST:キュウソ・ネコカミ;
#TITLETRANSLIT:Phantom Vibration;
#SUBTITLETRANSLIT:;
#ARTISTTRANSLIT:Kyuso Nekokami;
#GENRE:;
#ORIGIN:;
#CREDIT:;
#BANNER:[Round 1 Singles] - Phantom Vibration.png;
#BACKGROUND:[Round 1 Singles] - Phantom Vibration-bg.png;
#PREVIEWVID:;
#JACKET:[Round 1 Singles] - Phantom Vibration-jacket.png;
#CDIMAGE:;
#DISCIMAGE:;
#LYRICSPATH:[Round 1 Singles] - Phantom Vibration.lrc;
#CDTITLE:cdtitle.png;
#MUSIC:[Round 1 Singles] - Phantom Vibration.ogg;
#OFFSET:0.000000;
#SAMPLESTART:66.220001;
#SAMPLELENGTH:10.000000;
#SELECTABLE:YES;
#DISPLAYBPM:192.000000;
#BPMS:0.000=192.000,
116.000=194.000,
132.000=190.041,
148.000=192.100,
340.000=191.000;
#STOPS:;
#DELAYS:;
#WARPS:;
#TIMESIGNATURES:0.000=4=4;
#TICKCOUNTS:0.000=4;
#COMBOS:0.000=1;
#SPEEDS:0.000=1.000=0.000=0;
#SCROLLS:0.000=1.000;
#FAKES:;
#LABELS:0.000=Song Start;
#BGCHANGES:0.000=[Round 1 Singles] - Phantom Vibration-bg.png=1.000=0=0=1=====,
2.250=[Round 1 Singles] - Phantom Vibration.avi=1.000=0=0=0=StretchNoLoop==CrossFade_Faster==,
379.000=[Round 1 Singles] - Phantom Vibration-bg.png=1.000=0=0=1=====,
99999=-nosongbg-=1.000=0=0=0 // don't automatically add -songbackground-
;
#KEYSOUNDS:;
#ATTACKS:
;

//---------------dance-single - ----------------
#NOTEDATA:;
#CHARTNAME:vincentw-BEG;
#STEPSTYPE:dance-single;
#DESCRIPTION:;
#CHARTSTYLE:;
#DIFFICULTY:Beginner;
#METER:2;
#RADARVALUES:0.157014,0.156601,0.016528,0.165278,0.000000,111.000000,2.000000,20.000000,0.000000,0.000000,0.000000,0.000000,0.000000,0.157014,0.156601,0.016528,0.165278,0.000000,111.000000,2.000000,20.000000,0.000000,0.000000,0.000000,0.000000,0.000000;
#CREDIT:vincentw;
#OFFSET:0.000000;
#BPMS:0.000000=192.000000
,116.000000=194.000000
,132.000000=190.041000
,148.000000=192.100006
,340.000000=191.000000
,364.000000=192.000000
;
#STOPS:;
#DELAYS:;
#WARPS:;
#TIMESIGNATURES:0.000000=4=4
;
#TICKCOUNTS:0.000000=4
;
#COMBOS:0.000000=1
;
#SPEEDS:0.000000=1.000000=0.000000=0
;
#SCROLLS:0.000000=1.000000
;
#FAKES:;
#LABELS:0.000000=Song Start
;
#NOTES:
0000
0000
0000
0000
,
0000
0000
0000
0000
,
0000
0000
0000
0000
,
0000
0000
0000
0000
,
0000
0000
0000
0000
,
1000
0000
0000
0000
,
0000
0000
0000
0000
,
0100
0000
0000
0000
,
0000
0000
0000
0000
,
0010
0000
0000
0000
,
0000
0000
0000
0000
,
0001
0000
0000
0000
,
0000
0000
0000
0000
,
1000
0000
0000
0000
,
1000
0000
0000
0000
,
0010
0000
0000
0000
,
0010
0000
0000
0000
,
0100
0000
0000
0000
,
0100
0000
0000
0000
,
0001
0000
0000
0000
,
0001
0000
0000
0000
,
1000
0000
1000
0000
,
1000
0000
0000
0000
,
0001
0000
0001
0000
,
0001
0000
0000
0000
,
0100
0000
0100
0000
,
0100
0000
0000
0000
,
0010
0000
0010
0000
,
0010
0000
0000
0000
,
2000
0000
0000
0000
,
0000
0000
3000
0000
,
0002
0000
0000
0000
,
0003
0000
0000
0000
,
0020
0000
0000
0000
,
0000
0000
0030
0000
,
0200
0000
0000
0000
,
0300
0000
0000
0000
,
0010
0000
0010
0000
,
0020
0000
0000
0030
0000
0000
0000
0000
,
0001
0000
0001
0000
,
0002
0000
0000
0003
0000
0000
0000
0000
,
1000
0000
1000
0000
,
2000
0000
0000
3000
0000
0000
0000
0000
,
0100
0000
0100
0000
,
0200
0000
0000
0300
0000
0000
0000
0000
,
1000
0000
1000
0000
,
2000
0000
3000
0000
,
0010
0000
0010
0000
,
0020
0000
0030
0000
,
0100
0000
0100
0000
,
0200
0000
0300
0000
,
0002
0000
0003
0000
,
0001
0000
0001
0000
,
1000
0000
1000
0000
,
0001
0000
0001
0000
,
1000
0000
0001
0000
,
2000
0000
0000
3000
,
0010
0000
0010
0000
,
0100
0000
0100
0000
,
0010
0000
0100
0000
,
0020
0000
0000
0030
,
0100
0000
0100
0000
,
0001
0000
0001
0000
,
0010
0000
0010
0000
,
0002
0000
0000
0003
,
1000
0000
1000
0000
,
0010
0000
0010
0000
,
0100
0000
0100
0000
,
0200
0000
0000
0300
,
0001
0000
0000
0000
,
1000
0000
1000
0000
,
0200
0000
0300
0000
,
0010
0000
0010
0000
,
0001
0000
0000
0000
,
0100
0000
0100
0000
,
0010
0000
0000
0000
,
1000
0000
1000
0000
,
0001
0000
0001
0000
,
1000
0000
0000
0000
,
0010
0000
0010
0000
,
1000
0000
0000
0000
,
0100
0000
0100
0000
,
0010
0000
0010
0000
,
0001
0000
0001
0000
,
1000
0000
0001
0000
,
2000
0000
0000
0000
,
0000
0000
3000
0000
,
0200
0000
0000
0000
,
0000
0000
0300
0000
,
0020
0000
0000
0000
,
0000
0000
0030
0000
,
0110
0000
0000
0000
,
0000
0000
0000
0000
,
0000
0000
0000
0000
,
0000
0000
0000
1001
;

//---------------dance-single - ----------------
#NOTEDATA:;
#CHARTNAME:vincentw-BAS;
#STEPSTYPE:dance-single;
#DESCRIPTION:;
#CHARTSTYLE:;
#DIFFICULTY:Easy;
#METER:4;
#RADARVALUES:0.284515,0.391503,0.082639,0.396668,0.000000,183.000000,10.000000,48.000000,0.000000,0.000000,0.000000,0.000000,0.000000,0.284515,0.391503,0.082639,0.396668,0.000000,183.000000,10.000000,48.000000,0.000000,0.000000,0.000000,0.000000,0.000000;
#CREDIT:vincentw;
#OFFSET:0.000000;
#BPMS:0.000000=192.000000
,116.000000=194.000000
,132.000000=190.041000
,148.000000=192.100006
,340.000000=191.000000
,364.000000=192.000000
;
#STOPS:;
#DELAYS:;
#WARPS:;
#TIMESIGNATURES:0.000000=4=4
;
#TICKCOUNTS:0.000000=4
;
#COMBOS:0.000000=1
;
#SPEEDS:0.000000=1.000000=0.000000=0
;
#SCROLLS:0.000000=1.000000
;
#FAKES:;
#LABELS:0.000000=Song Start
;
#NOTES:
0000
0000
0000
0000
,
0000
0000
0000
0000
,
0000
0000
0000
0000
,
0000
0000
0000
0000
,
0000
0000
0000
0000
,
1000
0000
1000
0000
,
2000
0000
0000
3000
0000
0000
0000
0000
,
0100
0000
0100
0000
,
0200
0000
0000
0300
0000
0000
0000
0000
,
0010
0000
0010
0000
,
0020
0000
0000
0030
0000
0000
0000
0000
,
0001
0000
0001
0000
,
0002
0000
0000
0003
0000
0000
0000
0000
,
1000
0000
0010
0000
,
2000
0000
0000
3000
0000
0000
0000
0000
,
0001
0000
0100
0000
,
0002
0000
0000
0003
0000
0000
0000
0000
,
0010
0000
0100
0000
,
0020
0000
0000
0030
0000
0000
0000
0000
,
0001
0000
1000
0000
,
0002
0000
0000
0003
0000
0000
0000
0000
,
1000
0000
0010
0000
,
0200
0300
0200
0300
,
0001
0000
0010
0000
,
0200
0000
0000
0300
0000
0000
0000
0000
,
1000
0000
0100
0000
,
0020
0000
0000
0030
0000
0000
0000
0000
,
0001
0000
0100
0000
,
0020
0000
0000
0030
0000
0000
0000
0000
,
1000
0000
1000
0000
,
0001
0000
0001
0000
,
1000
0000
0001
0000
,
2000
0000
0000
3000
,
0010
0000
0010
0000
,
0100
0000
0100
0000
,
0010
0000
0100
0000
,
0020
0000
0000
0030
,
1000
0000
0100
0000
,
1000
1000
0000
0000
,
0001
0000
0100
0000
,
0001
0001
0000
0000
,
1000
0000
0010
0000
,
1000
1000
0000
0000
,
0001
0000
0010
0000
,
0001
0001
0001
0000
,
1001
0000
1000
0000
,
1010
0000
0010
0000
,
0110
0000
0100
0000
,
0101
0000
0001
0000
,
1001
0000
1000
0000
,
1100
0000
0100
0000
,
0110
0000
0010
0000
,
0001
0001
0011
0000
,
0010
0010
0010
0000
,
0100
0100
0100
0000
,
1000
1000
1000
0000
,
2000
3000
0002
0003
,
0001
0001
0001
0000
,
0100
0100
0100
0000
,
0010
0010
0010
0000
,
0020
0030
0200
0300
,
0100
0010
0100
0000
,
0010
1000
0010
0000
,
1000
0001
1000
0000
,
0002
0003
0020
0030
,
0010
0100
0010
0000
,
0100
1000
0100
0000
,
1000
0010
1000
0010
,
2000
3000
0200
0300
,
2000
0000
0000
3001
,
0002
0000
0100
0203
,
0000
0000
0000
0300
,
0010
0100
0010
0100
,
0001
0000
0001
0000
,
1000
0000
0100
0100
,
1000
0000
1000
0000
,
0001
0010
0001
0010
,
0200
0000
2300
0000
,
3020
0000
2030
0000
,
3200
0000
0320
0000
,
0032
0000
1003
0000
,
2000
0000
3020
0000
,
0230
0000
0302
0000
,
2003
0100
3200
0010
,
0320
0001
0032
1000
,
2003
0000
0000
0000
,
3002
0000
0003
0000
,
0200
0000
0000
0000
,
0320
0000
0030
0000
,
0020
0000
2030
0000
,
3002
0000
0003
0000
,
1001
0000
0000
0000
,
0000
0000
0000
0000
,
1000
0000
0001
0000
,
0100
0000
0000
0010
0000
0000
0110
0000
;

//---------------dance-single - ----------------
#NOTEDATA:;
#CHARTNAME:vincentw-DIF;
#STEPSTYPE:dance-single;
#DESCRIPTION:;
#CHARTSTYLE:;
#DIFFICULTY:Medium;
#METER:6;
#RADARVALUES:0.488752,0.626405,0.190070,0.487571,0.000000,332.000000,23.000000,59.000000,0.000000,0.000000,0.000000,0.000000,0.000000,0.488752,0.626405,0.190070,0.487571,0.000000,332.000000,23.000000,59.000000,0.000000,0.000000,0.000000,0.000000,0.000000;
#CREDIT:vincentw;
#OFFSET:0.000000;
#BPMS:0.000000=192.000000
,116.000000=194.000000
,132.000000=190.041000
,148.000000=192.100006
,340.000000=191.000000
,364.000000=192.000000
;
#STOPS:;
#DELAYS:;
#WARPS:;
#TIMESIGNATURES:0.000000=4=4
;
#TICKCOUNTS:0.000000=4
;
#COMBOS:0.000000=1
;
#SPEEDS:0.000000=1.000000=0.000000=0
;
#SCROLLS:0.000000=1.000000
;
#FAKES:;
#LABELS:0.000000=Song Start
;
#NOTES:
0000
0000
0000
0000
,
0000
0000
0000
0000
,
0000
0000
0000
0000
,
0000
0000
0000
0000
,
0000
0000
0000
0000
,
1000
0000
0100
0000
,
1000
0000
0000
0100
0000
0000
0000
0000
,
0010
0000
0001
0000
,
0010
0000
0000
0001
0000
0000
0000
0000
,
1000
0000
0010
0000
,
1000
0000
0000
0010
0000
0000
0000
0000
,
0100
0000
0001
0000
,
0100
0000
0000
0001
0000
0000
0000
0000
,
1000
0100
1000
0001
,
0200
0000
0000
0301
0000
0000
0000
0000
,
1000
0010
1000
0001
,
0020
0000
0000
0031
0000
0000
0000
0000
,
1000
0001
1000
0010
,
0200
0000
0000
0310
0000
0000
0000
0000
,
0100
0010
0100
0001
,
2000
0000
0000
3001
0000
0000
0000
0000
,
1000
1000
0100
0100
,
0010
0010
0000
0000
,
0001
0001
0010
0010
,
0100
0000
0000
0100
0000
0000
0000
0000
,
0010
0001
0100
1000
,
0200
0000
0000
0301
0000
0000
0000
0000
,
0010
0001
0010
1000
,
0020
0000
0000
0031
0000
0000
0000
0000
,
2000
0000
0010
0001
,
0200
0000
0300
0000
3002
0000
0003
0001
,
0200
0000
0010
1000
,
0310
0000
1000
0000
,
1002
0000
0100
1000
,
0020
0030
0203
0000
,
0320
0000
0001
0100
,
2030
0000
0000
3001
,
0001
0010
0010
0100
,
1000
0100
1000
0100
0000
0000
1000
0000
,
1000
0010
0010
0100
,
0001
0100
0001
0100
0000
0000
0010
0000
,
1000
0100
0100
1000
,
0001
0010
0001
0010
0000
0000
0001
0000
,
0010
0001
0100
0010
,
1000
0010
0000
1010
0000
0010
1000
0000
,
1010
0010
0110
0100
,
0101
0001
1000
0001
,
0011
0010
0110
0100
,
1100
1000
0010
0100
,
0110
0001
0101
1000
,
1001
0001
0010
0100
,
0110
1000
0001
0100
,
0101
1001
2020
3030
,
1010
0000
0010
0000
0100
0000
0010
0100
,
0001
0000
0010
0000
0001
0000
0010
0001
,
1000
0000
0001
0000
1000
0000
0001
1000
,
0200
2300
3020
0032
,
0013
0000
1000
0000
0010
0000
1000
0010
,
0100
0000
0010
0000
1000
0000
0010
1000
,
0001
0000
0010
0000
0100
1000
0100
0000
,
2200
3300
0022
0033
,
0001
0000
0100
0000
0001
0000
0010
0100
,
0010
0000
0001
0000
1000
0000
0010
0100
,
0010
0000
1000
0000
0001
0000
1000
0100
,
0002
0203
2300
3020
,
0031
0000
0010
0000
1000
0000
0100
1000
,
0001
0000
0010
0000
0100
0000
1000
0010
,
0100
0000
0001
0000
0010
0100
0010
0001
,
0100
0101
0001
1001
,
1100
0000
1000
0100
0000
0000
0100
0000
,
0010
0000
0010
0001
0000
0000
0001
0000
,
0100
0000
0100
0001
0000
0000
0001
0000
,
1000
0100
0001
0100
,
1000
0000
1000
0001
0000
0000
0001
0000
,
0100
0000
0100
0010
0000
0000
0010
0000
,
1000
0000
1000
0010
0000
0010
1000
0000
,
0001
0010
1000
0010
,
0002
2003
3002
0203
,
0320
2030
3002
0023
,
0230
0302
2003
3020
,
0032
0203
0310
0000
,
0200
0320
0230
2300
,
3002
0023
0230
0302
,
2003
3200
0320
0032
,
0203
0302
0203
0320
,
1030
1000
1000
1000
,
1000
0001
1000
0000
0001
0000
0000
0000
,
0100
0100
0100
0100
,
0100
0010
0100
0000
0001
0000
0000
0000
,
0001
0001
0001
0001
,
0001
0010
0001
0000
0010
0000
0000
0000
,
0011
0010
0010
0010
,
0010
0100
0010
0000
0100
0000
0000
0000
,
0010
0000
0001
0000
0001
1000
0001
0000
,
1000
0001
0000
0001
0000
0000
1001
0000
;

//---------------dance-single - ----------------
#NOTEDATA:;
#CHARTNAME:vincentw-EXP;
#STEPSTYPE:dance-single;
#DESCRIPTION:;
#CHARTSTYLE:;
#DIFFICULTY:Hard;
#METER:9;
#RADARVALUES:0.704794,0.652849,0.338821,0.338821,0.000000,515.000000,41.000000,41.000000,10.000000,0.000000,0.000000,0.000000,0.000000,0.704794,0.652849,0.338821,0.338821,0.000000,515.000000,41.000000,41.000000,10.000000,0.000000,0.000000,0.000000,0.000000;
#CREDIT:vincentw;
#OFFSET:0.000000;
#BPMS:0.000000=192.000000
,132.000000=194.000000
,148.000000=190.041000
,164.000000=192.100006
,356.000000=191.000000
,380.000000=192.000000
;
#STOPS:;
#DELAYS:;
#WARPS:19.000000=16.000000
;
#TIMESIGNATURES:0.000000=4=4
;
#TICKCOUNTS:0.000000=4
;
#COMBOS:0.000000=1
;
#SPEEDS:0.000000=1.000000=0.000000=0
;
#SCROLLS:0.000000=1.000000
;
#FAKES:;
#LABELS:0.000000=Song Start
;
#NOTES:
// measure 0
0000
0000
0000
0000
,  // measure 1
0000
0000
0000
0000
,  // measure 2
0000
0000
0000
0000
,  // measure 3
0000
0000
0000
0000
,  // measure 4
0000
0000
0000
0000
,  // measure 5
0000
0000
0000
0000
,  // measure 6
0000
0000
0000
0000
,  // measure 7
0000
0000
0000
0000
,  // measure 8
0000
0000
0000
0000
,  // measure 9
1000
0010
0000
0010
1000
0000
1000
0000
,  // measure 10
0001
0010
0100
0010
0000
0002
0000
0003
,  // measure 11
0100
0010
0000
0010
0100
0000
0100
0000
,  // measure 12
0001
1000
0010
1000
0000
0200
0000
0300
,  // measure 13
0010
0001
0000
0001
0010
0000
0010
0000
,  // measure 14
0001
0100
1000
0100
0000
0002
0000
0003
,  // measure 15
1000
0001
0000
0001
1000
0000
1000
0000
,  // measure 16
0100
0010
0001
0010
0000
2000
0000
3000
,  // measure 17
0010
0000
0001
0000
0001
1000
0001
0000
,  // measure 18
1000
0001
0000
0001
0000
0100
0100
0000
,  // measure 19
0001
0000
1000
0000
1000
0100
1000
0000
,  // measure 20
0100
1000
0000
0010
0000
1000
1000
0000
,  // measure 21
0001
0100
0001
0000
1000
0010
1000
0000
,  // measure 22
0001
0010
0000
0010
0000
0001
0001
0000
,  // measure 23
2000
0000
0000
0000
0000
0000
0000
0000
3020
0000
0000
0000
0000
0000
0000
0030
0010
0000
0000
0000
0100
0000
0000
0000
0010
0000
0000
0000
1000
0000
0000
0000
,  // measure 24
0100
0010
1000
0010
0000
0001
0001
0000
,  // measure 25
1000
0000
0100
0100
1000
0001
0100
0010
,  // measure 26
0100
1001
M11M
1MM1
,  // measure 27
1000
0100
0010
0000
0001
0100
0001
0000
,  // measure 28
0100
0001
1000
0001
0000
0010
0010
0000
,  // measure 29
0001
0000
0100
0000
1000
0100
0001
0010
,  // measure 30
1000
0010
0001
0010
0000
0100
0100
0000
,  // measure 31
1000
1000
0001
0001
1000
0010
1000
0001
,  // measure 32
0100
1000
0100
0001
0000
1000
0200
0000
,  // measure 33
1300
0100
0000
0100
0001
0000
0100
0000
,  // measure 34
2000
0000
0010
0000
3020
0000
0000
0130
,  // measure 35
0001
0100
0000
0010
1000
0000
0100
0000
,  // measure 36
1100
0000
1000
0000
0001
1000
0001
0000
,  // measure 37
0010
1000
0000
0010
0001
0000
1000
0000
,  // measure 38
0020
0000
0001
0000
0032
0000
0000
0003
,  // measure 39
1000
0100
0000
0001
0010
0000
0100
0000
,  // measure 40
0220
0000
0000
0000
0000
0330
MMMM
0000
,  // measure 41
1000
0010
0100
0010
1000
0001
1000
0001
,  // measure 42
0010
0100
0010
0100
0000
0110
0000
1001
,  // measure 43
0001
0100
0001
0100
0010
1000
0010
1000
,  // measure 44
0001
0010
0100
1000
0000
1100
0000
0011
,  // measure 45
0010
0001
0010
0001
1000
0100
1000
0100
,  // measure 46
0010
1000
0010
0001
0000
0101
0000
1010
,  // measure 47
1000
0100
0010
0100
1000
0010
0001
0010
,  // measure 48
0100
0100
0001
0001
1000
0010
1000
0010
,  // measure 49
1010
0010
0110
0100
,  // measure 50
0101
0000
0001
0100
0010
1000
0001
0010
,  // measure 51
0011
0010
0110
0100
,  // measure 52
1100
0000
1000
0001
0010
0001
0100
0010
,  // measure 53
0110
0001
0101
1000
,  // measure 54
1001
0000
0001
0010
1000
0001
0100
1000
,  // measure 55
1100
0000
0100
0010
0001
1000
0010
0001
,  // measure 56
0M10
1000
00M1
0000
2002
0000
3003
0000
,  // measure 57
1001
0000
0001
0010
0100
0000
0001
0100
,  // measure 58
1000
0001
1000
0100
0001
1000
0001
0100
,  // measure 59
1000
0010
0100
0001
0000
0010
0100
2000
,  // measure 60
0200
0300
0002
0003
3020
0000
2030
0000
,  // measure 61
3001
0000
0010
0100
0001
0000
1000
0010
,  // measure 62
0001
1000
0010
0001
0000
0010
1000
0010
,  // measure 63
0100
1000
0100
0001
1000
0100
0010
0001
,  // measure 64
0010
1100
1001
0110
,  // measure 65
0101
0000
0001
0010
0100
0000
1000
0010
,  // measure 66
0100
0010
0001
0010
0100
0010
1000
0100
,  // measure 67
0010
0100
0001
0100
0010
0100
1000
0100
,  // measure 68
0002
0203
2300
3020
,  // measure 69
1030
0001
0100
0001
0010
0100
1000
0100
,  // measure 70
0010
1000
0001
1000
0010
0100
1000
0010
,  // measure 71
0200
0000
0301
0010
1000
0001
1000
0010
,  // measure 72
0001
0011
0110
1100
,  // measure 73
1001
0000
0001
1000
0000
1000
0010
1000
,  // measure 74
0010
0000
0010
0100
0000
0100
0001
0100
,  // measure 75
0001
0000
0001
0010
0000
0010
0100
0010
,  // measure 76
0100
0110
0010
1001
,  // measure 77
0001
0000
0010
0100
0000
1000
0100
0010
,  // measure 78
0001
0000
0100
0001
0000
0010
0001
1000
,  // measure 79
0100
0000
1000
0010
0000
0100
0010
1000
,  // measure 80
0001
0101
1000
1010
,  // measure 81
0001
0000
0100
0000
1000
0100
0001
0000
,  // measure 82
1000
0000
0100
0000
0001
0100
1000
0000
,  // measure 83
0001
0000
0010
0000
1000
0010
0001
0000
,  // measure 84
1000
0010
0001
0000
1000
0100
0001
0000
,  // measure 85
0020
0230
0320
0032
,  // measure 86
2003
3200
0320
2030
,  // measure 87
3002
0203
0320
0230
,  // measure 88
2300
3200
0320
0032
,  // measure 89
1003
0100
0010
0100
1000
0010
0001
0010
,  // measure 90
1000
0001
0100
0000
0001
0000
0101
0000
,  // measure 91
0100
0001
1000
0001
0100
0010
0001
0010
,  // measure 92
0100
0010
1000
0000
0010
0000
1010
0000
,  // measure 93
0001
0010
0100
0010
0001
0100
1000
0100
,  // measure 94
0001
1000
0010
0000
1000
0000
1010
0000
,  // measure 95
0010
1000
0001
1000
0010
0100
1000
0100
,  // measure 96
0001
0100
0101
0000
1001
0000
0000
0000
,  // measure 97
0001
1000
0010
1000
0010
0100
0010
1000
,  // measure 98
0100
0010
1000
0010
0000
0000
0101
0000
;
