#VERSION:0.82;
#TITLE:MATADOR;
#SUBTITLE:;
#ARTIST:Cranky;
#TITLETRANSLIT:;
#SUBTITLETRANSLIT:;
#ARTISTTRANSLIT:;
#GENRE:;
#ORIGIN:;
#CREDIT:;
#BANNER:MATADOR.png;
#BACKGROUND:MATADOR-bg.png;
#PREVIEWVID:;
#JACKET:MATADOR-jacket.png;
#CDIMAGE:;
#DISCIMAGE:;
#LYRICSPATH:;
#CDTITLE:;
#MUSIC:MATADOR.ogg;
#OFFSET:-0.190000;
#SAMPLESTART:10.909944;
#SAMPLELENGTH:12.100001;
#SELECTABLE:YES;
#BPMS:0.000=168.000;
#STOPS:;
#DELAYS:;
#WARPS:;
#TIMESIGNATURES:0.000=4=4;
#TICKCOUNTS:0.000=4;
#COMBOS:0.000=1;
#SPEEDS:0.000=1.000=0.000=0;
#SCROLLS:0.000=1.000;
#FAKES:;
#LABELS:0.000=Song Start;
#BGCHANGES:;
#KEYSOUNDS:;
#ATTACKS:
;

//---------------dance-single - ----------------
#NOTEDATA:;
#CHARTNAME:;
#STEPSTYPE:dance-single;
#DESCRIPTION:;
#CHARTSTYLE:;
#DIFFICULTY:Hard;
#METER:9;
#RADARVALUES:0.683120,0.615492,0.706215,0.000000,0.199952,479.000000,83.000000,0.000000,0.000000,0.000000,0.000000,0.000000,0.000000,0.683120,0.615492,0.706215,0.000000,0.199952,479.000000,83.000000,0.000000,0.000000,0.000000,0.000000,0.000000,0.000000;
#CREDIT:;
#NOTES:
0000
0000
0000
0000
,
0000
0000
0000
0000
,
0000
0000
0000
0000
,
0000
0000
0000
0000
,
0001
1000
0001
1000
,
0010
0000
0100
0000
0010
0000
0100
0001
,
1000
0100
0010
0100
,
0010
0001
0101
1010
0000
0000
0000
0000
,
1001
0000
0000
0000
0101
0000
0000
1000
0001
0000
0010
0000
0100
0000
1000
0000
,
1100
0000
0000
0000
0110
0000
0000
1000
0100
0000
0010
0000
0001
0000
1000
0000
,
1010
0000
0000
0000
0110
0000
0000
1000
0010
0000
0100
0000
0001
0000
1000
0000
,
1001
0000
0000
0000
1100
0000
0000
0001
1000
0000
0100
0000
0001
0000
0100
0000
,
0110
0000
0000
0000
0011
0000
0000
0100
0010
0000
0100
0000
1000
0000
0001
0000
,
0011
0000
0000
0000
1001
0000
0000
0010
0001
0000
0100
0000
0010
0000
1000
0000
,
1001
0000
0000
0000
0011
0000
0000
1000
0001
0000
0100
0000
1000
0000
0100
0000
,
0110
0000
0000
0101
0000
0000
1001
0000
0000
0000
0000
0000
0000
0000
0000
0000
,
1000
0001
0100
0000
0010
0000
0001
0010
,
0100
0001
1000
0100
1000
0000
0100
0010
,
0001
1000
0010
0000
0100
0000
1000
0100
,
0010
0100
0001
1000
,
0001
0100
0010
0100
1000
0100
0001
0010
,
0100
1000
0001
1000
0010
0001
1000
0100
,
0010
1000
0010
0100
0010
0001
1000
0100
,
0010
0000
0000
1000
0001
0000
0000
0010
0100
0000
1000
0000
0010
0000
0100
0000
,
0101
0000
0000
0000
1001
0000
0000
0100
1000
0000
0010
0000
0001
0000
0010
0000
,
0110
0000
0101
0000
1001
0001
0101
0000
,
1010
0000
0000
0000
0110
0000
0000
0001
0100
0000
0010
0000
0001
0000
0010
0000
,
1010
0000
0000
0000
1001
0000
0000
0100
1000
0000
0001
0000
0101
0000
0000
0000
,
1010
0000
0000
0000
0110
0000
0000
0001
0100
0000
0000
0000
0010
0000
0000
1000
,
0100
0000
0001
0100
1000
0010
0001
0010
,
1000
0000
0000
0000
0100
0000
0000
0010
0001
0000
0000
0000
0100
0000
0000
0010
,
1000
0000
0100
0010
0011
0000
0100
0010
,
1010
0000
1000
0100
0110
0000
0001
0010
,
0110
0000
0100
1000
1001
0000
0001
0010
,
0110
0000
0110
0000
0100
1000
0001
0000
0000
0000
0000
0000
,
0101
0000
0000
0000
0011
0000
0000
0100
0010
0000
0100
0000
1000
0000
0001
0000
,
0101
0000
0000
0000
0110
0000
0000
0001
0010
0000
0100
0000
1000
0000
0010
0000
,
0110
0000
0000
0000
1010
0000
0000
0100
0010
0000
0001
0000
1000
0000
0010
0000
,
0110
0000
0000
0000
0101
0000
0000
0010
0100
0000
1000
0000
0001
0000
0100
0000
,
0110
0000
0000
0000
1010
0000
0000
0001
0010
0000
0100
0000
1000
0000
0001
0000
,
0101
0000
0000
0000
0110
0000
0000
1000
0100
0000
0001
0000
0100
0000
0010
0000
,
1001
0000
0000
0000
1010
0000
0000
0100
0010
0000
0001
0000
0100
0000
1000
0000
,
0110
0000
0000
0101
0000
0000
1001
0000
0000
0000
0000
0000
0000
0000
0000
0000
,
0001
0000
0001
0000
0001
0000
0001
0010
,
0100
0000
0100
0000
0100
0010
0100
1000
,
0010
0000
0010
0000
0010
0000
0010
1000
,
0100
0000
0100
0000
0100
0010
0001
0100
,
0010
0000
0010
0000
0010
0000
0010
0100
,
0001
0000
0001
0000
0001
0100
0010
1000
,
0100
0000
0100
0000
0100
0000
0100
0010
,
0001
0000
0001
0000
0001
0000
0001
1000
,
0100
0000
0010
0001
0100
0010
1000
0001
,
1000
0100
0010
0001
0100
0010
1000
0001
,
0100
0000
0001
0010
0100
1000
0001
0100
,
0010
0100
0001
0010
0100
1000
0010
0000
,
0100
0001
0100
0010
1000
0001
0100
0010
,
0001
1000
0100
0010
1000
0001
0010
0100
,
1000
0001
1000
0001
0010
0100
0001
0100
,
1000
0010
0001
0010
0100
0001
0010
0100
,
1000
0000
0000
1000
0000
0000
1000
0000
0100
0000
0000
0100
0000
0000
0100
0000
,
0110
0000
0110
0000
0001
1000
0100
0000
0000
0000
0000
0000
,
0100
0000
0010
0000
0100
1000
0010
0001
,
0010
0100
0001
0010
,
0100
1000
0010
0000
0100
0001
0010
1000
,
0010
0100
1000
0001
,
0010
0100
1000
0000
0010
0001
0010
1000
,
0100
0010
0001
0100
,
0010
0100
0001
0000
0010
1000
0010
0001
,
0100
0000
0010
1000
1010
0000
0100
0010
,
0110
0000
0001
0100
0101
0000
0100
0010
,
0110
0000
0010
1000
1010
0000
1000
0100
,
1100
0000
0000
0001
0100
0000
0000
0010
0100
0000
0000
1000
0100
0000
0000
0000
,
0110
0000
0110
0000
0001
0010
0100
0000
0000
0000
0000
0000
,
1100
0000
0000
0000
1001
0000
0000
1000
0010
0000
0100
0000
0001
0000
0010
0000
,
0110
0000
0000
0000
1100
0000
0000
0001
1000
0000
0010
0000
0001
0000
0010
0000
,
1010
0000
0000
0000
1001
0000
0000
0100
1000
0000
0001
0000
0100
0000
0010
0000
,
0110
0000
0000
0000
0101
0000
0000
0001
1000
0000
0100
0000
0001
0000
0100
0000
,
1100
0000
0000
0000
0110
0000
0000
0100
0001
0000
1000
0000
0010
0000
0100
0000
,
1100
0000
0000
0000
1001
0000
0000
1000
0010
0000
0001
0000
0010
0000
0100
0000
,
0101
0000
0000
0000
1001
0000
0000
0001
0010
0000
1000
0000
0010
0000
0100
0000
,
1100
0000
0000
1001
0000
0000
1010
0000
0000
0000
0000
0000
0000
0000
0000
0000
;

//---------------dance-single - ----------------
#NOTEDATA:;
#CHARTNAME:;
#STEPSTYPE:dance-single;
#DESCRIPTION:;
#CHARTSTYLE:;
#DIFFICULTY:Medium;
#METER:6;
#RADARVALUES:0.504439,0.547104,0.578586,0.000000,0.131883,347.000000,68.000000,0.000000,0.000000,0.000000,0.000000,0.000000,0.000000,0.504439,0.547104,0.578586,0.000000,0.131883,347.000000,68.000000,0.000000,0.000000,0.000000,0.000000,0.000000,0.000000;
#CREDIT:;
#NOTES:
0000
0000
0000
0000
,
0000
0000
0000
0000
,
0000
0000
0000
0000
,
0000
0000
0000
0000
,
1000
0001
1000
0001
,
0100
0010
0100
0010
,
1010
1000
0100
1000
,
0100
0000
0010
0001
0000
0000
0000
0000
,
1001
0000
0010
0000
1001
0000
0001
0010
,
0110
0000
1000
0000
0110
0000
0100
1000
,
1010
0000
0001
0000
1010
0000
0010
0100
,
0101
0010
0101
1010
,
0101
0000
1000
0000
0101
0000
0100
0010
,
1010
0000
0100
0000
1010
0000
0010
1000
,
1001
0000
0100
0000
1001
0000
1000
0100
,
0110
0000
0000
0110
0000
0000
1001
0000
0000
0000
0000
0000
0000
0000
0000
0000
,
1000
0100
1000
0100
,
0010
0001
0010
0001
,
0100
0010
0100
0010
,
1000
0001
1000
0001
,
0010
0100
0010
0001
,
1000
0100
0010
0100
,
1000
0010
0001
0010
,
0100
0000
0001
0000
0010
0100
1000
0100
,
0110
0000
1000
0001
1000
0010
0000
0010
,
0110
0000
1001
0000
0100
0010
1010
0000
,
0101
0000
0000
0000
0011
0000
0000
0001
0100
0000
0010
0000
0000
0000
0010
0000
,
1010
0000
0000
0000
1100
0000
0000
1000
0001
0000
0010
0000
0100
0000
0000
0000
,
0110
0000
0000
0000
0010
0000
0000
0100
1000
0000
0000
0000
1001
0000
0000
0001
,
0100
0000
0100
0010
0100
0001
0100
0000
,
0011
0000
0000
0000
0001
0000
0000
1000
0010
0000
0000
0000
0100
0000
0000
0001
,
0010
0000
0000
0100
0010
0000
0000
0100
,
1000
0000
0000
0010
0100
0000
0000
0001
,
0010
0000
0000
0100
1000
0000
0000
0001
,
1000
0000
0000
0000
0001
0100
0001
0000
0000
0000
0000
0000
,
0011
0000
0001
0000
1001
0000
0001
0010
,
0110
0000
0100
0000
1100
0000
1000
0001
,
0101
0000
0100
0000
0110
0000
0010
1000
,
1001
0000
0001
0000
0101
0000
0100
0010
,
1010
0000
1000
0000
1001
0000
0001
0010
,
0110
0000
0100
0000
1100
0000
1000
0001
,
0011
0000
0010
0000
0110
0000
0100
1000
,
1010
0000
0000
1010
0000
0000
0101
0000
0000
0000
0000
0000
0000
0000
0000
0000
,
0010
0000
0000
0000
0000
0000
0010
0100
,
1000
0000
0000
0000
0000
0000
1000
0001
,
0100
0000
0000
0000
0000
0000
0010
0100
,
0001
0000
0000
0000
0000
0000
0010
0100
,
1000
0000
0000
0000
0000
0000
0001
0010
,
0100
0000
0000
0000
0000
0000
1000
0001
,
1000
0000
0000
0000
0000
0000
0010
0100
,
0001
0000
0000
0000
0001
0000
0010
0100
,
1000
0000
0000
1000
0001
0000
0000
0001
,
0100
0000
0000
0000
0010
0000
0000
0000
1000
0000
0000
0000
0001
0000
0000
0000
0000
0000
0010
0000
0000
0100
0000
0000
,
1000
0000
0001
0100
0001
1000
0100
0010
,
0000
0000
0010
0000
0100
0000
0000
1000
0000
0100
0000
0010
0001
0000
0000
0000
,
0100
0000
0001
0000
0010
0000
0100
0000
1000
0000
0001
0100
,
0001
0010
0000
0010
0100
0000
0000
1000
,
0001
0000
0000
0001
0100
0000
0000
0100
,
0010
0000
0000
0100
0000
0000
0001
0000
1000
0000
0000
0000
1000
0000
0100
0000
,
0010
0000
0001
0000
0010
0100
0010
0000
0100
0000
1000
0001
,
1000
0000
0000
0000
,
1001
0000
0000
0000
0001
0010
0100
0010
,
0001
0100
0100
0000
,
1010
0000
0000
0000
1000
0100
0010
0100
,
1000
0001
0001
0000
,
0110
0000
0000
0000
0100
0001
1000
0001
,
0100
0010
0010
0000
,
1001
0000
0000
0000
0001
0010
0100
1000
,
0010
0000
0000
0100
0010
0000
0000
0001
,
0010
0000
0000
0100
0010
0000
0000
1000
,
0010
0000
0000
1000
0001
0000
0000
1000
,
0100
0010
0010
0010
,
0010
0000
0010
0000
0001
1000
0001
0000
0000
0000
0000
0000
,
0101
0000
0001
0000
0001
0000
0010
0100
,
1001
0000
0001
0000
0101
0000
0010
1000
,
1001
0000
0001
0000
0101
0000
0100
0010
,
1010
1000
1001
1001
,
1001
0000
0001
0000
0101
0000
0100
0010
,
1010
0000
1000
0000
1001
0000
0001
0010
,
0110
0000
0100
0000
0110
0000
0010
0001
,
1001
0000
0000
0110
0000
0000
1001
0000
0000
0000
0000
0000
0000
0000
0000
0000
;

//---------------dance-single - ----------------
#NOTEDATA:;
#CHARTNAME:;
#STEPSTYPE:dance-single;
#DESCRIPTION:;
#CHARTSTYLE:;
#DIFFICULTY:Easy;
#METER:4;
#RADARVALUES:0.370732,0.410328,0.323327,0.000000,0.000000,267.000000,38.000000,0.000000,0.000000,0.000000,0.000000,0.000000,0.000000,0.370732,0.410328,0.323327,0.000000,0.000000,267.000000,38.000000,0.000000,0.000000,0.000000,0.000000,0.000000,0.000000;
#CREDIT:;
#NOTES:
// measure 0
0000
0000
0000
0000
,  // measure 1
0000
0000
0000
0000
,  // measure 2
0000
0000
0000
0000
,  // measure 3
0000
0000
0000
0000
,  // measure 4
1001
0000
0000
0000
,  // measure 5
0110
0000
0000
0000
,  // measure 6
1010
0000
0000
0000
,  // measure 7
0101
0000
0000
0001
0000
0000
0000
0000
,  // measure 8
1000
0000
0001
0000
1000
0000
0001
0010
,  // measure 9
0100
0000
1000
0000
0100
0000
1000
0001
,  // measure 10
0100
0000
0010
0000
0100
0000
0010
1000
,  // measure 11
0001
0000
0100
0000
0001
0000
0100
0010
,  // measure 12
1000
0000
0010
0000
0100
0000
0010
1000
,  // measure 13
0001
0000
1000
0000
0001
0000
1000
0100
,  // measure 14
0010
0000
0001
0000
0010
0000
0001
1000
,  // measure 15
0100
0000
0000
1010
0000
0000
0000
0000
,  // measure 16
1001
0001
0100
0001
,  // measure 17
0010
0100
1000
0001
,  // measure 18
0100
0010
0100
0001
,  // measure 19
1000
0001
0100
0010
,  // measure 20
0001
0010
0100
1000
,  // measure 21
0001
0010
0100
0001
,  // measure 22
0010
0001
0100
0010
,  // measure 23
1000
0001
0100
0010
,  // measure 24
1010
0000
1000
0000
0001
0100
0000
0100
,  // measure 25
0001
0000
0010
0000
0100
1000
0100
0000
,  // measure 26
0010
0001
0100
0001
,  // measure 27
0010
0000
0100
0000
1000
0010
1000
0000
,  // measure 28
0100
0010
0101
0001
,  // measure 29
1001
0000
1000
0100
0010
0100
1000
0000
,  // measure 30
0001
0010
0100
1000
,  // measure 31
0101
0000
1010
0000
,  // measure 32
0101
0000
1010
0000
,  // measure 33
0110
0000
1001
0000
,  // measure 34
0100
0000
1001
0000
,  // measure 35
1000
0000
0001
0000
1000
0000
0001
0010
,  // measure 36
0100
0000
0010
0000
0100
0000
0010
0001
,  // measure 37
1000
0000
0100
0000
1000
0000
0100
0010
,  // measure 38
0001
0000
1000
0000
0001
0000
1000
0100
,  // measure 39
0010
0000
0001
0000
0010
0000
0001
0100
,  // measure 40
0010
0000
1000
0000
0010
0000
1000
0001
,  // measure 41
0100
0000
0010
0000
1000
0000
0010
1000
,  // measure 42
0001
0000
0000
1010
0000
0000
0000
0000
,  // measure 43
1001
0000
0000
0000
0000
0000
0001
0010
,  // measure 44
0100
0000
0000
0000
0000
0000
1000
0001
,  // measure 45
0100
0000
0000
0000
0000
0000
0000
0010
,  // measure 46
0000
1000
0000
0000
0000
0000
0000
0000
,  // measure 47
0100
0000
0000
0000
0000
0000
0010
0001
,  // measure 48
1000
0000
0000
0001
,  // measure 49
0100
0000
0000
0000
0000
0000
0010
1000
,  // measure 50
0001
1000
0100
0010
0001
0000
0000
0000
,  // measure 51
1001
0000
0001
0000
,  // measure 52
0001
0010
0100
1000
0010
0000
0000
0000
,  // measure 53
1010
0000
0101
0000
,  // measure 54
1000
0001
0100
0001
,  // measure 55
0010
0100
1000
0001
,  // measure 56
0100
0001
1000
0010
,  // measure 57
0100
0001
1000
0100
,  // measure 58
0010
0001
0100
0010
,  // measure 59
0100
0000
0001
0000
,  // measure 60
1001
0000
0000
0000
,  // measure 61
0110
0000
0000
0000
0010
1000
0001
1000
,  // measure 62
0010
0000
0000
0000
,  // measure 63
1100
0000
0000
0000
0010
0001
1000
0001
,  // measure 64
0010
0000
0000
0000
,  // measure 65
0011
0000
0000
0000
0010
0100
1000
0100
,  // measure 66
0010
0000
0000
0000
,  // measure 67
1001
0000
0000
0000
,  // measure 68
0110
0000
0110
0000
,  // measure 69
0110
0000
0110
0000
,  // measure 70
1001
0000
1001
0000
,  // measure 71
1001
0000
1001
0000
,  // measure 72
1001
0000
0000
0000
,  // measure 73
0101
0000
0000
0000
,  // measure 74
1001
0000
0001
0000
0010
0000
0100
0010
,  // measure 75
0001
0000
1000
0000
0010
0000
0100
0001
,  // measure 76
0010
0000
0100
0000
1000
0000
0001
0100
,  // measure 77
0010
0000
1000
0000
0001
0000
0100
0010
,  // measure 78
1000
0000
0001
0000
1000
0000
0001
0100
,  // measure 79
0010
0000
1000
0000
0001
0000
0010
0100
,  // measure 80
1000
0000
0000
1001
0000
0000
0000
0000
;
