#TITLE:Frog Machine;
#SUBTITLE:;
#ARTIST:Infected Mushroom;
#TITLETRANSLIT:;
#SUBTITLETRANSLIT:;
#ARTISTTRANSLIT:;
#GENRE:;
#CREDIT:;
#BANNER:Frog Machine - Infected Mushroombn.png;
#BACKGROUND:Frog Machine - Infected Mushroombg.png;
#LYRICSPATH:;
#CDTITLE:encorerebirth.png;
#MUSIC:Frog Machine - Infected Mushroom.ogg;
#OFFSET:-0.016;
#SAMPLESTART:26.383;
#SAMPLELENGTH:13.201;
#SELECTABLE:YES;
#BPMS:0.000=145.000
;
#STOPS:
;
#BGCHANGES:;
#KEYSOUNDS:;
#ATTACKS:;

//---------------dance-single - Spork!----------------
#NOTES:
     dance-single:
     :
     Beginner:
     2:
     0.161,0.176,0.124,0.248,0.000,91.000,15.000,30.000,0.000,0.000,0.000,0.161,0.176,0.124,0.248,0.000,91.000,15.000,30.000,0.000,0.000,0.000:
0000
0000
0000
0000
,
0000
0000
0000
0000
,
0000
0000
0000
0000
,
0000
0000
0000
0000
,
0001
0000
0001
0000
,
0020
0000
0000
0000
,
0130
0000
0010
0000
,
0200
0000
0000
0000
,
0310
0000
0010
0000
,
0002
0000
0000
0000
,
1003
0000
0001
0000
,
2000
0000
0000
0000
,
3001
0000
0000
0000
,
0001
0000
0000
0000
,
0001
0000
0000
0000
,
0000
0000
0000
0000
,
0100
0100
0000
0000
,
0010
0010
0000
0000
,
1000
1000
0000
0000
,
0001
0001
0000
0000
,
2000
0000
3000
0000
,
2000
0000
3000
0000
,
2000
0000
3000
0000
,
2000
0000
3000
0000
,
1001
0000
0000
0000
,
1001
0000
0000
0000
,
0110
0000
0000
0000
,
1000
0000
0001
0000
,
1001
0000
0000
0000
,
1001
0000
0000
0000
,
0110
0000
0000
0000
,
1000
0000
0001
0000
,
2000
0000
0000
0000
,
3200
0000
0000
0000
,
0320
0000
0000
0000
,
0032
0000
2003
0000
,
3002
0000
0000
0000
,
0203
0000
0000
0000
,
0320
0000
0000
0000
,
2030
0000
0002
0000
,
0000
0000
0000
0000
,
3000
0000
0003
0000
,
1001
0000
0100
0000
,
1001
0000
0010
0000
,
0200
0000
0000
0000
,
0310
0010
0010
0000
,
0110
0000
0000
0000
,
0000
0000
0000
0000
,
0000
0000
0000
0000
,
0000
0000
0000
0000
,
2000
0000
0000
0000
,
3002
0000
0000
0000
,
1003
0000
0100
0000
,
0010
0010
0010
0010
,
0210
0000
0000
0000
,
1300
0000
0000
0001
,
1002
0000
0000
0000
,
0103
0000
0010
0000
,
0210
0000
0000
0000
,
0301
0000
1000
1000
,
2001
0000
0000
0000
,
3002
0000
0000
0000
,
0013
0000
0000
0000
,
0110
0000
0000
0000
,
0002
0000
0000
0003
,
0100
0000
0000
0100
,
0200
0000
0000
0300
,
0010
0000
0000
1000
,
2000
0000
3002
0000
,
1003
0000
1000
0000
,
0001
0000
0001
0000
,
1001
0000
0000
0000
;

//---------------dance-single - Spork!----------------
#NOTES:
     dance-single:
     :
     Easy:
     5:
     0.337,0.358,0.141,0.447,0.008,214.000,17.000,54.000,0.000,0.000,0.000,0.337,0.358,0.141,0.447,0.008,214.000,17.000,54.000,0.000,0.000,0.000: // measure 0
0000
0000
0000
0000
,  // measure 1
0000
0000
0000
0000
,  // measure 2
0000
0000
0000
0000
,  // measure 3
0000
0000
0000
0000
,  // measure 4
0001
0010
0001
0100
,  // measure 5
0020
0000
0000
0000
0000
0000
0030
1000
,  // measure 6
1000
0100
1000
0010
,  // measure 7
0200
0000
0000
0000
0000
0000
0300
0001
,  // measure 8
0001
0010
0100
2000
,  // measure 9
3002
0000
0003
0200
0000
0300
0002
0000
,  // measure 10
0023
0000
0030
2002
0000
0000
3003
0000
,  // measure 11
0200
0300
0020
2030
,  // measure 12
3001
0010
0100
0100
,  // measure 13
1000
0001
0100
0100
,  // measure 14
0010
1000
0001
0001
,  // measure 15
2002
0003
3000
0000
,  // measure 16
1000
0100
0001
0100
,  // measure 17
1000
0000
0000
0000
0010
0000
0000
0000
0100
0000
0000
0000
0000
0100
0000
0000
,  // measure 18
0001
0010
1000
0010
,  // measure 19
0001
0000
0000
0000
0100
0000
0000
0000
0010
0000
0000
0000
0000
0010
0000
0000
,  // measure 20
2000
3100
1000
0010
,  // measure 21
0200
0301
1000
1000
,  // measure 22
0002
0103
0001
0010
,  // measure 23
0200
1300
0001
0000
,  // measure 24
2001
3010
1000
0100
,  // measure 25
0120
0130
1000
1000
,  // measure 26
1002
0103
0001
0010
,  // measure 27
0120
0130
0010
0010
,  // measure 28
1002
0103
0001
0010
,  // measure 29
0210
0310
0001
0001
,  // measure 30
2002
3003
1000
0010
,  // measure 31
0120
0130
0100
0100
,  // measure 32
0001
0010
0100
1000
,  // measure 33
1000
0010
0100
0001
,  // measure 34
0001
0100
0010
1000
,  // measure 35
1000
0100
0010
0001
,  // measure 36
1000
0010
1000
1001
,  // measure 37
0001
0100
0001
0010
,  // measure 38
0100
1000
0010
1000
,  // measure 39
0001
0100
2002
0000
,  // measure 40
0000
0000
0000
0000
,  // measure 41
0003
0000
3000
0000
,  // measure 42
0001
0010
0001
0001
,  // measure 43
1000
0010
1000
1000
,  // measure 44
0100
0100
0100
0100
,  // measure 45
0010
0010
0010
0000
,  // measure 46
0220
0000
0000
0000
,  // measure 47
0000
0000
0000
0000
,  // measure 48
0330
0000
0000
0000
,  // measure 49
0000
0000
0000
0000
,  // measure 50
2000
0000
0000
0000
,  // measure 51
3002
0000
0000
0000
,  // measure 52
1003
0010
0100
0001
,  // measure 53
0010
0010
0010
0010
,  // measure 54
0021
0001
0100
0130
,  // measure 55
1000
0010
0100
0002
,  // measure 56
2003
0001
0100
3100
,  // measure 57
1000
0010
0110
0010
,  // measure 58
1020
1000
0100
0130
,  // measure 59
0001
0010
0100
2000
,  // measure 60
3002
1000
0010
0013
,  // measure 61
2000
0100
0001
3001
,  // measure 62
0002
0000
0000
0000
,  // measure 63
1003
1000
0000
0000
0010
0000
1000
0000
,  // measure 64
0200
0000
0000
0000
1000
0000
0000
0010
,  // measure 65
0310
0000
0001
1000
,  // measure 66
0020
0000
0000
0000
1000
0000
0000
0100
,  // measure 67
0130
0000
0100
0002
,  // measure 68
2003
0000
3000
0020
0000
0030
2000
0000
,  // measure 69
3200
0000
0300
2002
0000
0000
3003
0000
,  // measure 70
0020
0030
0200
0302
,  // measure 71
2003
0000
0000
0000
,  // measure 72
3000
0000
0000
0000
;

//---------------dance-single - Spork!----------------
#NOTES:
     dance-single:
     :
     Hard:
     9:
     0.666,0.865,0.306,0.456,0.538,471.000,37.000,55.000,0.000,0.000,0.000,0.666,0.865,0.306,0.456,0.538,471.000,37.000,55.000,0.000,0.000,0.000: // measure 0
0000
0000
0000
0000
,  // measure 1
0000
0000
0000
0000
,  // measure 2
0000
0000
0000
0000
,  // measure 3
0000
0000
0000
0000
,  // measure 4
1000
0100
0010
0001
,  // measure 5
0200
0000
0000
0000
1000
0000
0000
0000
0301
0010
0000
0010
0000
0000
0010
0000
,  // measure 6
0001
0000
0100
0000
0010
0000
0010
1000
,  // measure 7
0200
0000
0000
0000
0001
0000
0000
0000
1300
0010
0000
0010
0000
0000
0100
0000
,  // measure 8
0001
0001
0010
0000
0100
0000
0110
0000
,  // measure 9
2002
0000
0000
3003
0000
0000
1010
0000
0000
0100
0000
0000
0001
0000
0000
0000
,  // measure 10
1001
0000
0000
0000
0000
0000
2200
0000
0000
0000
0000
0000
0000
3300
0000
0000
,  // measure 11
0220
0000
0000
0330
0000
0000
0011
0000
0000
0100
0000
0000
1000
0000
0000
0001
,  // measure 12
1000
1000
0010
0000
0100
0000
1001
0000
,  // measure 13
0100
0001
0010
0010
0100
0000
1001
0000
,  // measure 14
0010
1000
0100
0100
0010
0000
1001
0000
,  // measure 15
0001
0000
0000
0000
0010
0000
0000
0001
1000
0001
0000
0000
0100
0000
0010
0000
,  // measure 16
2000
0000
0000
0000
3200
0000
0000
0000
1300
0000
0010
0000
1000
0001
0000
0000
,  // measure 17
0002
0000
0000
0000
0203
0000
0000
0000
0301
0010
0000
0000
0000
0110
0000
0000
,  // measure 18
0002
0000
0000
0000
0023
0000
0000
0000
0031
0000
0100
0000
0001
1000
0000
0000
,  // measure 19
2000
0000
0000
0000
3020
0000
0000
0000
1030
0001
0000
0000
0001
1000
0000
0000
,  // measure 20
0021
0000
0000
0000
0032
0000
0000
0000
1003
0100
1000
0000
1000
0010
0000
0000
,  // measure 21
1020
0000
0000
0000
0230
0000
0000
0000
0301
1000
0001
0000
0010
0000
0100
0000
,  // measure 22
1200
0000
0000
0000
2300
0000
0000
0000
3010
0000
0100
0000
0100
0010
0000
0000
,  // measure 23
0201
0000
0000
0000
0301
0010
0000
0010
0001
0000
0001
1000
0000
0100
0000
0000
,  // measure 24
2001
0000
0000
0000
3002
0000
0000
0000
0013
0001
0000
0100
0000
0001
1000
0001
,  // measure 25
0020
0000
0000
0000
0230
0000
0000
0000
1300
0010
1000
0010
0000
0000
0010
0000
,  // measure 26
0110
0000
0102
0000
1000
0000
0003
0000
1000
0000
0001
0000
0010
0001
0000
0001
,  // measure 27
0200
0000
0000
0000
0301
0010
0000
0010
0100
0000
0100
1000
0000
0000
0010
0000
,  // measure 28
1002
0000
0000
0000
2003
0000
0000
0000
3100
1000
0000
0010
0000
1000
0001
1000
,  // measure 29
0200
0000
0000
0000
2300
0000
0000
0000
3010
0100
0010
0100
0000
0000
0100
0000
,  // measure 30
0110
0000
0000
1010
0000
0000
1001
0000
0000
0011
0000
0010
0100
0010
0100
0010
,  // measure 31
0001
1000
0001
1000
0001
1000
0001
1000
0001
1000
0001
1000
0001
1000
0001
1000
,  // measure 32
0001
0100
0010
0100
0001
0100
0010
2000
,  // measure 33
0001
0000
0100
3000
0010
0000
0100
0000
1000
0000
0100
0000
0010
0000
0002
0000
,  // measure 34
1000
0000
0010
0003
0100
0000
0010
0000
0001
0000
0010
0000
0100
0000
2000
0000
,  // measure 35
0001
0000
0010
3000
0100
0000
0010
0000
1000
0000
0010
0000
0100
0000
0002
0000
,  // measure 36
1000
1000
1003
0001
0010
0100
0120
0000
,  // measure 37
0031
0100
0010
1000
0010
0100
0001
2000
,  // measure 38
0100
0000
0010
3000
0100
0000
0001
0000
0100
0000
0010
0000
1000
0000
0002
0000
,  // measure 39
0010
0000
0100
0003
0010
0000
1000
0000
2002
0000
0000
0000
0000
0000
0000
0000
,  // measure 40
0000
0000
0000
0000
,  // measure 41
0003
0000
0000
0000
0000
0000
0000
0000
3000
0000
0000
0000
0000
0010
0100
0010
,  // measure 42
0100
0000
0001
0000
0000
0001
1000
0001
1000
0000
0100
0000
0010
0000
0001
0000
,  // measure 43
1000
0001
1000
0000
0000
1000
0010
1000
0010
0000
0100
0000
0001
0000
0010
0000
,  // measure 44
0010
0100
0000
0100
0000
0100
0000
0100
0000
0100
0000
0100
0000
0100
0000
0100
,  // measure 45
1000
0001
1000
0001
1000
0001
2000
0000
0200
0000
0000
0000
3300
0000
0000
0000
,  // measure 46
1010
0000
0000
1000
0000
0000
0100
0000
0000
1000
0000
0000
0010
0000
0100
0000
,  // measure 47
1001
0000
0000
0001
0000
0000
0100
0000
0000
1000
0000
0000
0100
0000
0010
0000
,  // measure 48
0101
0000
0000
0001
0000
0000
0010
0000
0000
0001
0000
0000
0100
0000
0010
0000
,  // measure 49
1001
0000
0000
1000
0000
0000
0100
0000
0000
0001
0000
0000
0100
0000
0010
0000
,  // measure 50
0001
0100
0001
0100
0010
0100
0010
0100
,  // measure 51
0010
1000
0010
1000
0001
1000
0001
1000
,  // measure 52
0100
1000
0000
0100
0010
0000
0001
0010
0000
0100
0010
0000
0001
0100
0000
0010
,  // measure 53
0100
0010
0100
0010
0100
0010
0100
0010
0100
0010
0100
0010
1000
0000
0001
0000
,  // measure 54
1000
0000
1000
0100
0000
0100
0010
0000
0010
0001
0000
0001
1000
0000
0010
0000
,  // measure 55
0100
0000
0100
0001
0000
0001
0010
0000
0010
0100
0000
0100
0010
0000
0001
0000
,  // measure 56
0100
0000
0100
0010
0000
0010
1000
0000
1000
0001
0000
0001
0010
0000
0100
0000
,  // measure 57
1000
0000
1000
0001
0000
0001
0100
0000
0100
0001
0000
0001
0010
0000
0011
0000
,  // measure 58
0001
0000
0001
0100
0000
0100
0010
0000
0010
1000
0000
1000
0001
0000
0010
0000
,  // measure 59
0100
0000
0100
1000
0000
1000
0010
0000
0100
0010
0000
0010
0100
0000
0001
0000
,  // measure 60
0010
0000
0010
0100
0000
0100
1000
0000
1000
0001
0000
0001
0100
0000
0010
0000
,  // measure 61
1000
0000
1000
0001
0000
0001
0100
0000
0010
0100
0000
0100
0010
0000
2000
0000
,  // measure 62
0002
0000
0000
0000
0000
0000
3000
0003
,  // measure 63
1000
0001
0100
0000
0100
0001
1000
0000
,  // measure 64
0020
0000
0000
0000
0001
0000
0000
0000
1030
0100
0000
0100
0000
0000
0100
0000
,  // measure 65
1000
0001
0010
0000
0010
0001
1000
0001
,  // measure 66
0020
0000
0000
0000
1000
0000
0000
0000
0031
0100
0000
0100
0000
0000
0010
0000
,  // measure 67
1000
1000
0100
0000
0010
0000
0110
0000
,  // measure 68
2002
0000
0000
3003
0000
0000
0011
0000
0000
0100
0000
0000
1000
0000
0000
0000
,  // measure 69
1001
0000
0000
0000
0000
0000
0202
0000
0000
0000
0000
0000
0000
0303
0000
0000
,  // measure 70
0220
0000
0000
0330
0000
0000
1010
0000
0000
0100
0000
0000
0001
0000
0000
0001
,  // measure 71
1000
2000
0000
0000
0000
0000
0000
0000
,  // measure 72
3000
0000
0000
0000
;

//---------------dance-single - Spork!----------------
#NOTES:
     dance-single:
     :
     Medium:
     7:
     0.427,0.477,0.149,0.431,0.141,291.000,18.000,52.000,0.000,0.000,0.000,0.427,0.477,0.149,0.431,0.141,291.000,18.000,52.000,0.000,0.000,0.000: // measure 0
0000
0000
0000
0000
,  // measure 1
0000
0000
0000
0000
,  // measure 2
0000
0000
0000
0000
,  // measure 3
0000
0000
0000
0000
,  // measure 4
0010
0010
1000
1000
,  // measure 5
0200
0000
0000
0000
0000
0000
0000
0000
0010
0000
0000
0010
0300
0000
0001
0000
,  // measure 6
0100
0000
0100
0000
0001
0000
0001
0001
,  // measure 7
0020
0000
0000
0000
0000
0000
0000
0000
0100
0000
0000
0100
0030
0000
1000
0000
,  // measure 8
0001
1000
0010
0000
1000
0000
0002
0000
,  // measure 9
2003
0000
3000
0020
0000
0030
2000
0000
,  // measure 10
3200
0000
0300
2002
0000
0000
3003
0000
,  // measure 11
0020
0000
0000
0000
0030
0000
0200
0000
0000
0001
0000
0000
0302
0000
0000
0000
,  // measure 12
1003
0100
0010
1001
,  // measure 13
0001
0100
0010
1001
,  // measure 14
0100
1000
0010
0110
,  // measure 15
0002
2003
3002
0103
,  // measure 16
1010
0000
0000
0000
0010
0000
0000
0000
1000
0000
0010
0000
0000
1000
0000
0000
,  // measure 17
0001
0010
0011
1001
,  // measure 18
0101
0000
0000
0000
0100
0000
0000
0000
0001
0000
0010
0000
0000
0001
0000
0000
,  // measure 19
1000
0000
0000
0000
0100
0000
0000
0000
0110
0000
0000
0000
0000
1001
0000
0000
,  // measure 20
0002
0000
0013
0000
0010
0100
1000
0001
,  // measure 21
2000
0000
3010
0000
0100
0010
1000
0001
,  // measure 22
2000
0000
3100
0000
0100
0010
0001
1000
,  // measure 23
0002
0103
0010
0010
,  // measure 24
1002
0000
0000
0000
0013
0000
0000
0000
0010
0000
0000
0100
0000
0000
0100
0000
,  // measure 25
0020
0000
0000
0000
0031
0000
0000
0000
0100
0000
0000
0001
0000
0000
0001
0000
,  // measure 26
1000
0000
1000
0000
0010
0000
0000
0000
1000
0000
0100
0000
0000
0100
0000
0000
,  // measure 27
0100
0000
0000
0000
1000
0001
0000
1000
0001
0000
1000
0001
0000
0000
0100
0000
,  // measure 28
0020
0000
0000
0000
0130
0000
0000
0000
0001
0000
0000
1000
0000
0000
1000
0000
,  // measure 29
0200
0000
0000
0000
0310
0000
0000
0000
0001
0000
0000
0100
0000
0000
0100
0000
,  // measure 30
0010
0000
0000
0010
0000
0000
0010
0000
0000
0010
0000
0000
0010
0000
1000
0000
,  // measure 31
1002
0000
0000
0000
,  // measure 32
1003
0100
0010
0001
,  // measure 33
0001
0100
0010
1000
,  // measure 34
1000
0010
0100
0001
,  // measure 35
0001
0010
0100
1000
,  // measure 36
0001
1000
0100
0000
0010
0001
2001
0000
,  // measure 37
3010
0100
0010
0010
,  // measure 38
1000
0100
0010
0001
,  // measure 39
0100
0010
2002
0000
,  // measure 40
0000
0000
0000
0000
,  // measure 41
3000
0000
0003
0000
,  // measure 42
1000
0000
1100
0000
0100
1000
0001
0100
,  // measure 43
0001
0000
0011
0000
0010
0001
0100
0010
,  // measure 44
0020
0100
0100
0130
,  // measure 45
0010
1000
0001
1000
0200
0000
0300
0000
,  // measure 46
2002
0000
0000
0000
,  // measure 47
0000
0000
0000
0000
,  // measure 48
3003
0000
0000
0000
,  // measure 49
0000
0000
0000
0000
,  // measure 50
0001
0100
0001
0100
0001
1000
0001
1000
,  // measure 51
0001
0010
0001
0010
0100
0010
0100
0010
,  // measure 52
0001
0000
0000
1000
0000
0000
0010
0000
0000
1000
0000
0000
0001
0000
0000
0000
,  // measure 53
1000
0100
1000
0001
1000
0010
2000
0000
,  // measure 54
3001
0000
0000
0001
0000
0000
0100
0000
0000
0100
0000
0000
0010
0000
1000
0000
,  // measure 55
0100
0000
0000
0100
0000
0000
0010
0000
0000
0010
0000
0000
0001
0000
1000
0000
,  // measure 56
0001
0000
0000
0001
0000
0000
1000
0000
0000
1000
0000
0000
0010
0000
0010
0000
,  // measure 57
1000
0000
0000
1000
0000
0000
0001
0000
0020
0000
0000
0000
0100
0000
0030
0000
,  // measure 58
1000
0000
0000
1000
0000
0000
0010
0000
0000
0010
0000
0000
0100
0000
0001
0000
,  // measure 59
0010
0000
0000
0010
0000
0000
0100
0000
0200
0000
0000
0000
2300
0000
0000
0000
,  // measure 60
3002
0000
0000
0100
0003
0000
0010
0000
0000
0100
0000
0000
0001
0000
1000
0000
,  // measure 61
0200
0000
0000
0010
0300
0000
0001
0000
1000
0000
0000
0000
0020
0000
0000
0000
,  // measure 62
0230
0000
0000
0000
,  // measure 63
0301
1000
0100
0000
0010
0000
0001
0000
,  // measure 64
0200
0000
0000
0000
0000
0000
0000
0000
0010
0000
0000
0010
0300
0000
1000
0000
,  // measure 65
0001
0000
0100
0000
0001
0000
1000
0001
,  // measure 66
0200
0000
0000
0000
0000
0000
0000
0000
0010
0000
0000
0010
0300
0000
1000
0000
,  // measure 67
0001
1000
0010
0000
0010
0000
2000
0000
,  // measure 68
3002
0000
0003
0200
0000
0300
0002
0000
,  // measure 69
0023
0000
0030
2002
0000
0000
3003
0000
,  // measure 70
0020
0000
0000
0000
0030
0000
0200
0000
0000
1000
0000
0000
2300
0000
0000
0000
,  // measure 71
3001
0002
0000
0000
0000
0000
0000
0000
,  // measure 72
0003
0000
0000
0000
;
