#TITLE:Echo Of Forever;
#SUBTITLE:;
#ARTIST:kors k;
#TITLETRANSLIT:;
#SUBTITLETRANSLIT:;
#ARTISTTRANSLIT:;
#GENRE:HOUSE;
#CREDIT:Mew151;
#BANNER:echo of forever banner.png;
#BACKGROUND:echo of forever bg.png;
#LYRICSPATH:;
#CDTITLE:;
#MUSIC:1-19 Echo Of Forever.mp3;
#OFFSET:-0.150998;
#SAMPLESTART:35.707001;
#SAMPLELENGTH:15.111000;
#SELECTABLE:YES;
#BPMS:0.000000=135.000000
;
#STOPS:
;
#BGCHANGES:99999=-nosongbg-=1.000=0=0=0 // don't automatically add -songbackground-
;
#KEYSOUNDS:;
#ATTACKS:;

//---------------dance-single - ----------------
#NOTES:
     dance-single:
     :
     Beginner:
     3:
     0.322688,0.508332,0.221143,0.379102,0.000000,210.000000,28.000000,48.000000,0.000000,0.000000,0.000000,0.322688,0.508332,0.221143,0.379102,0.000000,210.000000,28.000000,48.000000,0.000000,0.000000,0.000000:
1000
0000
0001
0000
,
1000
0000
0001
0000
,
1000
0000
0001
0000
,
1000
0000
0001
0000
,
1000
0000
0100
0000
,
0010
0000
0001
0000
,
0010
0000
0100
0000
,
1000
0000
0100
0000
,
1001
0010
0000
0020
,
0000
0031
0000
0002
,
0000
0103
0000
0200
,
0000
1300
0000
1000
,
0100
0000
0100
0000
,
0010
0000
1000
0000
,
0001
0000
0100
0000
,
0010
0000
1000
0000
,
0001
0001
0001
0001
,
1000
0000
1000
0000
1000
0000
1000
0001
,
1000
0000
0001
1000
0001
0000
1000
0001
,
1000
0000
0010
0100
0010
0000
0000
0000
,
0011
0011
0100
0100
,
1010
1010
0100
0100
,
0011
0100
0011
0100
,
0002
2003
3002
2003
,
3010
0100
0001
1000
,
0002
0003
0001
0000
2000
3000
1000
0000
,
0001
0101
0001
1000
,
0100
0000
0010
0000
0002
0003
2000
3000
,
0220
0330
2001
0000
3010
0000
0100
0000
,
0001
1000
0100
0010
,
0101
0001
0101
0001
,
2000
3002
2003
3002
,
0103
1000
0010
0001
,
2000
3000
1000
0000
0001
0000
0100
0000
,
2002
3003
0220
0330
0001
0000
1000
0000
,
0100
0010
0001
0100
,
0001
0000
1000
0000
,
0001
0000
1000
0000
,
0001
0000
1000
0000
,
0001
0000
1000
0000
,
0001
0000
0010
0000
,
0100
0000
1000
0000
,
0100
0000
0010
0000
,
0001
0000
0010
0000
,
0010
0000
0000
0100
0000
0000
0010
0000
,
0000
0100
0000
0000
0001
0000
0000
0100
,
0000
0000
0001
0000
0000
0100
0000
0000
,
0020
0000
0030
0000
,
0001
0000
0000
0010
0000
0000
0100
0000
,
0000
0010
0000
0000
0100
0000
0000
1000
,
0000
0000
0001
1000
0001
0000
1000
0001
,
1000
0000
0001
1000
0001
0000
0000
0000
,
2200
3300
2200
3300
0100
0000
0100
0000
,
0011
0011
1000
0001
,
0100
1100
0001
1100
,
0002
0023
0230
2300
,
3001
1000
0001
0010
,
0200
0300
0100
0000
0010
0000
0001
0000
,
0220
0330
2002
3003
0000
0000
0100
0000
,
1000
0000
0001
0000
2200
3300
0022
0033
,
0210
0301
1000
0100
,
0010
0001
0100
0001
,
1000
0110
0001
0110
,
0002
2003
3002
0203
,
0310
0010
0010
0010
,
1000
0000
0001
0000
,
2002
0000
0000
0000
,
0000
0000
0000
3003
;

//---------------dance-single - ----------------
#NOTES:
     dance-single:
     :
     Easy:
     5:
     0.431003,0.517711,0.213245,0.387000,0.011847,306.000000,27.000000,49.000000,0.000000,1.000000,0.000000,0.431003,0.517711,0.213245,0.387000,0.011847,306.000000,27.000000,49.000000,0.000000,1.000000,0.000000:
1000
0100
0010
0001
,
0010
0100
1000
0001
,
0100
0010
1000
0100
,
0010
0100
0001
0100
,
1000
0000
0000
0001
0000
0000
1000
0000
0000
0000
0000
0000
0010
0000
0000
0000
,
1000
0000
0000
0100
0000
0000
0010
0000
0000
0000
0000
0000
0001
0000
0000
0000
,
1000
0000
0000
0001
0000
0000
1000
0000
0000
0000
0000
0000
0010
0000
0000
0000
,
0100
0000
0010
0000
1000
0001
1000
0001
,
0010
0010
0010
0020
,
0001
0001
0001
0032
,
0100
0100
0100
0203
,
1000
1000
1000
1300
,
0001
0000
0001
0000
1000
0001
1000
0000
,
0001
0000
0001
0000
1000
0001
1000
0000
,
0010
0000
0010
0000
0100
0010
0100
0000
,
0001
0100
0010
1000
,
0100
0010
0001
0010
,
1000
0010
0001
0100
,
1000
0001
1000
0001
1000
0001
1000
0001
,
1000
0001
1000
0001
1000
0000
0000
0000
,
0220
0330
0000
0000
0220
0330
0000
0000
0001
0000
0001
0000
0001
0000
0000
0000
,
2000
3000
0000
0000
2000
3000
0000
0000
0100
0000
0010
0000
0100
0000
0010
0000
,
0100
0101
0100
0101
,
2000
0000
3000
0100
1000
0100
1000
0000
,
0101
0000
0101
0000
1000
0100
1000
0000
,
0001
0010
1000
0010
,
0001
0000
0210
0000
0301
0001
0001
0000
,
1000
0001
0100
0000
1020
0000
0231
0000
,
0320
0000
0130
0000
0001
0100
0001
0100
,
0001
0000
1000
0000
0100
0010
0001
0000
,
0100
1100
0001
1100
,
0001
0000
0100
0000
0010
1000
0010
0000
,
1010
0000
0101
0000
0001
0010
0001
0000
,
2000
3000
0200
0300
0020
0030
0002
0003
,
0100
0010
0200
0000
0301
0000
1001
0000
,
0110
1001
0110
1002
,
1000
1000
1000
2003
,
0001
0001
0001
3002
,
1000
1000
1000
2003
,
0001
0001
3001
0100
,
0010
0100
0010
1000
,
0100
0001
0100
1000
,
0010
0100
0001
1000
,
0001
0100
0100
0001
,
1000
0000
0000
0001
0000
0000
1000
0000
,
0000
0010
0000
0000
0100
0000
0000
0010
,
0000
0000
1000
0000
0000
0100
0000
0000
,
0010
0000
0000
0000
,
0001
0000
0000
0100
0000
0000
0010
0000
,
0000
1000
0000
0000
0100
0000
0000
0010
,
0100
0010
0100
0010
0100
0010
0100
0010
,
0100
0010
0100
0010
0100
0000
0000
0000
,
2002
3003
0000
0000
0220
0330
0000
0000
0010
0000
0100
0000
0001
0000
0000
0000
,
0010
0000
0100
0000
1000
0100
1000
0100
,
0010
0101
0010
1100
,
0001
0100
0001
1000
0001
0100
0001
0000
,
0202
0303
0000
0000
0022
0033
0000
0000
1000
0000
0100
0000
1000
0000
0010
0000
,
0100
0001
0010
0000
0100
0000
1000
0000
,
0010
0010
0020
0000
0130
0000
0001
0000
,
0010
0001
0200
0320
,
2030
0000
3200
0000
1300
1000
1000
0000
,
0001
0000
0001
0000
0100
0010
1000
0001
,
0100
0011
0001
1010
,
0100
0000
0010
0000
0001
0100
0001
0000
,
1000
1000
1000
0000
0000
0001
0001
0000
,
0200
0320
2030
3020
,
0230
0302
0023
0230
,
2300
0000
3020
0000
0230
0300
2002
0000
,
0000
0000
0000
0000
,
3003
0000
0000
0000
;

//---------------dance-single - ----------------
#NOTES:
     dance-single:
     :
     Medium:
     7:
     0.555114,0.695613,0.221143,0.442286,0.260633,408.000000,28.000000,56.000000,0.000000,0.000000,0.000000,0.555114,0.695613,0.221143,0.442286,0.260633,408.000000,28.000000,56.000000,0.000000,0.000000,0.000000:
1000
0000
0000
0001
0000
0000
1000
0000
0000
0000
0100
0000
0100
0000
0000
0000
,
0010
0000
0000
0100
0000
0000
0010
0000
0000
0000
0100
0000
0100
0000
0000
0000
,
0001
0000
0000
0100
0000
0000
1000
0000
0000
0000
0001
0000
0100
0000
0000
0000
,
0010
1000
0100
0010
0100
0010
0001
0100
,
0010
0000
0000
0100
0000
0000
0010
0000
0000
0000
1000
0000
0100
0000
0010
0000
,
0001
0000
0000
0010
0000
0000
0001
0000
0000
0000
0010
0000
0100
0000
1000
0000
,
0001
0000
0000
0100
0000
0000
1000
0000
0000
0000
0100
0000
0010
0000
0001
0000
,
0010
1000
0100
0001
0100
0010
0001
0000
,
0010
0010
0010
0020
,
0001
0001
0001
0032
,
0100
0100
0100
0203
,
1000
1000
1000
1300
,
1001
0000
0000
0010
0000
0000
0100
0000
0000
0010
0000
0000
1000
0000
0001
0000
,
0100
0000
0000
0010
0000
0000
0001
0000
0000
0010
0000
0000
0100
0000
1000
0000
,
0100
0000
0000
0001
0000
0000
0010
0000
0000
0001
0000
0000
1000
0000
0001
0000
,
0001
0000
0000
1000
0000
0000
0001
0000
1000
0000
0001
0000
1000
0000
0001
0000
,
0010
0100
0010
0100
0010
0100
0010
0100
,
0010
0100
0010
0100
0010
0100
0010
0100
,
0010
0100
0010
0100
0010
0100
0010
0100
0010
0100
0010
0100
0010
0100
0010
0100
,
0010
0100
0010
0100
0010
0100
0010
0100
0010
0000
0000
0000
0000
0000
0000
0000
,
0022
0033
0000
0022
0033
0000
1000
0000
0100
0000
0001
0000
0100
0000
0000
0000
,
2000
3000
0000
2000
3000
0000
0001
0000
0100
0000
0001
0000
0100
0000
0001
0000
,
0100
0011
0100
1100
,
0002
0000
0000
0000
0000
0000
1003
0100
1000
0000
0010
0000
0100
0000
0000
0000
,
0202
0303
0000
0202
0303
0000
0010
0000
0100
0000
0001
0000
1000
0000
0100
1000
,
0100
0001
0100
1000
0100
0001
0100
1000
,
0202
0303
0000
0000
2020
3030
0000
0000
0000
0000
0010
0000
0100
0000
0010
0000
,
0000
0000
1000
0000
0001
0000
0010
0000
0200
0000
0000
0000
2300
0000
3010
0100
,
0002
0000
0013
0000
0100
0010
0001
1000
,
0100
0000
0000
0100
0000
0000
0100
0000
1000
0000
0100
0000
0010
0000
0001
0000
,
0100
0011
0100
1010
,
0002
0000
0000
0000
0003
0000
0010
0100
0010
0000
0001
0000
2000
0000
3000
0000
,
0202
0303
0000
0022
0033
0000
2200
3300
0000
0000
0001
0000
1000
0000
0000
0000
,
0001
0010
1000
0010
0001
0100
0020
0030
,
2200
3300
0000
0000
0100
0000
1000
0000
0100
0000
0010
0000
0001
0000
0000
0110
,
0000
0000
0100
0000
0000
1001
0000
0000
1000
0000
0000
0100
0010
0000
0000
0000
,
0001
0000
0000
1000
0000
0000
0001
0000
0000
0000
0010
0000
0010
0000
0000
0000
,
0100
0000
0000
0010
0000
0000
0100
0000
0000
0000
0010
0000
0010
0000
0000
0000
,
1000
0000
0000
0010
0000
0000
0001
0000
0000
0000
1000
0000
0010
0000
0000
0000
,
0100
0001
0010
0100
0010
0001
0100
0010
,
0100
0000
0000
0010
0000
0000
1000
0000
0000
0000
1000
0000
0010
0000
1000
0000
,
0010
0000
0000
0100
0000
0000
1000
0000
0000
0000
0100
0000
0001
0000
0010
0000
,
1000
0000
0000
0010
0000
0000
0001
0000
0000
0000
0010
0000
0100
0000
1000
0000
,
0100
0010
0001
1000
0010
0100
1000
0000
,
1001
0000
0000
0100
0000
0000
0010
0000
,
0000
1000
0000
0000
0001
0000
0000
0100
,
0000
0000
1000
0000
0000
0100
0000
0000
,
0010
0000
0000
0000
,
1000
0000
0000
0010
0000
0000
0100
0000
,
0000
0001
0000
0000
1000
0000
0000
0100
,
0010
0100
0010
0100
0010
0100
0010
0100
0010
0100
0010
0100
0010
0100
0010
0100
,
0010
0100
0010
0100
0010
0100
0010
0100
0020
0000
0030
0000
0000
0000
0000
0000
,
2020
3030
0000
2020
3030
0000
0001
0000
0100
0000
0010
0000
1000
0000
0000
0000
,
0002
0003
0000
0002
0003
0000
0001
0000
0100
0000
0001
0000
0010
0000
0000
0000
,
0001
1100
1000
0101
,
0020
0000
0000
0000
0000
0000
1030
0100
1000
0000
0001
0000
0100
0000
0000
0000
,
0220
0330
0000
2002
3003
0000
0100
0000
0010
0000
0001
0000
0010
0000
1000
0001
,
1000
0010
0001
0010
1000
0100
0001
0100
,
2000
3000
0000
0002
0003
0000
0100
0000
0010
0000
1000
0000
0100
0000
0000
0000
,
0000
0010
0001
0000
0100
0000
0010
0000
2000
0000
0000
0000
3002
0000
1003
0010
,
2000
0000
3020
0000
0130
0001
0100
0010
,
0100
0000
0000
0100
0000
0000
0001
0000
0010
0000
1000
0000
0010
0000
0100
0000
,
1000
0110
0001
0110
,
2000
0000
0000
0000
3000
0000
0001
0100
0001
0000
1000
0000
0100
0000
0000
0000
,
0022
0033
0000
0022
0033
0000
0100
0000
0000
0000
0010
0000
0100
0000
0000
0000
,
0001
0100
1000
0100
,
0002
1000
1000
1000
,
1000
1000
1000
1003
;

//---------------dance-single - ----------------
#NOTES:
     dance-single:
     :
     Hard:
     9:
     0.719842,0.749121,0.276429,0.513367,0.797694,538.000000,35.000000,65.000000,0.000000,0.000000,0.000000,0.719842,0.749121,0.276429,0.513367,0.797694,538.000000,35.000000,65.000000,0.000000,0.000000,0.000000:
1000
0001
0000
0100
0000
0010
0000
1000
0000
0100
0010
0000
0001
0000
0001
0100
,
0001
0100
0000
0010
0000
1000
0000
0100
0000
0010
0100
0000
0001
0000
0100
1000
,
0010
0100
0000
0001
0000
0010
0000
0001
0000
1000
0100
0000
0010
0000
0001
0010
,
0100
1000
0000
0100
0000
0010
0000
0001
0000
0010
0100
0000
0001
0000
0100
1000
,
0100
1000
0000
0010
0000
0100
0000
0010
0000
1000
0001
0000
0010
0000
0100
1000
,
0100
0001
0000
0100
0000
1000
0000
0100
0000
0010
0001
0000
0100
0000
0001
0100
,
0001
1000
0000
0100
0000
0010
0000
0100
0000
0001
0100
0000
0010
0000
0100
0010
,
0100
1000
0000
0001
0000
0100
0000
0010
0000
0100
0010
0000
2002
0000
3003
0000
,
0100
0100
0100
0200
,
0001
0001
0001
0302
,
1000
1000
1000
2003
,
0010
0010
0010
3010
,
0101
0000
0000
1000
0000
0000
0001
0000
0000
1000
0001
0000
1000
0000
0100
0000
,
0001
0000
0000
0100
0000
0000
1000
0000
0000
0100
1000
0000
0100
0000
0010
0000
,
0001
0000
0000
0100
0000
0000
0010
0000
0000
1000
0100
0000
1000
0000
0100
0000
,
0001
0000
0000
0100
0000
0000
0010
0000
0000
0001
0100
0000
0001
0000
0100
0000
,
0010
0000
0100
0000
0010
0000
0100
0010
0100
0000
0001
0000
1000
0000
0001
1000
,
0001
0000
0010
0000
0100
0000
1000
0100
1000
0000
0100
0000
0010
0000
0001
0010
,
0100
1000
0100
0010
0001
0010
0100
1000
0100
0010
0001
0100
0010
1000
0010
0100
,
0001
0010
0100
1000
0100
0010
0001
0100
2002
3003
0000
0000
0000
0000
0000
0000
,
1000
0001
0010
0100
0000
0000
0010
0100
0000
0000
1000
0100
1000
0000
0001
0000
,
2200
3300
0000
0202
0303
0000
0010
0000
1000
0001
1000
0010
0100
0000
0020
0000
,
0030
0000
0100
1000
0100
0000
0001
0000
0000
0000
0100
0001
0100
0000
0001
0000
,
0102
0000
0000
0000
0003
0000
0010
0100
1000
0000
0010
0000
0200
0000
0300
0000
,
0202
0303
0000
2200
3300
0000
0010
0000
0100
0000
0010
1000
0001
0000
1000
0001
,
1000
0100
0010
0001
0200
0000
0310
0000
0100
0000
0010
1000
0100
0000
0010
0000
,
0001
0000
0000
0200
0000
0000
0301
0000
0100
0000
0010
0000
1000
0100
1000
0000
,
0000
0001
0100
0000
0010
0000
1000
0000
0220
0000
0330
0000
2002
3003
1000
0100
,
0020
0030
0000
2200
3300
0000
0001
1000
0001
0000
0100
0010
0100
0000
0001
0000
,
0101
0000
0000
0110
0000
0000
0000
0000
1000
0100
0010
0001
0010
0000
0200
0000
,
1300
0000
1000
0010
1000
0000
0001
0000
0000
0000
1000
0010
1000
0000
0001
0000
,
0200
0000
0000
0000
0300
0000
0001
0010
0100
0000
0010
0000
0002
0000
0003
0000
,
1100
0000
0000
0011
0000
0000
0110
0000
1000
0001
1000
0000
0110
0000
0001
0000
,
0100
1000
0100
0001
0200
0300
0020
0030
0100
0001
0100
0000
1000
0100
0001
1000
,
0010
0001
0010
0000
1100
0000
0001
0100
0001
0000
0010
0000
1100
0000
0000
1100
,
0000
0000
1100
0000
0000
1100
0000
0000
2100
0000
0000
0000
3000
0000
0000
0000
,
0001
1000
0000
0010
0000
0100
0000
0001
0000
0010
0100
0000
1000
0000
1000
0010
,
1000
0010
0000
0100
0000
0001
0000
0010
0000
0100
0010
0000
1000
0000
0010
0001
,
0100
0010
0000
1000
0000
0100
0000
1000
0000
0001
0010
0000
0100
0000
1000
0100
,
0010
0001
0000
0010
0000
0100
0000
1000
0000
0100
0010
0000
1000
0000
0010
0001
,
0010
0001
0000
0100
0000
0010
0000
0100
0000
0001
1000
0000
0100
0000
0010
0001
,
0010
1000
0000
0010
0000
0001
0000
0010
0000
0100
1000
0000
0010
0000
1000
0010
,
1000
0001
0000
0010
0000
0100
0000
0010
0000
1000
0010
0000
0100
0000
0010
0100
,
0010
0001
0000
1000
0000
0010
0000
0100
0000
0010
0100
0000
0001
0000
0000
0000
,
0001
0000
0000
0010
0000
0000
1000
0000
,
0000
0010
0000
0000
0001
0000
0000
0100
,
0000
0000
1000
0000
0000
0100
0000
0000
,
0001
0000
0000
0000
,
1000
0000
0000
0100
0000
0000
0010
0000
,
0000
0001
0000
0000
0100
0000
0000
0010
,
1000
0100
1000
0100
1000
0100
1000
0100
1000
0010
1000
0010
1000
0010
1000
0010
,
1000
0010
0100
0001
0100
0001
0100
0001
0100
0000
0000
0000
0000
0000
0000
0000
,
2200
3300
0000
0022
0033
0000
1000
0100
1000
0000
0001
0100
0010
0000
1000
0000
,
0020
0030
0000
0020
0030
0000
1000
0000
0100
0010
0100
0010
0001
0100
0010
0000
,
0000
0000
1000
0100
1000
0000
0001
0000
0000
0000
1000
0100
1000
0000
0001
0000
,
0200
0000
0000
0000
0000
0000
0310
1000
0010
0000
0100
0000
1000
0000
0000
0000
,
2200
3300
0000
0202
0303
0000
0220
0330
0000
0000
1000
0001
1000
0000
0001
0100
,
1000
0001
0010
1000
0001
0000
0001
0010
0100
0000
1000
0000
0001
0000
0100
0000
,
0022
0033
0000
2200
3300
0000
0001
0100
0001
0000
1000
0010
0001
0000
0010
0000
,
0000
1000
0100
0000
0001
0000
0100
0000
0020
0000
0000
0000
0230
0300
0100
0010
,
0002
0000
0000
1000
0003
0000
0001
0100
0001
0000
1000
0100
0010
0000
0010
0000
,
0202
0303
0000
0022
0033
0000
1000
0000
0001
0100
0010
1000
0100
0010
0001
0000
,
1000
0000
0010
0001
0010
0000
1000
0000
0000
0000
0010
0001
0010
0000
1000
0000
,
0002
0000
0000
0000
0000
0000
1003
0100
1000
0000
0010
0000
0100
0000
0000
0000
,
2020
3030
0000
0202
0303
0000
0220
0330
0000
0000
1000
0000
0010
0000
1000
0000
,
0001
0010
1000
0010
0001
0100
1000
0100
,
0020
0000
0000
0000
,
0000
0000
0000
0030
;
