#TITLE:Dark Fall;
#SUBTITLE:;
#ARTIST:黒龍;
#TITLETRANSLIT:;
#SUBTITLETRANSLIT:;
#ARTISTTRANSLIT:Kokuryu;
#GENRE:;
#CREDIT:;
#BANNER:[Round 1 Singles] - Dark Fall.png;
#BACKGROUND:[Round 1 Singles] - Dark Fall-bg.png;
#LYRICSPATH:;
#CDTITLE:cdtitle.png;
#MUSIC:[Round 1 Singles] - Dark Fall.mp3;
#OFFSET:-0.533000;
#SAMPLESTART:66.963730;
#SAMPLELENGTH:12.000000;
#SELECTABLE:YES;
#BPMS:0.000000=202.000000
;
#STOPS:28.000000=0.891000,
217.000000=0.891000,
342.000000=0.891000
;
#BGCHANGES:;
#KEYSOUNDS:;
#ATTACKS:;

//---------------dance-single - ----------------
#NOTES:
     dance-single:
     :
     Hard:
     10:
     0.757457,0.882165,0.179881,0.394025,0.428288,552.000000,21.000000,46.000000,0.000000,0.000000,0.000000,0.757457,0.882165,0.179881,0.394025,0.428288,552.000000,21.000000,46.000000,0.000000,0.000000,0.000000:
0000
0000
0000
0000
,
0000
0000
0000
0000
,
0000
0000
0000
0000
,
0000
0000
0000
0000
,
1001
0100
0000
0100
,
0000
0000
0100
0000
0001
0010
1000
0010
,
0001
0000
1000
0001
0100
1000
0100
0001
,
1000
0000
0000
0000
0001
0000
0000
0001
1000
0000
0000
1000
0100
0000
0000
0100
,
1000
0000
0010
0000
1000
0000
0000
1000
0100
0000
0000
0100
0010
0000
0000
0010
,
1000
0000
0010
0000
0001
0000
0000
0001
0100
0000
0000
0100
0010
0000
0000
0010
,
0001
0000
0010
0000
1000
0000
0000
1000
0001
0000
0000
0001
0100
0000
0000
0100
,
0001
0000
0010
0000
0002
0000
0000
0000
0100
0000
0000
0000
1003
0000
0000
1000
,
0010
0000
0010
0000
0200
0000
0000
0000
1000
0000
0000
0000
0301
0000
0000
0001
,
1000
0000
0010
0000
2000
0000
0000
0000
0100
0000
0000
0000
0001
3000
0000
0001
,
0010
0010
0200
0000
0001
0000
1300
0000
,
0000
0000
0000
0000
0001
0000
0100
0000
1000
0000
0100
0000
0010
0000
1000
0001
,
0000
1000
0001
0000
1000
0000
0100
0000
0001
0000
0100
0000
0010
0000
0001
1000
,
0000
0001
1000
0000
0001
0000
0100
0000
0010
0000
0001
0000
0010
0000
1000
0001
,
0000
1000
0001
0000
1000
0000
0100
0000
0010
0000
1000
0000
0010
0000
0001
1000
,
0000
0001
1000
0000
0001
0000
0000
0000
0000
0000
0000
0000
0000
0000
1000
0001
,
1000
0001
1000
0001
1000
0000
0000
0000
0000
0000
0000
0000
1001
0000
0000
0000
,
0000
0000
0000
0000
1000
0000
0001
0000
0000
0000
0001
0000
0000
0000
0001
1000
,
0001
1000
0001
1000
0001
0000
0000
0000
0000
0000
0000
0000
0000
0000
0000
0000
,
0000
1002
0100
0023
,
1000
0000
0032
0000
1003
0010
0020
0000
,
0001
0000
1030
0100
0020
0000
0031
0100
,
0020
0000
0001
0000
1030
0001
0002
0000
,
0013
2001
0100
3020
,
0001
0000
2030
0000
3001
0010
0020
0000
,
1000
0000
0031
0100
0020
0000
1030
0100
,
0020
0000
1000
0000
0031
1000
2000
0000
,
3010
0000
0001
0100
1000
0100
0010
1000
,
0001
0001
0010
0100
0001
0100
1000
0000
,
1100
0000
1000
0100
0001
0100
0010
0001
,
1000
1000
0010
0100
1000
0100
0001
0000
,
0101
1002
0100
0000
,
0103
2001
0100
0000
,
3100
0000
0000
0000
1001
0000
0000
0000
0100
0000
0000
0000
0100
0000
0001
1000
,
0001
1000
0001
1000
0001
0000
0000
0000
0000
0000
0000
0000
0000
0000
0000
0000
,
0000
2002
0000
0000
,
3000
0000
0023
0000
0000
0230
0000
0000
,
2300
0002
0000
0000
,
3000
0000
0023
0000
0000
0230
0000
0000
,
2300
0002
0000
0000
,
3000
0000
0023
0000
0000
0230
0000
0000
,
2300
0002
0000
0000
,
0000
3003
0000
0000
,
0000
0000
1001
0000
1000
0010
0000
1000
,
0100
0000
0110
0000
0100
1000
0000
1000
,
0001
0000
1001
0000
0001
0010
0000
0001
,
0100
0000
0110
0000
0100
0001
0000
0001
,
1000
2001
0100
0000
,
3100
1002
0100
0000
,
0103
0000
0000
0000
1001
0000
0000
0000
0100
0000
0000
0000
0100
0000
1000
0001
,
1000
0001
1000
0001
1000
0000
0000
0000
0001
0000
0000
0001
0100
0000
0000
0100
,
1000
0000
0000
1000
0100
0000
0010
0000
1000
0000
0000
1000
0100
0000
0000
0100
,
0001
0000
0000
0001
0100
0000
0010
0000
0001
0000
0000
0001
0100
0000
0000
0100
,
0010
0000
0000
0010
0001
0000
0010
0000
1000
0000
0000
1000
0100
0000
0000
0100
,
0010
0000
0000
0010
1000
0000
0010
0000
0001
0000
0000
0001
0100
0000
0000
0100
,
0010
0000
0000
0010
1000
0000
0001
0000
1000
0000
0000
1000
0100
0000
0000
0100
,
0010
0000
0000
0010
0001
0000
1000
0000
0001
0000
0000
0001
0100
0000
0000
0100
,
1000
0000
0000
1000
0100
0000
0010
0000
1000
0000
0000
1000
0100
0000
0000
0100
,
0001
0000
0000
0001
0100
0000
0010
0000
0001
0000
0100
0010
0100
0000
0010
0100
,
0010
0000
1000
0001
0000
1000
0001
0000
1000
0000
0100
0010
0100
0000
0010
0100
,
0010
0000
0001
1000
0000
0001
1000
0000
0001
0000
1000
0100
0010
0000
0100
0010
,
0001
0000
1000
0001
0000
1000
0001
0000
1000
0000
0001
0100
0010
0000
0100
0010
,
1000
0000
0001
1000
0000
0001
1000
0000
0001
0000
0000
0000
0000
0000
0000
0000
,
0000
0000
1000
0001
1000
0001
1000
0001
1000
0000
0000
0000
0000
0000
0000
0000
,
1001
0000
0000
0000
1000
0100
0001
0100
,
1000
0000
0001
1000
0001
1000
0001
1000
0001
0000
0000
0000
0000
0000
0000
0000
,
0000
0000
0000
0000
1000
0100
0001
0100
,
1000
0100
0001
0100
1000
0100
0001
0100
,
1000
0001
1000
1000
0001
0100
1000
0100
,
0001
0100
1000
0100
0001
0100
1000
0100
,
0001
1000
0001
000F
1000
0100
0001
0100
,
1000
0000
0010
0000
0100
0000
0100
0000
0100
0000
0001
0000
0010
0100
0010
0000
,
0001
1000
0001
1000
0001
0100
1000
0100
,
0001
0000
0010
0000
0100
0000
0100
0000
0100
0000
1000
0000
0010
0100
0010
0000
,
1000
0000
0001
0000
1000
0000
0001
0000
1000
0000
0100
0000
0010
0100
0010
0000
,
0100
0000
1000
0000
0010
0100
0010
0100
0010
0000
1000
0000
0001
0010
0100
0000
,
0010
0000
0010
0000
0001
0000
1000
0000
0001
0000
0100
0000
0010
0100
0010
0000
,
0100
0000
0001
0000
0010
0100
0010
0100
0010
0000
0001
0000
1000
0010
0100
0000
,
0010
0010
1000
0001
1000
0100
0000
0100
,
0000
0100
0000
0100
0000
0010
0000
0010
,
0000
0010
0000
0010
0001
0100
1000
0100
,
0001
0000
1000
0001
1000
0001
1000
0001
1000
0000
0000
0000
2001
0000
0000
0000
,
0100
0000
3002
0000
1003
0100
0200
0000
,
0001
2300
3010
1002
,
0100
0000
2003
0000
3001
0100
0200
0000
,
1000
0302
0013
2001
,
0000
0000
0000
3002
,
0000
0000
1000
0000
1000
0000
1003
0100
,
0010
0100
0010
0100
0010
0000
0001
0000
0100
0010
0100
0000
0001
0000
0000
0010
,
0000
0000
0001
0000
0000
1000
0000
0010
0100
0000
0100
0000
0000
0000
0000
0000
;

//---------------dance-single - ----------------
#NOTES:
     dance-single:
     :
     Medium:
     8:
     0.628971,0.641575,0.162749,0.411156,0.119921,447.000000,19.000000,48.000000,0.000000,0.000000,0.000000,0.628971,0.641575,0.162749,0.411156,0.119921,447.000000,19.000000,48.000000,0.000000,0.000000,0.000000:
0000
0000
0000
0000
,
0000
0000
0000
0000
,
0000
0000
0000
0000
,
0000
0000
0000
0000
,
1001
0010
0000
0010
,
0000
0000
0010
0000
1000
0100
0001
0100
,
1000
0000
0001
1000
0010
0001
0010
1000
,
0001
0000
0000
0000
1000
0000
0100
0000
0001
0000
0000
0000
0100
0000
0000
1000
,
0000
0000
1000
0000
0001
0000
0100
0000
1000
0000
0000
0000
0100
0000
0000
0001
,
0000
0000
0001
0000
1000
0000
0100
0000
0010
0000
0000
0000
0100
0000
0000
1000
,
0000
0000
1000
0000
0001
0000
0100
0000
0010
0000
0000
0000
0100
0000
0000
0001
,
0000
0000
0001
0000
2000
0000
0000
0000
0010
0000
0000
0000
3100
0000
0000
1000
,
0000
0000
1000
0000
0002
0000
0000
0000
0010
0000
0000
0000
0103
0000
0000
0100
,
0000
0000
0001
0000
0020
0000
0000
0000
1000
0000
0000
0000
0130
0000
0000
0100
,
0000
1000
0020
0000
0001
0000
0130
0000
,
0000
0000
0000
0000
0001
0000
0010
0000
0100
0000
0000
0000
0010
0000
0000
0010
,
0000
0000
0001
0000
1000
0000
0010
0000
0100
0000
0000
0000
0010
0000
0000
0010
,
0000
0000
1000
0000
0001
0000
0010
0000
0001
0000
0000
0000
1000
0000
0000
0100
,
0000
0000
0100
0000
1000
0000
0010
0000
1000
0000
0000
0000
0001
0000
0000
0100
,
0000
0100
0001
0000
0000
0000
1000
0001
,
1000
0001
1000
0000
0000
0000
1001
0000
,
0000
0000
0001
1000
0000
1000
0000
1000
,
0001
1000
0001
0000
0000
0000
0000
0000
,
0000
2001
0100
3020
,
0001
0000
2030
0000
3001
0010
0020
0000
,
1000
0000
0031
0100
0020
0000
1030
0100
,
0020
0000
1000
0000
0031
1000
2000
0000
,
3010
1002
0100
0023
,
1000
0000
0032
0000
1003
0010
0020
0000
,
0001
0000
1030
0100
0020
0000
0031
0100
,
0020
0000
0001
0000
1030
0001
0002
0000
,
0013
0000
0000
0000
1001
0000
0000
0000
1000
0000
0100
0000
0010
0000
0000
0010
,
0000
0100
1000
1000
0001
0100
0010
0000
,
0110
0000
0000
0000
1001
0000
0000
0000
0001
0000
0100
0000
0010
0000
0000
0010
,
0000
0100
0001
0001
1000
0100
0010
0000
,
0110
2001
0100
0000
,
3100
1002
0100
0000
,
0103
0000
1001
0000
1000
0000
0001
1000
,
0001
1000
0001
0000
0000
0000
0000
0000
,
0000
2002
0000
0000
,
0003
0000
3020
0000
0000
0230
0000
0000
,
0302
2000
0000
0000
,
0003
0000
3020
0000
0000
0230
0000
0000
,
0302
2000
0000
0000
,
0003
0000
3020
0000
0000
0230
0000
0000
,
0302
2000
0000
0000
,
0000
3003
0000
0000
,
0000
2010
0100
0000
,
0100
3002
0100
0000
,
0103
0012
0100
0000
,
0100
2003
0100
0000
,
3100
0000
0001
0100
0010
0000
0010
0100
,
0001
0000
1000
0100
0010
0000
0010
0100
,
1000
0000
1001
0000
0001
0000
1000
0001
,
1000
0001
1000
0000
0001
0100
1000
0000
,
0100
0000
0000
0100
0000
0000
0001
0000
1000
0000
0100
0000
0001
0000
0000
0000
,
0100
0000
0000
0100
0000
0000
1000
0000
0001
0000
0100
0000
0010
0000
0000
0000
,
0100
0000
0000
0100
0000
0000
0001
0000
1000
0000
0100
0000
0010
0000
0000
0000
,
0100
0000
0000
0100
0000
0000
1000
0000
0001
0000
0100
0000
0010
0000
0100
0000
,
0001
0000
0000
0001
0000
0000
0001
0000
1000
0000
0100
0000
0010
0000
0100
0000
,
1000
0000
0000
1000
0000
0000
1000
0000
0001
0000
0100
0000
1000
0000
0100
0000
,
0001
0000
0000
0001
0000
0000
0001
0000
1000
0000
0100
0000
0001
0000
0100
0000
,
1000
0000
0000
1000
0000
0000
1000
0000
0001
0000
0100
0000
0010
0000
0100
0000
,
0010
0000
0000
0010
0100
0000
0001
0000
1000
0000
0100
0000
0010
0000
0100
0000
,
0010
0000
0000
0010
0100
0000
1000
0000
0001
0000
0100
0000
0001
0000
0100
0000
,
0001
0000
0000
0001
1000
0000
0010
0000
1000
0000
0100
0000
1000
0000
0100
0000
,
1000
0000
0000
1000
0001
0000
0010
0000
0001
0000
0000
0000
0000
0000
0000
0000
,
1000
0001
1000
0001
1000
0000
0000
0000
,
1001
0000
0000
0000
0001
0100
1000
0100
,
0001
1000
0001
1000
0001
0000
0000
0000
,
0000
0000
0000
0000
0001
0100
0010
0000
,
0001
0010
1000
0000
1000
0100
0001
0000
,
0001
0100
1000
0001
1000
0100
0010
0000
,
1000
0010
0001
0000
0001
0100
1000
0000
,
1000
0100
0001
F000
0001
0100
1000
0100
,
0001
0100
1000
0100
0001
0100
1000
0100
,
0001
1000
0001
0001
1000
0100
0001
0100
,
1000
0100
0001
0100
1000
0100
0001
0100
,
1000
0001
1000
1000
0001
0000
0001
0000
,
0001
0001
0001
0001
,
1000
0001
1000
0001
1000
0000
1000
0000
,
1000
1000
1000
1000
,
0001
1000
0001
1000
0001
0100
0000
0100
,
0000
0100
0000
0100
0000
0010
0000
0010
,
0000
0010
0000
0010
1000
0100
0001
0100
,
1000
0001
1000
0001
1000
0000
1002
0000
,
0100
0000
2003
0000
3001
0100
0200
0000
,
1000
0302
0013
2001
,
0100
0000
3002
0000
1003
0100
0200
0000
,
0001
2300
3010
1002
,
0000
0000
0000
2003
,
0000
0000
0001
0000
0001
0000
3001
0100
,
1000
0000
0000
0000
1000
0000
0100
0000
0001
0000
0000
0000
1000
0000
0000
0100
,
0000
0000
1000
0000
0000
0001
0000
0100
0010
0000
0010
0000
0000
0000
0000
0000
;

//---------------dance-single - ----------------
#NOTES:
     dance-single:
     :
     Easy:
     6:
     0.523734,0.560628,0.394025,0.325499,0.034263,344.000000,46.000000,38.000000,0.000000,0.000000,0.000000,0.523734,0.560628,0.394025,0.325499,0.034263,344.000000,46.000000,38.000000,0.000000,0.000000,0.000000:
// measure 0
0000
0000
0000
0000
,  // measure 1
0000
0000
0000
0000
,  // measure 2
0000
0000
0000
0000
,  // measure 3
0000
0000
0000
0000
,  // measure 4
1002
0100
0000
0103
,  // measure 5
2001
0100
0000
3100
,  // measure 6
1001
0000
0001
1000
0001
1000
0001
1000
,  // measure 7
0001
1000
0001
0100
,  // measure 8
0101
0001
1000
0100
,  // measure 9
1100
1000
0100
0010
,  // measure 10
0011
0001
0100
0010
,  // measure 11
1010
2001
0010
3001
,  // measure 12
0011
1002
0010
1003
,  // measure 13
1001
0201
1000
0310
,  // measure 14
1001
1200
0001
0310
,  // measure 15
0000
0001
0100
0010
,  // measure 16
1000
0001
0010
0100
,  // measure 17
1000
0001
1000
0000
0100
0000
0010
0000
,  // measure 18
0001
1000
0010
0100
,  // measure 19
0001
1000
0001
0000
0000
0000
0000
0000
,  // measure 20
0000
1001
0000
1001
,  // measure 21
0000
0100
0100
0100
,  // measure 22
0100
1001
0000
0000
,  // measure 23
0000
0001
0100
1000
,  // measure 24
0100
0000
0001
0000
1000
0001
1000
0000
,  // measure 25
1001
1000
0100
0001
,  // measure 26
0100
0000
1000
0000
0001
1000
0001
0000
,  // measure 27
1001
0001
0100
0010
,  // measure 28
0100
0000
0001
0000
1000
0001
1000
0000
,  // measure 29
1001
1000
0100
0010
,  // measure 30
0100
0000
1000
0000
0001
1000
0001
0000
,  // measure 31
1001
0000
0001
0100
0010
0000
0001
0100
,  // measure 32
0010
0000
0001
0100
0010
0000
0110
0000
,  // measure 33
1001
0000
1000
0100
0010
0000
1000
0100
,  // measure 34
0010
0000
1000
0100
0010
0000
0110
0000
,  // measure 35
1001
1002
0100
0000
,  // measure 36
0103
2001
0100
0000
,  // measure 37
3100
1001
0100
0000
,  // measure 38
0100
1001
0000
0000
,  // measure 39
0000
2002
0000
0000
,  // measure 40
3000
0000
0023
0000
0000
0230
0000
0000
,  // measure 41
2300
0002
0000
0000
,  // measure 42
3000
0000
0023
0000
0000
0230
0000
0000
,  // measure 43
2300
0002
0000
0000
,  // measure 44
3000
0000
0023
0000
0000
0230
0000
0000
,  // measure 45
2300
0002
0000
0000
,  // measure 46
0000
3003
0000
0000
,  // measure 47
0000
2001
0100
0000
,  // measure 48
0100
3002
0100
0000
,  // measure 49
0103
1002
0100
0000
,  // measure 50
0100
2003
0100
0000
,  // measure 51
3100
0012
1000
0000
,  // measure 52
1003
2010
0001
0000
,  // measure 53
3001
1001
0100
0000
,  // measure 54
0100
1001
0001
0100
,  // measure 55
0010
0000
0000
0010
0000
0000
0010
0000
1000
0000
0000
0000
0100
0000
0000
0000
,  // measure 56
0010
0000
0000
0010
0000
0000
0010
0000
0001
0000
0000
0000
0100
0000
0000
0000
,  // measure 57
1000
0000
0000
0100
0000
0000
0001
0000
1000
0000
0000
0000
0100
0000
0000
0000
,  // measure 58
0001
0000
0000
0100
0000
0000
1000
0000
0001
0000
0000
0000
0100
0000
0000
0000
,  // measure 59
0001
0000
0000
0001
0000
0000
0001
0000
1000
0000
0000
0000
0100
0000
0000
0000
,  // measure 60
1000
0000
0000
1000
0000
0000
1000
0000
0001
0000
0000
0000
0010
0000
0000
0000
,  // measure 61
0001
0000
0000
0001
0000
0000
0001
0000
1000
0000
0000
0000
0010
0000
0000
0000
,  // measure 62
1000
0000
0000
1000
0000
0000
1000
0000
0001
0000
0000
0000
0100
0000
0000
0000
,  // measure 63
1000
0100
0001
0010
,  // measure 64
0100
1000
0001
0001
1000
0000
0100
0000
,  // measure 65
0001
0100
1000
0010
,  // measure 66
0100
0001
1000
1000
0001
0000
0000
0000
,  // measure 67
0000
0000
1001
0000
,  // measure 68
0000
0000
1001
0100
,  // measure 69
0100
0100
1001
0000
,  // measure 70
0000
0000
1000
0100
,  // measure 71
0001
0100
0010
0001
,  // measure 72
1000
0001
1000
1000
0001
0000
0100
0000
,  // measure 73
1000
0100
0010
1000
,  // measure 74
0001
1000
0001
000F
1000
0000
0100
0000
,  // measure 75
0001
0100
1000
0001
,  // measure 76
1000
0001
1000
1000
0001
0000
0100
0000
,  // measure 77
1000
0100
0001
1000
,  // measure 78
0001
1000
0001
0001
1000
0000
1000
0000
,  // measure 79
1000
1000
1000
1000
,  // measure 80
0001
1000
0001
1000
0001
0000
0001
0000
,  // measure 81
0001
0001
0001
0001
,  // measure 82
1000
0001
1000
0001
1000
0100
0000
0100
,  // measure 83
0000
0100
0000
0100
0000
0010
0000
0010
,  // measure 84
0000
0010
0000
0010
0001
0000
1001
0000
,  // measure 85
0100
0100
1001
2001
,  // measure 86
0100
3020
0001
2030
,  // measure 87
0100
3002
0013
1002
,  // measure 88
0100
0023
1000
0032
,  // measure 89
0100
2003
3010
2001
,  // measure 90
0000
0000
0000
3002
,  // measure 91
0000
0000
1000
0000
1000
0000
1003
0100
,  // measure 92
0001
0000
0001
0100
1000
0000
1001
0000
,  // measure 93
0100
0100
1001
0000
;
