#VERSION:0.82;
#TITLE:Danger;
#SUBTITLE:;
#ARTIST:防彈少年團;
#TITLETRANSLIT:;
#SUBTITLETRANSLIT:;
#ARTISTTRANSLIT:Bangtan Boys;
#GENRE:;
#ORIGIN:;
#CREDIT:;
#BANNER:;
#BACKGROUND:bg.png;
#PREVIEWVID:;
#JACKET:jacket.png;
#CDIMAGE:;
#DISCIMAGE:;
#LYRICSPATH:;
#CDTITLE:;
#MUSIC:Danger.mp3;
#OFFSET:0.000000;
#SAMPLESTART:95.000000;
#SAMPLELENGTH:15.000000;
#SELECTABLE:YES;
#BPMS:0.000=112.000;
#STOPS:;
#DELAYS:;
#WARPS:;
#TIMESIGNATURES:0.000=4=4;
#TICKCOUNTS:0.000=4;
#COMBOS:0.000=1;
#SPEEDS:0.000=1.000=0.000=0;
#SCROLLS:0.000=1.000;
#FAKES:;
#LABELS:0.000=Song Start;
#BGCHANGES:;
#KEYSOUNDS:;
#ATTACKS:
;

//---------------dance-single - ----------------
#NOTEDATA:;
#CHARTNAME:;
#STEPSTYPE:dance-single;
#DESCRIPTION:;
#CHARTSTYLE:;
#DIFFICULTY:Medium;
#METER:5;
#RADARVALUES:0.346112,0.364161,0.245251,0.104046,0.000000,279.000000,33.000000,14.000000,0.000000,0.000000,0.000000,0.000000,0.000000,0.346112,0.364161,0.245251,0.104046,0.000000,279.000000,33.000000,14.000000,0.000000,0.000000,0.000000,0.000000,0.000000;
#CREDIT:;
#NOTES:
0000
1000
1000
1000
,
1000
0100
0100
0100
,
0100
0001
0001
0001
,
0001
0110
1001
0110
,
1001
1000
1000
1000
,
1000
0010
0010
0010
,
0010
0001
0001
0001
,
0001
1000
0001
1000
,
0001
0100
0100
0100
,
0100
0010
0010
0010
,
0010
1000
1000
1000
,
1000
0001
1000
0010
,
0100
1001
0100
0010
,
0100
0110
0001
1000
,
0001
0110
1000
0010
,
1000
0011
0100
1000
,
0100
0000
0010
0001
0010
0000
0100
1000
,
0100
0000
0001
0010
0001
0000
0010
0100
,
0010
0000
0000
1001
0000
1001
0000
0110
,
0000
0110
0000
1001
0000
1001
0000
0110
,
0000
0110
0010
0000
0010
0000
1000
0000
,
1000
0010
0001
0010
,
0110
1000
0100
1000
,
0100
0001
0010
0001
,
0010
0000
1000
0000
0100
0000
0001
0001
,
0001
0000
0001
0000
0100
0000
1000
1000
,
1000
0000
0100
0100
0100
0000
0010
0010
,
0010
0001
0010
0100
,
1001
2000
0010
0010
,
3010
0002
0000
2000
,
3003
0020
0001
0001
,
0031
2000
0000
0020
,
3030
0000
0100
0010
0100
0000
1001
0000
,
1001
0000
0001
1000
0001
0000
0110
0000
,
0110
0000
1000
0100
1000
0000
0001
0010
,
0001
0000
1000
0100
0010
0001
0010
0100
,
1000
2002
0000
0000
,
3003
0000
1000
0100
1000
0000
0001
0010
,
0001
0000
0010
0100
0010
0000
1000
0000
,
1000
2100
0010
0100
,
3010
0102
0010
0100
,
0013
0000
1000
0100
1000
0100
1000
0100
,
1000
0000
0001
0010
0001
0010
0001
0010
,
0001
0000
0010
0100
0010
0100
0010
0100
,
1000
1000
1000
1000
,
1000
1001
0001
1000
,
0001
0110
0010
0100
,
0010
1100
0100
1000
,
0100
0011
0001
0010
,
0001
0000
1000
0100
0001
0100
1000
0100
,
1001
0000
0010
0100
0010
0100
0010
0100
,
0110
0000
0001
0010
1000
0010
0001
0010
,
1001
0100
0100
0100
,
0100
2000
0100
0100
,
3100
0002
0010
0010
,
0013
2000
0100
0010
,
3100
0002
0010
0100
,
0013
0000
1000
0100
1000
0000
0001
0000
,
0001
0000
0010
0100
0010
0000
0010
0000
,
0010
0000
1000
0100
1000
0000
0001
0000
,
1000
0000
1000
0100
0001
0000
0001
0100
,
1000
1001
0000
0000
;

//---------------dance-single - ----------------
#NOTEDATA:;
#CHARTNAME:;
#STEPSTYPE:dance-single;
#DESCRIPTION:;
#CHARTSTYLE:;
#DIFFICULTY:Easy;
#METER:3;
#RADARVALUES:0.200660,0.227600,0.052023,0.230387,0.000000,151.000000,7.000000,31.000000,0.000000,0.000000,0.000000,0.000000,0.000000,0.200660,0.227600,0.052023,0.230387,0.000000,151.000000,7.000000,31.000000,0.000000,0.000000,0.000000,0.000000,0.000000;
#CREDIT:;
#NOTES:
0000
1000
0000
1000
,
0000
0100
0000
0100
,
0000
0001
0000
0001
,
0000
0100
0000
0010
,
1000
0000
1000
0000
,
1000
0000
0010
0000
,
0010
0000
0001
0000
,
0001
1000
0001
1000
,
0001
0100
0000
0100
,
0000
0000
0010
0000
,
0010
0000
1000
0000
,
1000
0000
1000
0010
,
0100
1001
0100
0000
,
0100
0000
0001
1000
,
0001
0000
1000
0000
,
1000
0000
0100
0000
,
0100
0020
0030
0200
,
0300
0002
0003
0020
,
0030
2000
0000
3002
,
0000
0203
0000
0320
,
0000
0031
0000
1000
,
0000
0010
0001
0010
,
0110
1000
0000
1000
,
0000
0001
0000
0001
,
0000
1000
0000
0002
,
0003
0001
0000
2000
,
3000
0200
0300
0020
,
0030
0001
0001
0001
,
0001
2000
0000
0000
,
3000
0002
0000
2000
,
3003
0020
0000
0000
,
0030
2000
0000
0000
,
3000
0100
0000
1000
,
1000
0001
0000
0010
,
0010
2000
3000
0002
,
0003
1000
0010
0010
,
1000
2002
0000
0000
,
3003
1000
0000
0001
,
0000
0010
0000
1000
,
0000
0100
0000
0100
,
0000
0100
0000
0100
,
0000
0002
0000
1000
,
1003
0002
0000
1000
,
1003
0020
0000
0100
,
0130
1000
1000
1000
,
1000
0001
0000
1000
,
0000
0010
0010
0100
,
0010
0100
0000
1000
,
0000
0001
0002
0000
,
1003
1000
0001
1000
,
1001
0010
0100
0010
,
0110
0001
1000
0001
,
1001
0200
0000
0000
,
0300
2000
0000
0000
,
3100
0002
0000
0000
,
0013
2000
0000
0000
,
3100
0002
0010
0100
,
0013
1000
1000
0001
,
0001
0020
0000
0000
,
0130
1000
0000
0001
,
1000
0000
0001
0000
,
1000
1001
0000
0000
;

//---------------dance-single - ----------------
#NOTEDATA:;
#CHARTNAME:;
#STEPSTYPE:dance-single;
#DESCRIPTION:;
#CHARTSTYLE:;
#DIFFICULTY:Hard;
#METER:8;
#RADARVALUES:0.488379,0.460775,0.334433,0.029727,0.219240,411.000000,45.000000,4.000000,0.000000,0.000000,0.000000,0.000000,0.000000,0.488379,0.460775,0.334433,0.029727,0.219240,411.000000,45.000000,4.000000,0.000000,0.000000,0.000000,0.000000,0.000000;
#CREDIT:;
#NOTES:
0000
0000
0000
0000
1000
0100
1000
0000
1001
0000
0000
0000
0001
0010
0001
0000
,
1001
0000
0000
0000
0010
0100
0010
0000
0110
0000
0000
0000
1000
0000
0000
1000
,
0000
0000
1000
0000
0010
0001
0010
0000
1001
0000
0000
0000
0010
0100
0010
0000
,
1001
0110
1001
0110
,
1001
0000
0000
0000
0110
0000
0000
0000
0110
0000
0000
0000
0010
0000
0000
0010
,
0000
0000
0010
0000
0110
0000
0000
0000
1001
0000
0000
0000
0100
0000
0000
0100
,
0000
0000
0100
0000
0110
0000
0000
0000
1001
0000
0000
0000
1000
0000
0000
1000
,
0000
0000
1000
0000
0110
0000
0000
0000
1001
0000
0000
0000
0001
0000
0000
0001
,
0000
0000
0001
0000
1000
0100
1000
0000
1001
0000
0000
0000
0010
0001
0010
0000
,
0110
0000
0000
0000
0010
0100
0010
0000
0110
0000
0000
0000
1000
0000
0000
1000
,
0000
0000
1000
0000
0001
0010
0001
0010
0001
0000
0000
0000
1000
0100
1000
0100
,
1000
1000
0001
1000
,
0001
0000
1000
0100
1000
0000
0001
0010
,
0001
0000
1000
0100
0001
0100
1000
0100
,
1001
0000
0010
0001
0010
0000
0010
0100
,
0010
0000
0000
0000
0010
0000
1000
0000
0010
0000
0000
0000
0010
0000
0000
0010
,
0000
0010
1000
0100
1000
0000
0010
0001
,
0010
0000
0000
0000
1000
0100
1000
0100
1000
0000
1000
0000
0001
0010
0001
0010
,
0001
0000
0000
0001
0000
0000
1001
0000
0000
0000
1001
0000
0000
0000
0000
0000
0000
0000
0110
0000
0000
0000
0110
0000
,
0000
1000
0100
0001
,
0100
0000
1000
0100
1000
0000
0001
0010
,
0001
0000
0010
0100
0010
0000
1001
0000
,
1001
0000
0010
0100
0010
0000
1000
0100
,
1000
0000
0001
0010
0001
0010
1001
0000
,
1001
0000
0000
0000
1000
0100
1000
0000
0001
0010
0001
0000
1000
0000
1000
0000
,
1000
0000
0000
0000
0100
0010
0100
0000
1000
0001
1000
0000
0010
0000
0010
0000
,
0010
0000
1000
1000
1000
0000
0001
0010
,
0001
0000
0000
0000
1000
0000
0100
0000
0010
0000
0001
0000
1000
0100
1000
0100
,
1000
1001
0001
0000
1000
0000
0001
0000
,
1000
0010
0100
0010
,
0100
1000
0100
1000
,
0100
0001
0010
0001
,
0010
0100
0100
0100
,
0100
0000
0100
0001
0100
0001
0100
1000
,
0100
1000
0100
0010
0100
0010
1000
0001
,
1000
0000
0001
0000
0100
0000
0010
0000
0100
0000
0010
0000
0100
0010
0100
0010
,
0100
0220
0000
0000
,
0330
0000
1001
0000
1000
0000
0010
0001
,
0000
1001
0000
0100
0010
0100
1000
0100
,
0001
0100
1001
0000
1000
0000
1000
0001
,
0000
1001
0000
0010
0001
0010
0100
1000
,
0100
1001
0000
0100
0100
0100
1000
1000
,
1000
0100
0001
0100
0010
0010
0010
0100
,
1000
0100
0010
0001
0010
0000
0010
0100
,
0010
0000
0100
0000
0010
0000
0100
0000
0010
0000
0000
0000
0010
0000
0000
0010
,
0000
0000
0010
0000
1000
0100
1000
0000
0010
0100
0010
0000
0001
0000
0001
0000
,
0001
0000
0000
0000
0010
0100
0010
0000
0001
1000
0001
0000
0010
0000
0010
0000
,
0010
0000
0000
0000
1000
0100
1000
0000
0001
0010
0001
0000
0010
0000
0000
0010
,
0000
0000
0010
0000
0100
0010
0100
0000
0001
1000
0001
0000
0100
0000
0000
0100
,
0000
0100
1000
0100
0010
0001
0010
0001
,
0010
0000
0001
0010
0100
1000
0100
1000
,
0100
0000
0010
0100
0010
0100
1000
0001
,
1000
0000
0100
0010
0100
0000
0010
0100
,
0010
0000
0000
0000
1000
0100
1000
0100
1000
0100
1000
0000
0001
0000
0001
0000
,
0001
0000
0000
0000
0001
0010
0001
0010
0001
0010
0001
0000
1000
0000
1000
0000
,
1000
0000
0000
0000
0100
0010
0100
0010
0100
0010
0100
0000
1000
0000
1000
0000
,
1000
1001
0110
1001
,
0110
0000
0000
0000
0010
0001
0010
0000
0100
1000
0100
0000
0010
0000
0001
0000
,
0010
0000
0000
0000
0100
0010
0100
0000
1000
0001
1000
0000
0010
0000
0100
0000
,
0010
0000
0000
0000
0100
1000
0100
0000
0010
0001
0010
0000
0100
0000
0010
0000
,
0100
1001
0110
1001
,
0110
2002
0000
0000
,
3003
0000
0000
0000
;

//---------------dance-single - ----------------
#NOTEDATA:;
#CHARTNAME:;
#STEPSTYPE:dance-single;
#DESCRIPTION:;
#CHARTSTYLE:;
#DIFFICULTY:Beginner;
#METER:2;
#RADARVALUES:0.134835,0.182080,0.126341,0.000000,0.000000,110.000000,17.000000,0.000000,0.000000,0.000000,0.000000,0.000000,0.000000,0.134835,0.182080,0.126341,0.000000,0.000000,110.000000,17.000000,0.000000,0.000000,0.000000,0.000000,0.000000,0.000000;
#CREDIT:;
#NOTES:
// measure 0
0000
1000
0000
0000
,  // measure 1
0000
0001
0000
0000
,  // measure 2
0000
0100
0000
0000
,  // measure 3
0000
0010
0000
0000
,  // measure 4
0000
1001
0000
0000
,  // measure 5
0000
0110
0000
0000
,  // measure 6
0000
0110
0000
0000
,  // measure 7
0000
1001
0000
0000
,  // measure 8
0000
0100
0000
0000
,  // measure 9
0000
0010
0000
0000
,  // measure 10
0000
0100
0000
0000
,  // measure 11
0000
0010
0000
0000
,  // measure 12
0000
1001
0000
0000
,  // measure 13
0000
1000
0000
0000
,  // measure 14
0000
1000
0000
0000
,  // measure 15
0000
0001
0000
0000
,  // measure 16
0000
0001
0000
0001
,  // measure 17
0000
1000
0000
1000
,  // measure 18
0000
0100
0000
0010
,  // measure 19
0000
0010
0000
0100
,  // measure 20
0000
1001
0000
0000
,  // measure 21
0000
0001
0000
0000
,  // measure 22
0000
1000
0000
0000
,  // measure 23
0000
0010
0000
0000
,  // measure 24
0000
0100
0000
0100
,  // measure 25
0100
0010
0000
0010
,  // measure 26
0010
1000
0000
0001
,  // measure 27
0000
0001
0000
1000
,  // measure 28
0000
1000
0000
0000
,  // measure 29
0000
0100
0000
0000
,  // measure 30
0000
0010
0000
0000
,  // measure 31
0000
0001
0000
0000
,  // measure 32
0000
1000
1000
1000
,  // measure 33
1000
0001
0001
0001
,  // measure 34
0001
0100
0100
0100
,  // measure 35
0100
0010
0010
0010
,  // measure 36
0010
1001
0000
0000
,  // measure 37
0000
1001
0000
0000
,  // measure 38
0000
1000
1000
1000
,  // measure 39
0000
0001
0001
0001
,  // measure 40
0000
1000
1000
1000
,  // measure 41
0000
0110
0000
0000
,  // measure 42
0000
1001
0000
0000
,  // measure 43
0000
0110
0000
0000
,  // measure 44
0000
1001
0000
0000
,  // measure 45
0000
1000
1000
1000
,  // measure 46
0000
0001
0001
0001
,  // measure 47
0000
0100
0100
0100
,  // measure 48
0000
0010
0010
0010
,  // measure 49
0000
0110
0000
0000
,  // measure 50
0000
0110
0000
0000
,  // measure 51
0000
1001
0000
0000
,  // measure 52
0000
1001
0000
0000
,  // measure 53
0000
1000
1000
1000
,  // measure 54
0000
0001
0001
0001
,  // measure 55
0000
0001
0001
0001
,  // measure 56
0000
1000
1000
1000
,  // measure 57
0000
0100
0000
0100
,  // measure 58
0000
0010
0000
0010
,  // measure 59
0000
1000
0000
1000
,  // measure 60
0000
0001
0000
0001
,  // measure 61
0000
1001
0000
0000
;
