#TITLE:CARS WITH THE BOOM;
#SUBTITLE:;
#ARTIST:L'TRIMM;
#TITLETRANSLIT:;
#SUBTITLETRANSLIT:;
#ARTISTTRANSLIT:;
#GENRE:;
#CREDIT:;
#BANNER:[Round 1 Singles] - CARS WITH THE BOOM.png;
#BACKGROUND:[Round 1 Singles] - CARS WITH THE BOOM-bg.png;
#LYRICSPATH:;
#CDTITLE:cdtitle.png;
#MUSIC:[Round 1 Singles] - CARS WITH THE BOOM.mp3;
#OFFSET:-0.301870;
#SAMPLESTART:52.568203;
#SAMPLELENGTH:15.240009;
#SELECTABLE:YES;
#DISPLAYBPM:119.000000;
#BPMS:0.000000=118.967003
;
#STOPS:
;
#BGCHANGES:;
#KEYSOUNDS:;
#ATTACKS:;

//---------------dance-single - ----------------
#NOTES:
     dance-single:
     :
     Hard:
     7:
     0.361405,0.357995,0.324582,0.000000,0.057279,231.000000,34.000000,0.000000,0.000000,0.000000,0.000000,0.361405,0.357995,0.324582,0.000000,0.057279,231.000000,34.000000,0.000000,0.000000,0.000000,0.000000:
0000
0000
0000
0000
,
0000
0000
0000
0000
,
1100
0000
0000
0000
,
0101
0000
0000
0100
0000
0100
0000
0100
,
1010
0000
0000
0000
0000
0000
0000
0100
,
0011
0000
0000
0000
0001
1000
0001
1000
,
0001
0000
0001
0010
0100
0000
1000
0000
,
0001
0000
0001
0010
0100
0000
1000
0000
,
0001
0000
0001
0010
0100
0000
1000
0000
,
0001
0000
0001
0010
0100
0000
1000
1000
,
0001
0100
0010
1000
,
0001
0100
0010
1000
0000
0000
1000
1000
,
0010
0010
0100
0100
0001
0000
0001
0010
,
0100
1000
0001
0110
,
1001
0000
0010
0100
1000
0000
0001
0001
,
1000
0001
0100
0010
0000
0000
0101
0000
,
1000
1000
0010
0010
0100
0000
0001
0001
,
0010
0100
0010
0100
0010
0100
0110
0000
,
0000
0000
0000
0000
,
0001
0000
0000
1000
0000
0001
1000
0000
,
0010
0010
1000
0000
0001
0001
0100
0000
,
0010
1000
0001
0100
0000
0001
0010
0000
,
0001
0001
0010
0010
0100
0100
1000
0000
,
1000
0000
0100
0100
0010
0001
0001
0001
,
1000
1000
0010
0010
0100
0100
0001
0001
,
1000
0001
1000
0001
1001
0000
0000
0000
,
1100
0000
0000
0000
0000
0000
0001
0000
0000
0000
0010
0000
0000
0010
0000
0000
,
0001
1000
1001
0000
,
0001
0001
0000
1000
0100
1000
0001
0010
,
0100
0000
1000
0001
0000
0000
0100
0001
,
0101
0000
0000
0000
0000
0000
0001
0000
0000
0000
0100
0000
0000
0100
0000
0000
,
0010
1000
1010
0000
,
0001
0010
1000
0000
1000
0010
0001
0000
,
1010
0000
0001
0010
0001
1000
0001
1000
,
1001
0000
0000
0000
0000
0000
0001
0000
0000
0000
0100
0000
0000
0010
0000
0000
,
0100
0000
0101
0000
0000
0000
0000
1000
,
1000
0000
0000
0000
1001
0000
0000
0000
0000
0000
0100
0000
0000
1000
0000
0000
,
0001
0100
0010
1001
,
0100
0000
0000
0000
1001
0000
0000
0000
0000
0000
0010
0000
0000
1000
0000
0000
,
0001
0000
0000
0000
1100
0000
0000
0000
0000
0000
0001
0000
0000
0001
0000
0000
,
0001
0000
0000
0000
0101
0000
0000
0000
0000
0000
0010
0000
0000
1000
0000
0000
,
0100
0000
0000
0000
0011
0000
0000
0000
0000
0000
0001
0000
0000
0001
0000
0000
,
0001
0000
0000
0000
1001
0000
0000
0000
0000
0000
0001
0000
0000
0001
0000
0000
,
0100
0000
0000
0000
0000
0000
1001
0000
0000
0000
0001
0000
0000
1000
0000
0000
,
0100
0000
0000
0100
0000
0100
0000
1001
,
0001
1000
0001
1000
0001
1000
0001
1000
,
0101
0000
0000
0000
0000
0000
0001
0000
0000
0000
0010
0000
0000
0100
0000
0000
,
1100
0000
0000
0101
0001
0101
0001
0100
,
0101
0000
0000
0000
0000
0000
0100
0000
0000
0000
0100
0000
0000
0100
0000
0000
,
1010
0000
0000
1100
0000
0011
0000
0001
,
0101
0000
0000
0000
;

//---------------dance-single - ----------------
#NOTES:
     dance-single:
     :
     Medium:
     5:
     0.309581,0.310263,0.152745,0.000000,0.000000,211.000000,16.000000,0.000000,0.000000,0.000000,0.000000,0.309581,0.310263,0.152745,0.000000,0.000000,211.000000,16.000000,0.000000,0.000000,0.000000,0.000000:
0000
0000
0000
0000
,
0000
0000
0000
0000
,
1100
0000
0000
0000
,
0101
0000
0000
0000
,
0011
0000
0000
0000
,
1010
0000
0000
0000
,
0001
0000
0010
0100
1000
0000
1000
0000
,
0001
0000
0010
0100
1000
0000
1000
0000
,
0001
0000
0010
0100
1000
0000
1000
0000
,
0001
0000
0010
0100
1000
0000
1000
1000
,
0100
1000
0001
0100
,
0001
0100
0001
0000
0100
0000
0001
0000
,
0010
0001
0010
0000
0100
1000
0100
0000
,
1000
0100
0010
0001
,
1000
0000
0010
0100
0001
0000
0100
0000
,
0010
1000
0010
1000
0000
0000
0001
0100
,
0001
0010
0100
1000
,
0001
0010
0001
0010
0001
0010
0001
0000
,
0000
0000
0000
0000
,
1100
0000
0001
0000
0100
0100
0001
0000
,
1000
0100
0010
0001
,
1000
0010
0100
0001
0000
0000
1000
0000
,
0001
0001
0010
0000
0100
0100
1000
0000
,
0001
0000
0100
0100
0001
0000
1000
0000
,
0010
0010
1000
1000
0001
0001
0100
0100
,
0001
0001
1001
0000
,
1000
0001
0100
0000
0100
0001
1000
0000
,
0100
0001
0010
0000
0100
0000
1000
0000
,
0010
1000
0100
0000
0010
0001
0100
0000
,
0010
1000
0100
0000
1001
0000
0000
0000
,
0001
0010
0100
0000
0010
0100
1000
0000
,
0001
0100
0001
0000
1000
0000
1000
0000
,
0001
0100
0001
0000
1000
0100
1000
0000
,
0001
0001
0001
0000
,
1001
0000
0001
0000
0010
0100
1000
0000
,
0001
0000
0101
0000
0001
0100
0001
0000
,
1000
0000
1100
0000
0010
1000
0100
0000
,
1000
0001
0100
0000
,
0101
0000
0101
0000
0010
1000
0010
0000
,
0100
1001
0100
0100
,
1000
0000
0101
0000
0010
1000
0010
0000
,
0100
0101
0010
0010
,
1000
1100
0001
0001
,
0001
0010
0100
1000
,
0001
0000
1000
0100
1000
0000
0001
0000
,
1000
0001
1000
0001
1000
0001
1000
0001
,
1000
0000
0000
0000
,
0001
0000
0000
0010
0000
0001
0000
0010
,
0001
0000
0000
0000
,
1000
0000
0000
0100
0000
1000
0000
0100
,
1000
0000
0000
0000
;

//---------------dance-single - ----------------
#NOTES:
     dance-single:
     :
     Easy:
     2:
     0.192295,0.167064,0.133652,0.000000,0.000000,127.000000,14.000000,0.000000,0.000000,0.000000,0.000000,0.192295,0.167064,0.133652,0.000000,0.000000,127.000000,14.000000,0.000000,0.000000,0.000000,0.000000:
0000
0000
0000
0000
,
0000
0000
0000
0000
,
1001
0000
0000
0000
,
1100
0000
0000
0000
,
0101
0000
0000
0000
,
1010
0000
0000
0000
,
1000
0010
0000
0001
,
1000
0010
0000
0001
,
1000
0010
0000
0001
,
1000
0010
0000
0000
,
0001
0000
1000
0000
,
0010
1000
0100
0000
,
1000
0000
0001
0000
,
0100
0100
0100
0000
,
0010
1000
0100
0010
,
0001
0100
0000
0010
,
0010
0000
1000
0000
,
0001
0001
0001
0001
,
0000
0000
0000
0000
,
1000
0000
0100
0000
,
1000
0010
0100
0000
,
1000
0010
0100
0000
,
0001
0001
0010
0010
,
0001
1000
0001
0000
,
1000
1000
0100
0100
,
0010
0001
0100
0000
,
0001
0001
0001
0000
,
1000
0001
1001
0000
,
0100
0000
0010
0100
,
0010
1000
0100
0000
,
0010
1000
0100
0000
,
0100
0010
0110
0000
,
0010
0000
0001
0100
,
0010
0010
0010
0000
,
1000
0001
0100
0000
,
1000
1001
0000
0000
,
0100
0110
0000
0000
,
1000
0001
0100
0000
,
0010
1001
0000
0000
,
0010
1001
0000
0000
,
0100
1001
0000
0000
,
0100
1001
0000
0000
,
0001
0101
0000
0000
,
0010
1000
0100
0000
,
1000
0010
0100
0000
,
0001
0001
0001
0001
,
1000
0000
0100
0100
,
1000
0000
0001
0001
,
0010
0000
0001
0001
,
0100
0000
0010
0010
,
0110
0000
0000
0000
;

//---------------dance-single - ----------------
#NOTES:
     dance-single:
     :
     Beginner:
     1:
     0.098193,0.119332,0.114558,0.000000,0.000000,60.000000,12.000000,0.000000,0.000000,0.000000,0.000000,0.098193,0.119332,0.114558,0.000000,0.000000,60.000000,12.000000,0.000000,0.000000,0.000000,0.000000:
// measure 0
0000
0000
0000
0000
,  // measure 1
0000
0000
0000
0000
,  // measure 2
0010
0000
0000
0000
,  // measure 3
0010
0000
0000
0000
,  // measure 4
0010
0000
0000
0000
,  // measure 5
0010
0000
0000
0000
,  // measure 6
0010
0000
0000
0000
,  // measure 7
0010
0000
0000
0000
,  // measure 8
0010
0000
0000
0000
,  // measure 9
0010
0000
0000
0000
,  // measure 10
1000
0000
0000
0000
,  // measure 11
0000
0000
0000
0000
,  // measure 12
1000
1000
1000
0000
,  // measure 13
0000
0000
0000
0000
,  // measure 14
0001
0000
0000
0000
,  // measure 15
0010
0010
0010
0000
,  // measure 16
0000
0000
0000
0000
,  // measure 17
1000
1000
1000
1000
,  // measure 18
0000
0000
0000
0000
,  // measure 19
0001
0000
0000
0000
,  // measure 20
0010
0000
0000
0000
,  // measure 21
0100
0000
0000
0000
,  // measure 22
1000
0000
0000
0000
,  // measure 23
0001
0000
0000
0000
,  // measure 24
1000
0000
1000
0000
,  // measure 25
1000
1000
1000
0000
,  // measure 26
0000
0000
0000
0000
,  // measure 27
0010
0010
0010
0000
,  // measure 28
1000
0000
0001
0000
,  // measure 29
1000
0000
0000
0000
,  // measure 30
0010
0000
0000
0000
,  // measure 31
1000
1000
1000
0000
,  // measure 32
0001
0000
1000
0000
,  // measure 33
0001
0000
0000
0000
,  // measure 34
0001
0000
0000
0000
,  // measure 35
0000
1001
0000
0000
,  // measure 36
0000
1001
0000
0000
,  // measure 37
0000
0000
0000
0000
,  // measure 38
0000
1001
0000
0000
,  // measure 39
0000
1001
0000
0000
,  // measure 40
0000
1001
0000
0000
,  // measure 41
0000
1001
0000
0000
,  // measure 42
0000
1001
0000
0000
,  // measure 43
0010
0000
0000
0000
,  // measure 44
1000
0000
0001
0000
,  // measure 45
1000
0000
0000
0000
,  // measure 46
1001
0000
0000
0000
,  // measure 47
1001
0000
0000
0000
,  // measure 48
1001
0000
0000
0000
,  // measure 49
1001
0000
0000
0000
,  // measure 50
1001
0000
0000
0000
;
