#VERSION:0.81;
#TITLE:ぼうけんのしょがきえました!;
#SUBTITLE:;
#ARTIST:ワンダフル☆オポチュニティ!;
#TITLETRANSLIT:Bouken no Sho ga Kiemashita!;
#SUBTITLETRANSLIT:;
#ARTISTTRANSLIT:WONDERFUL☆OPPORTUNITY!;
#GENRE:;
#ORIGIN:;
#CREDIT:;
#BANNER:[Round 1 Singles] - Bouken no Sho ga Kiemashita.png;
#BACKGROUND:[Round 1 Singles] - Bouken no Sho ga Kiemashita-bg.png;
#PREVIEWVID:;
#JACKET:[Round 1 Singles] - Bouken no Sho ga Kiemashita-jacket.png;
#CDIMAGE:;
#DISCIMAGE:;
#LYRICSPATH:;
#CDTITLE:;
#MUSIC:[Round 1 Singles] - Bouken no Sho ga Kiemashita.mp3;
#OFFSET:-2.800;
#SAMPLESTART:67.857;
#SAMPLELENGTH:21.818;
#SELECTABLE:YES;
#BPMS:0.000=176.000;
#STOPS:;
#DELAYS:;
#WARPS:;
#TIMESIGNATURES:0.000=4=4;
#TICKCOUNTS:0.000=4;
#COMBOS:0.000=1;
#SPEEDS:0.000=1.000=0.000=0;
#SCROLLS:0.000=1.000;
#FAKES:;
#LABELS:0.000=Song Start;
#BGCHANGES:8.000=[Round 1 Singles] - Bouken no Sho ga Kiemashita.avi=1.000=1=0=0=StretchNoLoop==CrossFade==,
311.833=[Round 1 Singles] - Bouken no Sho ga Kiemashita-bg.png=1.000=0=0=1=====,
99999=-nosongbg-=1.000=0=0=0 // don't automatically add -songbackground-
;
#KEYSOUNDS:;
#ATTACKS:
;

//---------------dance-single - ----------------
#NOTEDATA:;
#CHARTNAME:;
#STEPSTYPE:dance-single;
#DESCRIPTION:;
#CHARTSTYLE:;
#DIFFICULTY:Hard;
#METER:9;
#RADARVALUES:0.763,0.777,0.481,0.329,0.214,509.000,54.000,37.000,0.000,0.000,0.000,0.000,0.000,0.763,0.777,0.481,0.329,0.214,509.000,54.000,37.000,0.000,0.000,0.000,0.000,0.000;
#CREDIT:;
#NOTES:
// measure 0
0000
0000
0000
0000
,  // measure 1
0000
0000
0000
0000
,  // measure 2
1010
0000
0000
0110
0000
0000
0101
0000
0000
0000
0001
0000
1000
0000
0100
0000
,  // measure 3
1100
0000
0000
0110
0000
0000
0011
0000
0000
0000
0000
0000
1001
0000
0000
0000
,  // measure 4
1000
0000
0010
0100
0010
0000
0100
0000
0002
0000
0000
0000
0103
0000
0100
0000
,  // measure 5
0001
1000
0001
1000
0200
0000
1300
1000
,  // measure 6
0100
0010
0001
1000
0001
0000
1001
0000
,  // measure 7
1010
0000
1000
0010
0100
0001
1000
0000
,  // measure 8
0001
0000
0010
0100
0010
0000
0100
0000
2000
0000
0000
0000
3100
0000
1000
0000
,  // measure 9
0001
0100
0001
0100
0020
0000
0130
0100
,  // measure 10
0010
1000
0001
0010
0100
0000
1000
0000
,  // measure 11
0100
1000
0100
1000
0001
1000
0001
1000
0001
0100
0001
0100
0010
0100
0010
0100
,  // measure 12
0010
0000
1010
0000
1000
0001
0000
1001
,  // measure 13
0000
0011
0000
0010
0100
1000
0002
0000
,  // measure 14
1003
0000
1001
0000
0001
0010
0000
0011
,  // measure 15
0000
0000
0010
0100
1000
0000
1000
0000
0001
0000
1000
0000
0020
0000
0000
0000
,  // measure 16
0130
0000
0101
0000
0001
0100
0000
0110
,  // measure 17
0000
1010
0000
0010
1000
0100
0010
0000
,  // measure 18
0001
0100
1000
0000
0001
0100
1000
0000
,  // measure 19
0001
0000
0100
0010
1000
0000
0001
0000
0010
0000
0100
0000
1000
0000
0001
1000
,  // measure 20
0001
0000
0100
0010
0100
0000
0010
0000
1000
0000
1000
0000
0010
0000
0010
0000
,  // measure 21
1000
0001
0010
0100
1000
0000
1100
0000
,  // measure 22
1000
0100
0001
0100
1000
0010
0001
0010
,  // measure 23
1000
0100
0001
1000
0010
0000
0011
0000
,  // measure 24
0001
0000
1000
0001
1000
0000
0010
0000
0100
0000
0100
0000
0001
0000
0001
0000
,  // measure 25
2000
0000
3001
0000
0010
0100
1000
0000
,  // measure 26
0001
0010
1000
0000
0001
0010
1000
0000
,  // measure 27
0001
0000
0010
0100
1000
0000
0001
0000
0100
0000
0010
0000
1000
0000
0100
1000
,  // measure 28
0001
0000
1000
0001
0100
0000
0001
0000
0100
0000
0010
0000
1000
0000
0001
0000
,  // measure 29
0010
0010
0100
0100
1000
0001
0200
0000
,  // measure 30
0301
0100
1000
0100
0001
0010
1000
0010
,  // measure 31
0002
0000
1003
0010
0001
1000
0200
0000
,  // measure 32
0301
0000
1000
0100
1000
0000
0100
0000
0010
0000
0010
0000
0100
0000
0100
0000
,  // measure 33
0020
0000
0031
0000
1000
0010
0100
0000
,  // measure 34
0001
0100
1000
0000
0001
0100
1000
0000
,  // measure 35
0001
0000
0100
0010
1000
0000
0001
0000
0010
0000
0200
0000
0000
0000
0000
0000
,  // measure 36
1300
1000
0000
0100
1000
0001
1000
0001
,  // measure 37
0100
0100
0000
0001
0100
0010
0100
0010
,  // measure 38
1000
1000
0000
0010
1000
0001
0010
0100
,  // measure 39
1000
0000
1100
0000
1001
0000
0001
0100
,  // measure 40
0010
0010
0000
0100
0010
1000
0010
1000
,  // measure 41
0001
0001
0000
1000
0001
0010
0100
1000
,  // measure 42
0100
0000
1000
0001
0100
0000
0001
0100
,  // measure 43
0001
1000
0200
0000
0310
0001
1000
0010
,  // measure 44
0100
0000
0100
0001
0000
0001
2000
0000
,  // measure 45
3000
1000
0001
0001
1000
0100
0001
0100
,  // measure 46
1000
0000
1000
0001
0000
0001
0200
0000
,  // measure 47
0301
0100
1000
0010
0001
0000
0011
0000
,  // measure 48
0001
0010
0001
0000
1000
0010
1000
0000
,  // measure 49
0001
0000
0010
0000
0100
0000
1000
0001
0000
0100
0010
0000
1000
0000
0000
0000
,  // measure 50
0001
0010
1000
0000
0001
0010
1000
0000
,  // measure 51
0001
0100
1000
0000
0001
0100
1000
0001
,  // measure 52
0020
1000
0001
1030
,  // measure 53
2010
3001
1002
1003
,  // measure 54
2100
0010
0100
3001
,  // measure 55
0011
0000
0010
0100
1000
0000
0100
1000
0001
0100
0010
0100
0010
1000
0001
1000
,  // measure 56
0001
0100
0001
0000
1000
0100
1000
0000
,  // measure 57
0001
0000
0100
0000
0010
0000
1000
0100
0000
0010
0001
0000
1000
0000
0000
0000
,  // measure 58
0010
1000
0020
0000
1030
0001
2000
0000
,  // measure 59
3002
0000
0023
0000
0230
0000
1300
0100
,  // measure 60
2000
0000
0000
0000
3001
0000
0000
0001
1000
0000
0010
0000
1010
0000
0000
0000
,  // measure 61
2000
0000
0000
0000
3010
0000
0000
0010
0100
0000
0001
0000
0101
0000
0000
0000
,  // measure 62
1001
0000
0000
1100
0000
0000
0110
0000
0000
0000
0100
0000
0010
0000
0001
0000
,  // measure 63
0011
0000
0000
1001
0000
0000
1010
0000
0000
0000
0000
0000
0010
0100
0010
0100
,  // measure 64
0001
0101
1100
0101
,  // measure 65
1010
0011
1010
0011
,  // measure 66
1000
0010
0001
0000
1000
0010
0001
0000
,  // measure 67
1000
0100
0001
0000
1000
0100
0001
1000
,  // measure 68
0020
0001
1000
0031
,  // measure 69
0012
1003
2001
3010
,  // measure 70
1020
0100
1000
0130
,  // measure 71
0010
0100
0010
0100
0001
0100
0001
0100
0001
0010
0100
1000
0010
0100
0001
1000
,  // measure 72
0001
0100
1000
0100
0001
0010
1000
0010
,  // measure 73
0001
0100
0010
1000
0001
0001
1000
0000
,  // measure 74
0100
1000
0200
0000
0310
0001
0020
0000
,  // measure 75
0032
0000
0203
0000
0320
0000
1030
0001
,  // measure 76
2000
3100
1100
1001
,  // measure 77
0002
0103
0101
0110
,  // measure 78
1010
0000
0000
1001
0000
0000
0011
0000
0000
0000
0001
0000
0010
0000
0100
0000
,  // measure 79
1100
0000
0000
1001
0000
0000
0101
0000
0000
0000
0000
0000
0000
0000
0000
0000
;

//---------------dance-single - ----------------
#NOTEDATA:;
#CHARTNAME:;
#STEPSTYPE:dance-single;
#DESCRIPTION:;
#CHARTSTYLE:;
#DIFFICULTY:Medium;
#METER:6;
#RADARVALUES:0.526,0.530,0.276,0.134,0.027,368.000,31.000,15.000,0.000,0.000,0.000,0.000,0.000,0.526,0.530,0.276,0.134,0.027,368.000,31.000,15.000,0.000,0.000,0.000,0.000,0.000;
#CREDIT:;
#DISPLAYBPM:44.000:176.000;
#NOTES:
0000
0000
0000
0000
,
0000
0000
0000
0000
,
1000
0000
0000
0010
0000
0000
0100
0000
0000
0000
0001
0000
0100
0000
0001
0000
,
1000
0000
0000
0100
0000
0000
0010
0000
0000
0000
0000
0000
0011
0000
0000
0000
,
0001
0010
0001
1000
,
0010
1000
0010
1000
0010
0000
0010
0000
,
0100
0010
0110
0000
,
0100
0000
0001
0000
1000
0001
1000
0000
,
0100
0010
0001
1000
,
0010
0100
0010
0100
0010
0000
0010
0000
,
1000
0001
1000
0001
1000
0000
1001
0000
,
0001
0010
0001
1000
0001
0100
0010
1000
,
0001
0000
0100
0000
0010
0100
0000
0010
,
1000
0001
0010
0010
,
0100
0000
1000
0000
0100
1000
0000
0001
,
1000
0000
0001
0000
1000
0010
1000
0000
,
0010
0000
0100
0000
0001
0100
0000
0001
,
1000
0001
0010
0100
,
1000
0100
1000
0000
0001
1000
0001
0000
,
0100
0001
0100
0010
1000
0001
1000
0000
,
0001
0100
1000
0100
,
0001
0100
0010
1000
0010
0000
1010
0000
,
1000
0100
0001
0100
,
1000
0100
0010
0001
0010
0000
0011
0000
,
0001
0000
1000
0000
0010
1000
0010
0000
,
1000
0000
0001
0000
0010
0001
0010
0000
,
0100
0110
0010
0110
,
0100
0000
1000
0000
0001
0100
0010
1000
,
0001
0010
0100
1000
,
0010
1000
0010
1000
0010
1000
0010
0000
,
0100
0001
1000
0100
,
0010
0001
0010
0001
0010
0001
0010
0000
,
0001
1000
0010
0100
,
0001
0001
1000
1000
,
0100
1100
0010
0011
,
0001
0100
0010
1000
0001
0010
0000
0000
,
0100
1000
0001
0100
,
0010
0100
0010
1000
0001
0000
1000
0000
,
0001
0010
0100
1000
,
0001
0000
0100
0000
0110
0000
0000
0010
,
0100
0000
0010
1000
0010
0000
1000
0001
,
1000
0000
0001
0000
0010
0000
0100
0010
,
0100
0000
0000
1000
0001
0000
0000
0100
,
0010
1000
0001
1000
,
0200
0000
0000
0320
0000
0000
0032
0000
,
0000
0000
0013
0000
0001
0010
0001
1000
,
0002
0000
0000
0203
0000
0000
0320
0000
,
1030
0100
0010
0001
1000
0000
1001
0000
,
0001
0100
1000
0100
,
0001
0100
0001
1000
0100
0000
0000
0000
,
1000
1100
0001
0101
,
1000
0000
1010
0000
0001
0010
0100
0000
,
2000
0100
0000
0100
,
3002
0000
0100
0003
0200
0000
0010
0000
,
0320
1000
0000
1030
,
1000
0010
0100
0001
1000
0100
0010
0001
,
1000
0100
0001
0100
,
1000
0001
1000
0000
1001
0000
0000
0000
,
1000
0010
0100
0001
,
2002
0000
0000
0000
3003
0000
0001
1000
,
0001
0100
0010
0110
,
0010
1000
0001
1001
,
0001
0000
0000
0010
0000
0000
0100
0000
0000
0000
0010
0000
0100
0000
1000
0000
,
0001
0000
0000
0100
0000
0000
0010
0000
0000
0000
0000
0000
0100
0000
0010
0000
,
1000
1010
1010
1010
,
1001
1001
1001
1001
,
0001
0011
0010
0110
,
0100
0000
1100
0000
1000
0001
0100
0010
,
1000
0010
0001
1000
,
0100
0001
1000
0001
,
1000
0100
0001
1000
,
0010
0001
0010
0001
1000
0001
1000
0001
,
0100
0100
0010
0010
,
1000
0001
1001
0000
,
0002
0010
0023
0100
,
0230
0000
1000
0000
1300
0000
0100
1000
,
0100
1000
0001
1001
,
1000
0001
0100
0101
,
0001
0000
0000
0100
0000
0000
0010
0000
0000
0000
1000
0000
0010
0000
1000
0000
,
0001
0000
0000
0010
0000
0000
0100
0000
0000
0000
0000
0000
0000
0000
0000
0000
;

//---------------dance-single - ----------------
#NOTEDATA:;
#CHARTNAME:;
#STEPSTYPE:dance-single;
#DESCRIPTION:;
#CHARTSTYLE:;
#DIFFICULTY:Easy;
#METER:4;
#RADARVALUES:0.351,0.352,0.134,0.027,0.000,258.000,15.000,3.000,0.000,0.000,0.000,0.000,0.000,0.351,0.352,0.134,0.027,0.000,258.000,15.000,3.000,0.000,0.000,0.000,0.000,0.000;
#CREDIT:;
#DISPLAYBPM:44.000:176.000;
#NOTES:
0000
0000
0000
0000
,
0000
0000
0000
0000
,
0000
0000
0000
0000
,
0000
0000
0000
0000
,
0001
0001
0100
0100
,
0010
0100
0010
0010
,
1000
0010
1000
0000
,
0001
1000
0001
0000
,
1000
1000
0100
0100
,
0010
0100
0010
0010
,
0001
0010
0001
0001
,
1000
0001
1000
0001
,
1000
0010
0000
0010
,
0100
0100
0001
0001
,
1000
0100
0000
0100
,
0010
0010
0001
0001
,
1000
0010
0000
0010
,
0100
0100
0001
0001
,
1000
1001
0001
1001
,
1000
0100
0010
0001
,
1000
0010
0100
0010
,
1000
0001
1000
1000
,
0001
0010
0100
0010
,
0001
1000
0001
0001
,
1000
0010
0100
0001
,
1000
1000
0001
0001
,
0000
1001
0000
1001
,
0000
1000
0100
0010
,
0001
0010
0100
1000
,
0001
1000
0001
1000
,
0001
0100
0010
1000
,
0001
1000
0001
1000
,
0001
0001
0100
0100
,
0001
1000
0100
0100
,
0000
0110
0000
0110
,
0000
1001
1001
0000
,
0001
0100
0010
1000
,
0010
0010
0010
0000
,
1000
0010
1000
0001
,
0010
0010
0010
0000
,
0001
0001
0010
0010
,
0100
1000
0001
0001
,
0001
0000
1000
0000
,
0001
0100
0010
1000
,
0002
0000
0000
0000
,
0003
0001
0010
0100
,
2000
0000
0000
3000
,
1100
1001
0011
0000
,
0001
0010
0100
1000
,
0001
1000
0001
0000
,
1000
1000
0010
0010
,
0100
0100
0001
1000
,
0200
0000
0000
0310
,
0010
0000
0001
0000
,
1000
0000
0000
0000
,
0001
0100
0010
1000
,
0001
0010
1000
0010
,
0001
1000
0001
0000
,
0100
0100
0010
0010
,
1000
0001
0010
0100
,
1000
0001
0100
0100
,
0001
1000
0100
0100
,
0110
0000
0000
0000
,
1001
0000
0000
0000
,
0001
0100
0001
0100
,
0001
1000
0001
1000
,
0100
0100
0010
0010
,
0001
0001
1000
0001
,
1000
0010
0001
0010
,
1000
0010
1000
0001
,
1000
0100
0001
0100
,
1000
0100
0010
0001
,
1000
0010
0001
1000
,
0100
0001
1000
0000
,
0001
0001
1000
1000
,
0001
0010
0100
1000
,
0001
0100
0010
0010
,
1000
0001
0010
0010
,
0110
0000
0000
0000
,
1001
0000
0000
0000
;

//---------------dance-single - ----------------
#NOTEDATA:;
#CHARTNAME:;
#STEPSTYPE:dance-single;
#DESCRIPTION:;
#CHARTSTYLE:;
#DIFFICULTY:Beginner;
#METER:2;
#RADARVALUES:0.164,0.211,0.000,0.000,0.000,129.000,0.000,0.000,0.000,0.000,0.000,0.000,0.000,0.164,0.211,0.000,0.000,0.000,129.000,0.000,0.000,0.000,0.000,0.000,0.000,0.000;
#CREDIT:;
#DISPLAYBPM:44.000:176.000;
#NOTES:
0000
0000
0000
0000
,
0000
0000
0000
0000
,
0000
0000
0000
0000
,
0000
0000
0000
0000
,
1000
0000
0010
0000
,
0100
0000
0100
0000
,
0001
0000
0000
0000
,
1000
0000
0000
0000
,
0001
0000
0010
0000
,
0100
0000
0100
0000
,
0010
0000
0100
0000
,
1000
0000
0001
0000
,
1000
0000
0000
0000
,
0010
0000
0010
0000
,
0100
0000
0000
0000
,
0001
0000
1000
0000
,
0100
0000
0000
0000
,
0010
0000
0010
0000
,
0001
0000
0001
0000
,
1000
0000
1000
0000
,
0001
0000
0100
0000
,
0010
0010
0010
0000
,
0100
0000
0001
0000
,
1000
1000
1000
0000
,
0001
0000
0010
0000
,
0100
0000
0100
0000
,
1000
0000
0000
0000
,
0001
0000
0000
0000
,
1000
0000
0010
0000
,
0100
0100
0100
0000
,
0001
0000
1000
0000
,
0100
0100
0100
0000
,
0010
0000
0001
0000
,
1000
0000
0010
0000
,
0100
0000
0000
0000
,
0001
0000
0000
0000
,
1000
0000
0100
0000
,
1000
1000
1000
0000
,
0001
0000
0100
0000
,
0010
0010
0010
0000
,
1000
0000
1000
0000
,
0001
0000
0001
0000
,
0010
0000
0100
0000
,
1000
0000
0001
0000
,
0010
0000
0000
0000
,
0000
0000
0000
0000
,
0100
0000
0000
0000
,
0000
0000
0000
0000
,
1000
0000
1000
0000
,
1000
0000
0000
0000
,
0001
0000
0001
0000
,
0001
0000
0000
0000
,
0100
0000
0000
0000
,
0100
0000
0000
0000
,
0010
0000
0000
0000
,
1000
0000
0010
0000
,
1000
0000
1000
0000
,
0001
0000
0001
0000
,
0010
0000
0100
0000
,
1000
0000
0000
0000
,
1000
0000
0000
0000
,
0001
0000
0000
0000
,
0100
0000
0000
0000
,
0100
0000
0000
0000
,
0010
0000
0010
0000
,
1000
0000
1000
0000
,
0001
0000
0001
0000
,
0001
0000
0010
0000
,
0010
0000
0000
0000
,
0100
0000
0100
0000
,
1000
0000
1000
0000
,
0010
0010
0010
0010
,
0010
0000
0100
0000
,
0001
0000
0001
0000
,
1000
0000
1000
0000
,
1000
0000
0000
0000
,
0100
0000
0000
0000
,
0010
0000
0000
0000
,
0001
0000
0000
0000
,
0001
0000
0000
0000
;
