#VERSION:0.81;
#TITLE:アスカBad Girl;
#SUBTITLE:(w/ Lancaster);
#ARTIST:マクロスMACROSS 82-99;
#TITLETRANSLIT:Asuka Bad Girl;
#SUBTITLETRANSLIT:;
#ARTISTTRANSLIT:Macross 82-99;
#GENRE:;
#ORIGIN:;
#CREDIT:;
#BANNER:[Round 1 Singles] - Asuka Bad Girl-bn.png;
#BACKGROUND:[Round 1 Singles] - Asuka Bad Girl-bg.png;
#PREVIEWVID:;
#JACKET:[Round 1 Singles] - Asuka Bad Girl-jacket.png;
#CDIMAGE:;
#DISCIMAGE:;
#LYRICSPATH:;
#CDTITLE:cdtitle.png;
#MUSIC:[Round 1 Singles] - Asuka Bad Girl.ogg;
#OFFSET:0.527000;
#SAMPLESTART:8.421000;
#SAMPLELENGTH:13.000000;
#SELECTABLE:YES;
#DISPLAYBPM:114.000000;
#BPMS:0.000=114.000,
28.500=142.500,
29.000=114.000,
30.000=142.500,
31.000=114.000;
#STOPS:15.000=0.527,
28.500=0.026,
28.750=0.026,
30.000=0.027,
30.250=0.026,
30.500=0.026,
30.750=0.027,
198.000=0.526;
#DELAYS:;
#WARPS:;
#TIMESIGNATURES:0.000=4=4;
#TICKCOUNTS:0.000=4;
#COMBOS:0.000=1;
#SPEEDS:0.000=1.000=0.000=0;
#SCROLLS:0.000=1.000;
#FAKES:;
#LABELS:0.000=Song Start;
#BGCHANGES:;
#KEYSOUNDS:;
#ATTACKS:
;

//---------------dance-single - ----------------
#NOTEDATA:;
#CHARTNAME:;
#STEPSTYPE:dance-single;
#DESCRIPTION:;
#CHARTSTYLE:;
#DIFFICULTY:Hard;
#METER:7;
#RADARVALUES:0.361842,0.371909,0.167101,0.096742,0.079153,258.000000,19.000000,11.000000,2.000000,0.000000,1.000000,0.000000,0.000000,0.361842,0.371909,0.167101,0.096742,0.079153,258.000000,19.000000,11.000000,2.000000,0.000000,1.000000,0.000000,0.000000;
#CREDIT:;
#DISPLAYBPM:114.000000;
#NOTES:
// measure 0
0000
0000
0000
0000
,  // measure 1
0000
0000
0000
0000
,  // measure 2
0000
0000
0000
0000
,  // measure 3
0000
0000
0000
0000
,  // measure 4
1000
0000
0010
0000
1000
0000
0010
0010
,  // measure 5
0100
0001
0101
0101
,  // measure 6
1000
0000
0100
0000
1000
0000
0100
0010
,  // measure 7
0001
0000
0100
0010
0100
0000
0001
0000
0010
0100
0010
0100
0010
0000
0001
0000
,  // measure 8
0100
0010
0000
1000
0000
0001
0010
0001
,  // measure 9
0000
1000
0000
0100
1100
0000
1100
0000
,  // measure 10
0001
0100
0000
0010
0000
1000
0001
1000
,  // measure 11
0000
0100
0000
0010
0011
0000
1010
1000
,  // measure 12
0001
0000
0100
0000
0001
0000
0000
0000
1000
0000
0010
1000
0000
0000
1000
0000
,  // measure 13
0001
0010
0100
0010
0011
0000
0011
0000
,  // measure 14
0100
0000
1000
0000
0100
0000
0000
0000
1000
0000
0010
1000
0000
0000
0001
0000
,  // measure 15
0100
1000
0100
0001
0101
0000
1100
0000
,  // measure 16
0100
0100
0010
0010
,  // measure 17
0001
0001
1000
1000
,  // measure 18
0010
0000
0100
0000
0010
0000
0100
0001
0000
0000
0010
0000
0100
0000
0010
0001
,  // measure 19
0000
0100
0010
0000
1000
0000
0001
0000
,  // measure 20
1000
0100
0010
0000
0001
0100
0001
0000
,  // measure 21
1000
0010
0001
0010
1000
0000
1000
0000
,  // measure 22
0001
0000
1000
0010
0000
0000
0010
0100
0000
0000
0100
0001
0000
0001
0010
0000
,  // measure 23
1000
0010
0001
0100
0001
0001
0001
0001
,  // measure 24
0020
0100
1000
0001
,  // measure 25
0130
1000
0100
0010
0002
0000
0103
0010
,  // measure 26
2000
0000
3001
0100
0010
0100
0001
1000
,  // measure 27
0100
0000
0100
2000
0000
0000
3001
0100
,  // measure 28
0001
0010
0100
0100
0010
0100
1000
0100
,  // measure 29
1000
0100
0001
0100
0001
0100
1000
0010
,  // measure 30
0200
0000
0000
0000
,  // measure 31
0000
0300
1010
0101
,  // measure 32
1000
0000
0001
0000
0010
0100
0010
0000
,  // measure 33
0001
0000
1000
0000
0010
0100
0010
0000
,  // measure 34
0100
0000
0000
0000
0010
0000
0000
0000
1000
0000
0000
0000
0001
0000
0000
0002
,  // measure 35
0000
0203
0320
0000
,  // measure 36
1030
0000
0100
0000
1000
0001
1000
0000
,  // measure 37
0010
0100
0010
1000
0010
0000
1000
0000
,  // measure 38
0001
0100
0001
0001
,  // measure 39
0011
0000
1100
0000
0001
0100
1000
0100
,  // measure 40
0001
0000
1000
0000
0100
0010
0100
0000
,  // measure 41
0010
0001
0010
0100
1000
0000
0001
0000
,  // measure 42
0100
0010
1010
0101
,  // measure 43
0001
0000
0000
0000
1000
0000
0000
0000
0400
0000
0000
0000
1300
0010
1000
0000
,  // measure 44
1020
0000
1000
0000
1000
0000
0130
0001
,  // measure 45
1000
0000
0100
0000
0000
0100
0000
0000
0100
0000
1000
0000
0100
0000
0000
0000
,  // measure 46
0012
0000
0010
0000
0010
0000
1003
0001
,  // measure 47
0100
0000
0010
0000
0000
0010
0000
0000
0010
0000
1000
0000
0010
0000
0000
0000
,  // measure 48
0201
0000
0001
0000
0001
0000
0310
1000
,  // measure 49
0100
0000
0010
0001
1000
0001
1000
0001
1000
0000
0000
0000
0MM0
0000
0000
0000
;

//---------------dance-single - ----------------
#NOTEDATA:;
#CHARTNAME:;
#STEPSTYPE:dance-single;
#DESCRIPTION:;
#CHARTSTYLE:;
#DIFFICULTY:Medium;
#METER:4;
#RADARVALUES:0.250023,0.262524,0.052769,0.140716,0.000000,177.000000,6.000000,16.000000,1.000000,0.000000,0.000000,0.000000,0.000000,0.250023,0.262524,0.052769,0.140716,0.000000,177.000000,6.000000,16.000000,1.000000,0.000000,0.000000,0.000000,0.000000;
#CREDIT:;
#DISPLAYBPM:114.000000;
#NOTES:
// measure 0
0000
0000
0000
0000
,  // measure 1
0000
0000
0000
0000
,  // measure 2
0000
0000
0000
0000
,  // measure 3
0000
0000
0000
0000
,  // measure 4
1000
0010
1000
0000
,  // measure 5
0001
0010
0001
0001
,  // measure 6
0100
0010
0100
0000
,  // measure 7
0001
0010
1000
0000
1000
0010
0001
0001
,  // measure 8
0100
0010
0000
1000
0000
0100
0000
0001
,  // measure 9
0000
0010
0000
1000
0001
0000
0001
0000
,  // measure 10
1000
0010
0000
0001
0000
0100
0000
1000
,  // measure 11
0000
0010
0000
0100
0001
0000
0001
0000
,  // measure 12
1000
0100
0010
0000
,  // measure 13
0100
0010
0001
0001
,  // measure 14
1000
0010
0100
0000
,  // measure 15
0010
0100
0001
0001
,  // measure 16
2000
3100
0200
0310
,  // measure 17
0020
0031
0002
1003
,  // measure 18
1000
0010
0001
0010
,  // measure 19
1000
0100
0001
0100
,  // measure 20
1000
0010
0100
0001
,  // measure 21
0010
0100
0010
0001
,  // measure 22
1000
0010
1000
0000
0001
0100
0001
0000
,  // measure 23
1000
0000
0100
0000
1000
0001
1000
0001
,  // measure 24
0200
0000
0000
0000
,  // measure 25
0310
0000
1000
0001
1000
0000
0002
0000
,  // measure 26
0013
0020
0031
0001
,  // measure 27
0100
0000
0020
0000
0030
0000
1000
0001
,  // measure 28
1000
0000
0100
0000
0010
0001
0010
0000
,  // measure 29
0100
0000
1000
0000
0010
0100
0010
0000
,  // measure 30
2000
0000
0000
0000
,  // measure 31
0000
3000
1001
0110
,  // measure 32
1001
0000
1000
0100
,  // measure 33
0000
0100
1000
0010
,  // measure 34
1000
0000
0001
0010
,  // measure 35
0200
0000
2300
0000
,  // measure 36
3001
0000
0001
0100
,  // measure 37
0000
0100
0010
1000
,  // measure 38
0001
0000
1000
0100
,  // measure 39
1000
0010
1010
0101
,  // measure 40
1001
0000
1000
0100
,  // measure 41
0000
0100
1000
0010
,  // measure 42
0100
0000
0010
0100
,  // measure 43
0001
0000
1000
0000
0100
0000
0010
0001
,  // measure 44
0020
0001
0001
0130
,  // measure 45
2000
0000
3001
0000
0001
0100
0001
0000
,  // measure 46
2000
0010
0010
3100
,  // measure 47
0002
0000
0103
0000
0100
0001
0100
0000
,  // measure 48
0020
1000
1000
0130
,  // measure 49
0001
0010
0100
1000
0001
0000
M000
0000
;

//---------------dance-single - ----------------
#NOTEDATA:;
#CHARTNAME:;
#STEPSTYPE:dance-single;
#DESCRIPTION:;
#CHARTSTYLE:;
#DIFFICULTY:Easy;
#METER:3;
#RADARVALUES:0.197254,0.195903,0.061563,0.123127,0.000000,136.000000,7.000000,14.000000,0.000000,0.000000,0.000000,0.000000,0.000000,0.197254,0.195903,0.061563,0.123127,0.000000,136.000000,7.000000,14.000000,0.000000,0.000000,0.000000,0.000000,0.000000;
#CREDIT:;
#DISPLAYBPM:114.000000;
#NOTES:
// measure 0
0000
0000
0000
0000
,  // measure 1
0000
0000
0000
0000
,  // measure 2
0000
0000
0000
0000
,  // measure 3
0000
0000
0000
0000
,  // measure 4
1000
0000
1000
0000
,  // measure 5
0001
0000
0001
0001
,  // measure 6
0100
0000
0100
0000
,  // measure 7
0010
0000
0010
0000
0010
0010
0010
0000
,  // measure 8
1000
0000
0100
0000
,  // measure 9
1000
0000
0001
0001
,  // measure 10
1000
0000
0010
0000
,  // measure 11
1000
0000
1010
0101
,  // measure 12
0001
0001
0010
0000
,  // measure 13
1000
0100
1000
1000
,  // measure 14
0001
0001
0100
0000
,  // measure 15
1000
0010
1000
1000
,  // measure 16
0002
0010
0000
1000
,  // measure 17
0000
0100
0000
1003
,  // measure 18
0001
0010
0001
0010
,  // measure 19
0100
1000
0100
1000
,  // measure 20
0001
0100
1000
0010
,  // measure 21
0001
0100
0001
0000
,  // measure 22
1000
0100
0001
0100
,  // measure 23
1000
0010
0100
0100
,  // measure 24
0020
0000
0000
0000
,  // measure 25
0030
0100
0001
0020
,  // measure 26
0130
0020
0031
0010
,  // measure 27
0100
2000
3000
0001
,  // measure 28
0100
0000
0100
0001
,  // measure 29
1000
0100
0010
0001
,  // measure 30
0200
0000
0000
0000
,  // measure 31
0000
0300
0001
1000
,  // measure 32
1001
0000
1000
0001
,  // measure 33
1000
0000
0001
0000
,  // measure 34
0011
0000
1100
0000
,  // measure 35
2002
0000
0000
3003
,  // measure 36
0001
0000
1000
0010
,  // measure 37
1000
0000
0001
0000
,  // measure 38
0010
0000
0001
0100
,  // measure 39
0001
0001
0010
0100
,  // measure 40
0110
0000
0001
1000
,  // measure 41
0001
0000
0100
0000
,  // measure 42
0010
1000
0010
0000
,  // measure 43
1000
1000
0200
0300
,  // measure 44
2000
0010
3010
0000
,  // measure 45
0002
0100
0103
0001
,  // measure 46
2000
0100
3100
0000
,  // measure 47
0002
0010
0013
0001
,  // measure 48
0200
0010
0310
0000
,  // measure 49
0010
1000
0001
0000
;
