#TITLE:Plum;
#SUBTITLE:;
#ARTIST:肥塚良彦;
#TITLETRANSLIT:;
#SUBTITLETRANSLIT:;
#ARTISTTRANSLIT:Yoshihiko Koezuka;
#GENRE:;
#CREDIT:Silverhawke;
#MENUCOLOR:;
#METERTYPE:DDR;
#BANNER:[Round 1 Singles & Doubles] - Plum.png;
#BACKGROUND:[Round 1 Singles & Doubles] - Plum-bg.png;
#LYRICSPATH:;
#CDTITLE:cdtitle.png;
#MUSIC:[Round 1 Singles & Doubles] - Plum.mp3;
#OFFSET:-0.028;
#SAMPLESTART:46.625;
#SAMPLELENGTH:15.000;
#SELECTABLE:YES;
#LISTSORT:;
#BPMS:0.000=256.000,429.000=237.395,430.000=239.717,431.000=225.038,432.000=215.157,433.000=159.889;
#DISPLAYBPM:256;
#STOPS:;
#BGCHANGES:;
#ATTACKS:;

//---------------dance-single - ----------------
#NOTES:
     dance-single:
     :
     Hard:
     9:
     0.584,0.663,0.167,0.056,0.000:
0000
0000
0000
0000
,
0000
0000
0000
0000
,
0000
0000
0000
0000
,
0000
0000
0000
0000
,
0000
0000
0000
0000
,
0000
0000
0000
0000
,
0000
0000
0000
0000
,
0001
0100
0100
0010
,
1000
0001
1000
0100
,
0100
0010
0001
1000
,
0001
0100
0000
0010
0000
0000
1000
0000
,
0001
0000
1000
0100
0000
0010
0000
0000
,
0001
0000
1000
0000
0001
0100
0000
0010
,
0000
0000
1000
0000
0001
0000
1000
0100
,
0000
0010
0000
0000
0001
1000
0001
0000
,
0010
0100
0000
1000
0000
0000
0001
0000
,
0100
0000
0010
0100
0000
0001
0000
0000
,
1000
0000
0100
0000
0010
0001
0000
1000
,
0000
0000
0010
0000
0100
0000
0010
1000
,
0000
0001
0000
0000
0010
0000
0000
0000
,
0000
0000
0100
1000
0100
1000
0001
0000
,
0100
0000
0000
0000
0000
0000
0001
0100
,
0001
0100
0002
0000
0000
0000
0003
0000
,
0000
0000
1000
0100
1000
0100
0010
0000
,
0001
0100
0010
1000
,
0001
0000
1001
0000
0000
0000
1000
0100
,
0010
0001
0100
0010
,
1000
0001
0200
0300
,
0001
0000
0010
0000
0100
0010
0100
0000
,
1000
0000
0001
1000
0001
0000
0100
0000
,
0010
0000
1000
0000
0001
0000
0010
0100
,
0010
0000
0001
0000
0100
0010
0100
0000
,
0000
0000
0010
1000
0010
1000
0001
0000
,
0010
0000
0000
0000
0000
0000
0100
1000
,
0100
1000
0200
0000
0000
0000
0300
0000
,
0000
0000
0010
0001
0010
0001
1000
0000
,
0010
0100
0001
0010
,
0100
0000
0110
0000
0000
0000
0010
0001
,
0100
0010
1000
0100
,
0001
0100
0010
0001
,
1000
0000
0002
0000
0000
0000
1003
0010
,
0100
0000
0000
0001
0010
0000
0100
0000
,
0000
1000
0010
0000
0100
0000
0000
0001
,
0100
0000
0010
0000
0000
1000
0100
0000
,
0010
0000
0000
0100
1000
0000
0001
0000
,
0000
0100
0001
0000
1000
0000
0000
0100
,
0010
0001
0100
0010
,
1000
0100
0000
0100
0000
0100
0010
0000
,
0100
0000
0100
0000
0000
1000
0010
0100
,
0001
0010
0100
0000
0000
0000
0000
0000
,
1000
0100
0100
0001
,
0010
0001
0100
0100
,
1000
0010
1000
0100
,
0010
0001
0100
1000
,
0001
0010
1000
1001
,
0000
0000
0000
0000
0001
0000
0010
0100
,
0010
0100
0010
0000
0001
0000
1000
0000
,
0010
0100
0010
0100
0010
0000
1000
0000
,
0001
0000
0010
0100
1000
0100
0010
0000
,
0001
0100
0010
1000
,
0001
0000
0010
0100
0010
0100
0010
0000
,
0001
0000
0000
1000
0000
0000
0010
0000
,
0100
0000
0001
0000
0010
0000
0000
0100
,
0000
1000
0001
0100
,
0010
0000
0000
0001
0000
0000
0010
0000
,
0000
1000
0000
0000
0001
0000
0000
0010
,
0000
0000
1000
0000
0000
0010
0000
0000
,
0001
0000
0000
0101
0000
0000
1000
0000
,
0000
1100
0000
0000
0001
0000
0000
1001
,
0000
1000
0010
0000
0100
0000
0001
1000
,
0001
0010
0100
1000
,
0010
0100
0001
0010
,
0100
1001
0000
0000
,
0000
0000
1000
0010
1000
0000
0010
0000
,
1000
0000
0000
0000
0000
0000
0001
0010
,
0001
0010
0001
0000
,
1000
0000
0100
0010
0100
0000
1000
0000
,
0010
0100
0010
0000
1000
0000
0100
0000
,
0010
0000
0110
0000
0000
0000
0001
0010
,
0100
0000
0000
1000
0010
0000
0100
0000
,
0000
0001
0010
0000
0100
0000
0000
1000
,
0001
0000
0010
0000
0000
0001
1000
0001
,
1000
0000
0000
0010
0100
0010
0100
0000
,
0000
0001
0010
0100
1000
0000
0000
1000
,
0010
0100
0001
0000
1000
0000
0001
0000
,
0000
0000
0000
0000
1000
0010
0100
0000
,
0001
1000
0001
0000
0010
0000
0010
0000
,
0100
0000
1000
0001
1000
0000
0010
0000
,
0010
0000
0100
0000
0001
0010
0100
0010
,
0001
1000
0010
0100
,
0001
0000
0010
0000
0100
1000
0001
1000
,
0001
0100
0010
1000
,
0100
0010
1000
0010
,
0001
0100
0010
1000
,
0001
0010
0100
1000
,
0010
0100
1000
0100
,
0001
1000
0100
0010
,
0001
0000
1000
0000
0000
1010
0000
0000
,
0001
0000
0000
0011
0000
0000
1000
0000
,
0000
1001
0000
0001
0010
0100
1000
0001
,
0010
0001
1000
0000
0000
1010
0000
0000
,
0011
0000
0000
0101
0000
0000
1100
0000
,
0000
1001
0000
1000
0100
0010
0001
0100
,
0010
1000
0001
0000
0010
0000
0100
0000
,
1000
0010
0100
0001
,
0010
0100
1001
0000
,
0000
1000
0010
0100
,
0001
0010
0100
1000
,
0010
0100
2002
0000
,
0000
0000
0000
0000
,
3003
0000
0000
0000
;

//---------------dance-single - ----------------
#NOTES:
     dance-single:
     :
     Medium:
     5:
     0.359,0.357,0.176,0.019,0.000:
0000
0000
0000
0000
,
0000
0000
0000
0000
,
0000
0000
0000
0000
,
0000
0000
0000
0000
,
0000
0000
0000
0000
,
0000
0000
0000
0000
,
0000
0000
0000
0000
,
1000
0100
0010
0001
,
0000
1000
0001
0100
,
0010
1000
0000
0001
,
1000
0000
0000
1000
0000
0000
1000
0000
,
0000
0000
0001
0000
0000
0001
0000
0000
,
0001
0000
0000
0000
0100
0000
0000
0100
,
0000
0100
0000
0010
,
0000
0010
0000
0000
0010
0000
0000
0000
,
1000
0000
0000
0001
0000
0000
1000
0000
,
0100
0000
0010
0000
0000
0001
0000
0000
,
0010
0000
0100
0000
1000
0000
0000
0001
,
0000
1000
0010
0100
,
0000
0001
0000
0000
0100
0000
0000
0000
,
0010
1000
1000
0100
,
0000
0000
0010
0001
,
0001
0100
0000
0000
,
0010
1000
1000
0100
,
0010
0001
0100
0001
,
0001
0010
0000
0000
,
0100
0000
0100
1000
,
0000
1000
0001
0000
,
0001
0100
0010
0000
,
1000
0001
0000
0100
,
0010
1000
0001
1000
,
0000
0100
0010
0000
,
0001
0100
0100
0010
,
0000
0000
1000
0100
,
0100
0010
0000
0000
,
0001
1000
1000
0100
,
0010
0001
0100
0001
,
0001
0010
0000
0000
,
0100
1000
0100
1000
,
0000
0000
0001
0100
,
0001
0100
0000
0000
,
0110
0000
0000
1010
,
0000
0000
1001
0000
,
0000
0011
0000
0000
,
0110
0000
0000
1100
,
0000
0000
1001
0000
,
0000
0110
0000
0000
,
0010
1000
0100
0010
,
0001
0100
0000
0010
,
1000
0001
0000
0000
,
0010
0000
0000
0100
,
1000
0001
0000
0000
,
0100
0001
1000
0000
,
0000
0010
0000
0000
,
0100
0001
1000
0100
,
0000
0000
0010
0000
,
0000
0001
0100
0010
,
0000
0000
1000
0100
,
0010
0000
0001
0100
,
0000
0010
1000
0000
,
0100
0010
0001
1000
,
0001
0000
0000
0100
0000
0000
0010
0000
,
0000
0000
0000
0000
1000
0000
0000
0100
,
0000
0010
0000
0000
,
0001
0000
0000
1000
0000
0000
0001
0000
,
0000
1000
0000
0000
0010
0000
0000
0100
,
0000
0000
0010
0000
0000
0100
0000
0000
,
0001
0000
0000
0010
0000
0000
0100
0000
,
0000
1000
0000
0000
0010
0000
0000
0100
,
0000
0001
0001
0001
,
1000
0000
0000
0100
,
0000
0000
0010
0000
,
0000
1001
0000
0000
,
0000
0001
0001
0001
,
0000
0000
0000
1000
,
1000
1000
0000
0000
,
0010
0000
0010
0100
,
0000
0100
0001
1000
,
0100
0010
0000
0000
,
0011
0000
0000
1100
,
0000
0000
1010
0000
,
0000
0101
0000
0000
,
1001
0000
0000
0110
,
0000
0000
1001
0000
,
0000
0110
0000
0000
,
0000
0000
0000
1000
,
0000
0000
0001
0100
,
0010
0000
0000
1000
,
0100
0000
0010
0000
0000
0001
0000
0000
,
0010
0000
0000
0001
0000
0000
1000
0000
,
0000
0010
0000
0000
1000
0000
0010
0000
,
0010
0100
0000
0100
,
0001
0000
0001
1000
,
0000
1000
0100
0000
,
0000
0010
0000
0010
,
0100
0000
0100
1000
,
0000
1000
0001
0000
,
0001
0000
0100
0000
0000
0010
0000
0000
,
0100
0000
0000
0010
0000
0000
1000
0000
,
0000
0001
0000
0000
1000
0000
1000
0000
,
1000
0000
0100
0000
0000
0010
0000
0000
,
0100
0000
0000
0010
0000
0000
0001
0000
,
0000
1000
0000
0000
0001
0000
0001
0000
,
0001
1000
0000
0000
,
0100
0000
0000
0010
,
0000
0000
1001
0000
,
0000
0001
0000
0001
,
0100
0000
0100
0010
,
0000
0010
2002
0000
,
0000
0000
0000
0000
,
3003
0000
0000
0000
;

//---------------dance-single - ----------------
#NOTES:
     dance-single:
     :
     Easy:
     3:
     0.171,0.204,0.009,0.019,0.000:
0000
0000
0000
0000
,
0000
0000
0000
0000
,
0000
0000
0000
0000
,
0000
0000
0000
0000
,
0000
0000
0000
0000
,
0000
0000
0000
0000
,
0000
0000
0000
0000
,
0001
0000
0000
0001
,
0000
0000
1000
0000
,
0000
1000
0000
0000
,
0010
0000
0000
0010
0000
0000
0000
0000
,
0000
0000
0100
0000
0000
0100
0000
0000
,
0000
0000
0000
0000
0001
0000
0000
0001
,
0000
0000
0000
1000
,
0000
1000
0000
0000
0000
0000
0000
0000
,
0100
0000
0000
0100
0000
0000
0000
0000
,
0000
0000
0010
0000
0000
0010
0000
0000
,
0000
0000
0000
0000
0001
0000
0000
0001
,
0000
0000
0000
1000
,
0000
1000
0000
0000
0000
0000
0000
0000
,
0001
0000
0000
0100
,
0000
0000
0010
0000
,
0000
1000
0000
0000
,
1000
0000
0000
0100
,
0000
0000
0010
0000
,
0000
0001
0000
0000
,
0001
0000
0000
1000
,
0000
0000
0001
0000
,
0000
1000
0000
0000
,
0010
0000
0000
0100
,
0000
0000
0010
0000
,
0000
0100
0000
0000
,
0001
0000
0000
0100
,
0000
0000
0010
0000
,
0000
1000
0000
0000
,
0100
0000
0000
0010
,
0000
0000
0001
0000
,
0000
1000
0000
0000
,
0001
0000
0000
0000
,
0000
0000
0001
0000
,
0000
0000
0000
0000
,
0001
0000
0000
0100
,
0000
0000
0010
0000
,
0000
1000
0000
0000
,
0001
0000
0000
0100
,
0000
0000
0010
0000
,
0000
1000
0000
0000
,
0001
0000
0000
0000
,
0000
0000
1000
0000
,
0000
0000
0000
0000
,
0000
0000
0000
0000
,
0000
0000
0000
0000
,
0000
0000
0001
0000
,
0000
1000
0000
0000
,
0001
0000
0000
1000
,
0000
0000
0010
0000
,
0000
0100
0000
0001
,
0000
0000
1000
0000
,
0100
0000
0000
0010
,
0000
0000
0001
0000
,
0000
1000
0000
0000
,
0010
0000
0000
0100
,
0000
0000
0001
0000
,
0000
1000
0000
0000
,
0100
0000
0000
0010
,
0000
0000
0001
0000
,
0000
1000
0000
0000
,
0001
0000
0000
0100
,
0000
0000
0010
0000
,
0000
1000
0000
0000
,
0002
0000
0000
0000
,
0000
0000
0000
0000
,
0000
0003
0000
0000
,
1000
0000
0000
0000
,
0000
0000
0001
0000
,
0000
0000
0000
0000
,
1000
0000
0000
0001
,
0000
0000
1001
0000
,
0000
0000
0000
0000
,
0001
0000
0000
0100
,
0000
0000
0010
0000
,
0000
1000
0000
0000
,
0001
0000
0000
0010
,
0000
0000
0100
0000
,
0000
1000
0000
0000
,
0000
0000
0000
0001
,
0000
0000
0100
0000
,
0010
0000
0000
1000
,
0000
0001
0000
0000
,
0010
0000
0000
0100
,
0000
0000
1000
0000
,
0000
0001
0000
0000
,
0100
0000
0000
0010
,
0000
0000
0100
0000
,
0000
0001
0000
0000
,
0010
0000
0000
0100
,
0000
0000
0010
0000
,
0000
0001
0000
0000
,
0100
0000
0000
0010
,
0000
0000
1000
0000
,
0000
0100
0000
0000
,
0010
0000
0000
0001
,
0000
0000
1000
0000
,
0000
0010
0000
0000
,
0100
0000
0000
0001
,
0000
0000
1000
0000
,
0000
0001
0000
0000
,
0010
0000
0000
0100
,
0000
0000
2000
0000
,
0000
0000
0000
0000
,
3000
0000
0000
0000
;

//---------------dance-double - ----------------
#NOTES:
     dance-double:
     :
     Hard:
     9:
     0.585,0.663,0.130,0.083,0.000:
00000000
00000000
00000000
00000000
,
00000000
00000000
00000000
00000000
,
00000000
00000000
00000000
00000000
,
00000000
00000000
00000000
00000000
,
00000000
00000000
00000000
00000000
,
00000000
00000000
00000000
00000000
,
00000000
00000000
00000000
00000000
,
00001000
00010000
01000000
00100000
,
01000000
00010000
00001000
00000100
,
00000010
00000100
00000001
00001000
,
00000100
00000010
00000000
00000001
00000000
00000000
00000100
00000000
,
00000010
00000000
00010000
00001000
00000000
01000000
00000000
00000000
,
00010000
00000000
00100000
00000000
01000000
10000000
00000000
01000000
,
00000000
00000000
00010000
00000000
00001000
00000000
00000100
00000010
,
00000000
00000100
00000000
00000000
00000001
00000000
00000010
00000000
,
00000100
00010000
00000000
00001000
00000000
00000000
00010000
00000000
,
01000000
00000000
00100000
00010000
00000000
01000000
00000000
00000000
,
00100000
00000000
10000000
00000000
01000000
00010000
00000000
00001000
,
00000000
00000000
00010000
00000000
00000010
00000000
00000100
00001000
,
00000000
00010000
00000000
00000000
00200000
00000000
00000000
00000000
,
00300000
00000000
10000000
01000000
10000000
01000000
00100000
00000000
,
00001000
00000000
00000000
00000000
00000000
00000000
00010000
00000100
,
00010000
00000100
00020000
00000000
00000000
00000000
00030000
00000000
,
00000000
00000000
00000010
00000100
00000010
00000100
00000001
00000000
,
00001000
00000100
00010000
00001000
,
00100000
00000000
02000000
00000000
00000000
00000000
13000000
00100000
,
01000000
00010000
00001000
00000010
,
00001000
00010000
02000000
00000000
,
03001000
00000000
00010000
00000000
00000010
00000100
00000010
00000000
,
00001000
00000000
00000100
00010000
00000100
00000000
00001000
00000000
,
00010000
00000000
00100000
00000000
00001000
00000000
00010000
00001000
,
00010000
00000000
00000010
00000000
00001000
00000001
00001000
00000000
,
00000000
00000000
00000001
00000100
00000001
00000100
00000010
00000000
,
00010000
00000000
00000000
00000000
00000000
00000000
00001000
01000000
,
00001000
01000000
00002000
00000000
00000000
00000000
00003000
00000000
,
00000000
00000000
00100000
01000000
00100000
01000000
10000000
00000000
,
00010000
01000000
00001000
00010000
,
00000010
00000000
00000200
00000000
00000000
00000000
00000301
00000010
,
00000100
00001000
00010000
00100000
,
00010000
00001000
00000100
00010000
,
00010000
00000000
00001000
00000000
00000000
00000000
01000000
00100000
,
10000000
00000000
00000000
00010000
01000000
00000000
00001000
00000000
,
00000000
00010000
00000100
00000000
00000010
00000000
00000000
00000001
,
00000100
00000000
00000010
00000000
00000000
00010000
00001000
00000000
,
00100000
00000000
00000000
01000000
10000000
00000000
00010000
00000000
,
00000000
01000000
00001000
00000000
00010000
00000000
00000000
00000010
,
00000100
00001000
00010000
00100000
,
10000000
00010000
00000000
00010000
00000000
00010000
00100000
00000000
,
00001000
00000000
00010000
00000000
00000000
00000100
00000010
00000001
,
00000100
00000010
00001000
00000000
00000000
00000000
00000000
00000000
,
00000001
00000100
00001000
00010000
,
00100000
10000000
01000000
00010000
,
00001000
00000010
00000001
00000010
,
00001000
00010000
01000000
10000000
,
00100000
01000000
00010000
10010000
,
00000000
00000000
10000000
01000000
00100000
00000000
00001000
00010000
,
00000100
00010000
00001000
00000000
00000100
00000000
00000010
00000000
,
00001000
00000001
00000100
00000001
00001000
00000000
00000100
00000000
,
00010000
00000000
00001000
00010000
01000000
00010000
00001000
00000000
,
00100000
01000000
10000000
00100000
,
01000000
00000000
00001000
00010000
00100000
00010000
00001000
00000000
,
00010000
00000000
00000000
01000000
00000000
00000000
10000000
00000000
,
00100000
00000000
00010000
00000000
00001000
00000000
00000000
00000100
,
00000000
00000010
00001000
00000001
,
00000010
00000000
00000000
00000100
00000000
00000000
00010000
00000000
,
00000000
00001000
00000000
00000000
00100000
00000000
00000000
01000000
,
00000000
00000000
10000000
00000000
00000000
00100000
00000000
00000000
,
01000000
00000000
00000000
00011000
00000000
00000000
00000100
00000000
,
00000000
00011000
00000000
00000000
00100000
00000000
00000000
00011000
,
00000000
00010000
00000010
00000100
00000001
00000100
00000010
00010000
,
00001000
00100000
00100000
00010000
,
01000000
01000000
00100000
10000000
,
01000000
01100000
00000000
00000000
,
00100000
00010000
10000000
00010000
,
00100000
00000000
00001000
00010000
,
00000100
00010000
00001000
00000000
,
00000010
00000001
00000100
00001000
,
00010000
01000000
00100000
00010000
,
10000000
00000000
10010000
00000000
00000000
00000000
00010000
01000000
,
00100000
00000000
00000000
10000000
01000000
00000000
00010000
00000000
,
00000000
00001000
00000010
00000000
00000001
00000000
00000000
00000001
,
00000100
00000000
00001000
00000000
00000000
00010000
00100000
00000000
,
10000000
00000000
00000000
10000000
00010000
01000000
00001000
00000000
,
00000000
00010000
00000100
00001000
00000001
00000000
00000000
00000001
,
00000010
00000100
00010000
00000000
00001000
00000000
00100000
00000000
,
00000000
00000000
00000000
00000000
01000000
10000000
00010000
00000000
,
01000000
00001000
00010000
00001000
01000000
00000000
00100000
00000000
,
00010000
00000000
00001000
00010000
00000010
00010000
00001000
00000000
,
00000100
00000000
00000010
00000000
00001000
00000001
00000010
00000001
,
00001000
00000100
00010000
00001000
,
00100000
00000000
01000000
00000000
00010000
00001000
01000000
00001000
,
00010000
01000000
10000000
01000000
,
00010000
00001000
00000010
00000001
,
00000100
00001000
00010000
01000000
,
00010000
00001000
00000100
00000010
,
00010000
00001000
00100000
01000000
,
00010000
00001000
00000100
00000001
,
00001000
00000000
00000001
00000000
00000000
00001100
00000000
00000000
,
00001000
00000000
00000000
00000101
00000000
00000000
00000010
00000000
,
00000000
00001001
00000000
00000001
00001000
00000100
00010000
00001000
,
01000000
00010000
10000000
00000000
00000000
01010000
00000000
00000000
,
00010000
00000000
00000000
11000000
00000000
00000000
00100000
00000000
,
00000000
10010000
00000000
00010000
10000000
00100000
01000000
00010000
,
00100000
00001000
00010000
00000000
00000010
00000000
00000010
00000000
,
00001000
00000100
00000100
00000010
,
00000001
00000100
00000210
00000000
,
00000000
00001300
01000000
01000000
,
00010000
00100000
00100000
01000000
,
10000000
00100000
02200000
00000000
,
00000000
00000000
00000000
00000000
,
03300000
00000000
00000000
00000000
;

//---------------dance-double - ----------------
#NOTES:
     dance-double:
     :
     Medium:
     6:
     0.403,0.459,0.037,0.056,0.000: // measure 1
00000000
00000000
00000000
00000000
,  // measure 2
00000000
00000000
00000000
00000000
,  // measure 3
00000000
00000000
00000000
00000000
,  // measure 4
00000000
00000000
00000000
00000000
,  // measure 5
00000000
00000000
00000000
00000000
,  // measure 6
00000000
00000000
00000000
00000000
,  // measure 7
00000000
00000000
00000000
00000000
,  // measure 8
10000000
01000000
00100000
00001000
,  // measure 9
00000000
00001000
00010000
00000000
,  // measure 10
00010000
00000100
00000000
00000100
,  // measure 11
00000010
00000000
00000000
00000010
00000000
00000000
00000010
00000000
,  // measure 12
00000000
00000000
00000001
00000000
00000000
00000001
00000000
00000000
,  // measure 13
00000001
00000000
00000000
00000000
00000100
00000000
00000000
00000100
,  // measure 14
00000000
00000100
00000000
00001000
,  // measure 15
00000000
00001000
00000000
00000000
00001000
00000000
00000000
00000000
,  // measure 16
00010000
00000000
00000000
00010000
00000000
00000000
00010000
00000000
,  // measure 17
00000000
00000000
00100000
00000000
00000000
00100000
00000000
00000000
,  // measure 18
00100000
00000000
00000000
00000000
10000000
00000000
00000000
10000000
,  // measure 19
00000000
10000000
00000000
00010000
,  // measure 20
00000000
00100000
00000000
00000000
02000000
00000000
00000000
00000000
,  // measure 21
03000000
10000000
00010000
10000000
,  // measure 22
00010000
00000000
00000000
01000000
,  // measure 23
00001000
01000000
00000000
00000000
,  // measure 24
00000000
00001000
00010000
00000100
,  // measure 25
00010000
00001000
00000100
00000010
,  // measure 26
00000100
00000001
00000000
00001000
,  // measure 27
00000100
00000000
00010000
00001000
,  // measure 28
00000000
00100000
00010000
00000000
,  // measure 29
01000000
00100000
10000000
10000000
,  // measure 30
00010000
00000000
10000000
01000000
,  // measure 31
00000000
00100000
00001000
00010000
,  // measure 32
00000000
00000100
00001000
00000000
,  // measure 33
00000000
00000010
00000100
00000010
,  // measure 34
00000100
00000000
00000000
00000001
,  // measure 35
00001000
00000001
00000000
00000000
,  // measure 36
00000000
00000100
00000010
00000100
,  // measure 37
00001000
00010000
00001000
01000000
,  // measure 38
00100000
01000000
00000000
00010000
,  // measure 39
10000000
00000000
10000000
01000000
,  // measure 40
00100000
00000000
00001000
00000000
,  // measure 41
00010000
00000100
00000000
00001000
,  // measure 42
00000010
00000000
00000010
00000100
,  // measure 43
00000000
00000100
00000001
00000000
,  // measure 44
00000001
00000010
00000000
00000010
,  // measure 45
00000100
00000000
00000100
00010000
,  // measure 46
00000000
00010000
00001000
00000000
,  // measure 47
00001000
01000000
00010000
10000000
,  // measure 48
01000000
00000000
00000000
01000000
00000000
00000000
01000000
00000000
,  // measure 49
00100000
01000000
00000000
00010000
,  // measure 50
00001000
00010000
00000000
00000000
,  // measure 51
00001000
00000100
00000001
00000100
,  // measure 52
00001000
00010000
01000000
10000000
,  // measure 53
01000000
00010000
00001000
00100000
,  // measure 54
01000000
10000000
00000000
00010000
,  // measure 55
01000000
00001000
00010000
01000000
,  // measure 56
00000000
00010000
00001000
00000010
,  // measure 57
00000001
00000010
00001000
00010000
,  // measure 58
00100000
10000000
00100000
00010000
,  // measure 59
00001000
00000000
00001000
01000000
,  // measure 60
00000000
00100000
10000000
01000000
,  // measure 61
00100000
00001000
00000000
00010000
,  // measure 62
00001000
00000000
00000000
00000010
00000000
00000000
00000001
00000000
,  // measure 63
00000100
00000000
00000001
00000000
00001000
00000000
00000000
00000100
,  // measure 64
00000000
00010000
00001000
01000000
,  // measure 65
00010000
00000000
00000000
10000000
00000000
00000000
01000000
00000000
,  // measure 66
00000000
00100000
00000000
00000000
00001000
00000000
00000000
00010000
,  // measure 67
00000000
00000000
00000100
00000000
00000000
00000010
00000000
00000000
,  // measure 68
00000001
00000000
00000000
00000200
00000000
00000000
00001300
00000000
,  // measure 69
00000000
00000200
00000000
00000000
00000310
00000000
00000000
00020000
,  // measure 70
00000000
00031000
00001000
00001000
,  // measure 71
01000000
00000000
01000000
00010000
,  // measure 72
00000000
00010000
00100000
00000000
,  // measure 73
00100000
10010000
00000000
00000000
,  // measure 74
00000000
10000000
01000000
10000000
,  // measure 75
00010000
00000000
00000000
01000000
,  // measure 76
00001000
00010000
00001000
00000000
,  // measure 77
00000100
00000000
00000010
00001000
,  // measure 78
00000000
00000001
00000010
00000100
,  // measure 79
00010000
00011000
00000000
00001000
,  // measure 80
01000000
00000000
01000000
00100000
,  // measure 81
00000000
00100000
10000000
00000000
,  // measure 82
10000000
01000000
00000000
01000000
,  // measure 83
00010000
00000000
00010000
00001000
,  // measure 84
00000000
00001000
00000100
00000000
,  // measure 85
00000100
00000001
00001000
00000100
,  // measure 86
00000000
00000000
00000000
00010000
,  // measure 87
01000000
10000000
01000000
00010000
,  // measure 88
00001000
00000100
00000001
00000100
,  // measure 89
00001000
00010000
00000000
00010000
,  // measure 90
00000100
00000000
00000100
00000010
,  // measure 91
00000000
00000010
00000001
00001000
,  // measure 92
00000001
00000100
00000010
00000100
,  // measure 93
00000010
00000000
00010000
00001000
,  // measure 94
00010000
00100000
01000000
00000000
,  // measure 95
00000000
00010000
10000000
00010000
,  // measure 96
00100000
00000000
01000000
00010000
,  // measure 97
00001000
00010000
00000100
00000000
,  // measure 98
00000010
00000000
00000001
00000000
00000000
00000100
00000000
00000000
,  // measure 99
00001000
00000000
00000000
00010000
00000000
00000000
00001000
00000000
,  // measure 100
00000000
00100000
00000000
00000000
01000000
00000000
01000000
00000000
,  // measure 101
01000000
00000000
10000000
00000000
00000000
00100000
00000000
00000000
,  // measure 102
01000000
00000000
00000000
00001000
00000000
00000000
00010000
00000000
,  // measure 103
00000000
00000100
00000000
00000000
00000010
00000000
00000010
00000000
,  // measure 104
00000010
00000100
00000000
00000100
,  // measure 105
00001000
00000000
00001000
00000010
,  // measure 106
00000000
00000010
00001001
00000000
,  // measure 107
00000000
00100000
00000000
00100000
,  // measure 108
00010000
00000000
00010000
01000000
,  // measure 109
00000000
01000000
20020000
00000000
,  // measure 110
00000000
00000000
00000000
00000000
,  // measure 111
30030000
00000000
00000000
00000000
;

//---------------dance-double - ----------------
#NOTES:
     dance-double:
     :
     Easy:
     4:
     0.250,0.357,0.046,0.019,0.000: // measure 1
00000000
00000000
00000000
00000000
,  // measure 2
00000000
00000000
00000000
00000000
,  // measure 3
00000000
00000000
00000000
00000000
,  // measure 4
00000000
00000000
00000000
00000000
,  // measure 5
00000000
00000000
00000000
00000000
,  // measure 6
00000000
00000000
00000000
00000000
,  // measure 7
00000000
00000000
00000000
00000000
,  // measure 8
00000001
00000000
00000000
00000010
,  // measure 9
00000000
00000000
00000100
00000000
,  // measure 10
00000000
00010000
00000000
00000000
,  // measure 11
00001000
00000000
00000000
00001000
,  // measure 12
01000000
00010000
00000000
00000000
,  // measure 13
00010000
10000000
01000000
00000000
,  // measure 14
00000000
01000000
00100000
00001000
,  // measure 15
00000000
00000000
00001000
00010000
,  // measure 16
00000100
00000000
00000000
00000100
,  // measure 17
00000010
00000100
00000000
00000000
,  // measure 18
00000100
00001000
00000001
00000000
,  // measure 19
00000000
00000001
00000100
00000010
,  // measure 20
00000000
00000000
00000000
00000000
,  // measure 21
00010000
00000000
00000000
00001000
,  // measure 22
00000000
00000000
01000000
00010000
,  // measure 23
01000000
00010000
00000000
00000000
,  // measure 24
10000000
00000000
00000000
01000000
,  // measure 25
00000000
00000000
00100000
00001000
,  // measure 26
00100000
00001000
00000000
00000000
,  // measure 27
00010000
00000000
00000000
00000010
,  // measure 28
00000000
00000000
00000100
00000000
,  // measure 29
00000000
00000001
00000000
00000000
,  // measure 30
00001000
00000000
00000000
00000100
,  // measure 31
00000000
00000000
00010000
00001000
,  // measure 32
00000000
00010000
00001000
00000000
,  // measure 33
01000000
00000000
00000000
00010000
,  // measure 34
00000000
00000000
10000000
01000000
,  // measure 35
10000000
01000000
00000000
00000000
,  // measure 36
00100000
00000000
00000000
00001000
,  // measure 37
00000000
00000000
00010000
00000100
,  // measure 38
00010000
00000100
00000000
00000000
,  // measure 39
00001000
00000000
00000000
00000010
,  // measure 40
00000000
00000000
00000100
00000000
,  // measure 41
00000000
00000001
00000000
00000000
,  // measure 42
00000010
00000000
00000000
00000100
,  // measure 43
00000000
00000000
00010000
00000000
,  // measure 44
00000000
00001000
00000000
00000000
,  // measure 45
00100000
00000000
00000000
01000000
,  // measure 46
00000000
00000000
10000000
00000000
,  // measure 47
00000000
00100000
00000000
00000000
,  // measure 48
01000000
01000000
01000000
01000000
,  // measure 49
00000000
00000000
00010000
00010000
,  // measure 50
00010000
00010000
00000000
00000000
,  // measure 51
10000000
00000000
00000000
10000000
,  // measure 52
01000000
00100000
00000000
00000000
,  // measure 53
00100000
00001000
00010000
00000000
,  // measure 54
00000000
00000100
00000000
00000000
,  // measure 55
00001000
00000000
00000000
00001001
,  // measure 56
00000000
00000000
00000001
00000000
,  // measure 57
00000000
00000001
00000100
00000010
,  // measure 58
00000000
00000000
00000010
00010000
,  // measure 59
00001000
00000000
00000000
00100000
,  // measure 60
00000000
00000000
01000000
00000000
,  // measure 61
00000000
10000000
00000000
00000000
,  // measure 62
00010000
00000000
00000000
00100000
,  // measure 63
00000000
00000000
00001000
00000000
,  // measure 64
00000000
00010000
00000000
00000000
,  // measure 65
00000010
00000000
00000000
00000100
,  // measure 66
00000000
00000000
00000001
00000000
,  // measure 67
00000000
00000100
00000000
00000000
,  // measure 68
00001000
00000000
00000000
00010000
00000000
00000000
00001000
00000000
,  // measure 69
00000000
00010000
00000000
00000000
00001000
00000000
00000000
00010000
,  // measure 70
00000000
00001000
00010000
00001000
,  // measure 71
00010000
00000000
00000000
01000000
,  // measure 72
00000000
00000000
10000000
00000000
,  // measure 73
00000000
10010000
00000000
00000000
,  // measure 74
00010000
00000000
00000000
00000000
,  // measure 75
00000000
00000000
01000000
00000000
,  // measure 76
00000000
00000000
00000000
00000000
,  // measure 77
00001000
00000000
00000000
00010000
,  // measure 78
00000000
00000000
00000010
00000000
,  // measure 79
00000000
00000110
00000000
00000000
,  // measure 80
00000100
00000000
00000000
00000001
,  // measure 81
00000000
00000000
00001000
00000000
,  // measure 82
00000000
00000100
00000000
00000000
,  // measure 83
00010000
00000000
00000000
00001000
,  // measure 84
00000000
00000000
00100000
00000000
,  // measure 85
00000000
01000000
00100000
01000000
,  // measure 86
00000000
00000000
00000000
10000000
,  // measure 87
00000000
00000000
10000000
00010000
,  // measure 88
01000000
00000000
00000000
01000000
,  // measure 89
00001000
00010000
00000000
00000000
,  // measure 90
00000100
00000000
00000000
00001000
,  // measure 91
00000000
00000000
00000001
00000000
,  // measure 92
00000000
00000100
00000000
00000000
,  // measure 93
00000010
00000000
00000000
00010000
,  // measure 94
00001000
00010000
00001000
00000000
,  // measure 95
00000000
00100000
00000000
00000000
,  // measure 96
01000000
00000000
00000000
10000000
,  // measure 97
00010000
10000000
00010000
00000000
,  // measure 98
00000000
01000000
00000000
00000000
,  // measure 99
00001000
00000000
00000000
00010000
,  // measure 100
00000000
00000000
00000100
00000010
,  // measure 101
00000100
00000000
00000010
00000000
00000000
00000001
00000000
00000000
,  // measure 102
00000010
00000000
00000000
00000001
00000000
00000000
00001000
00000000
,  // measure 103
00000000
00000100
00000000
00000000
00001000
00000000
00000100
00000000
,  // measure 104
00001000
00000100
00000000
00000000
,  // measure 105
00010000
00000000
00000000
00001000
,  // measure 106
00000000
00000000
00011000
00000000
,  // measure 107
00000000
00010000
00000000
00000000
,  // measure 108
01000000
00000000
00000000
10000000
,  // measure 109
00000000
00000000
20020000
00000000
,  // measure 110
00000000
00000000
00000000
00000000
,  // measure 111
30030000
00000000
00000000
00000000
;
