#TITLE:Bring Me To Life;
#SUBTITLE:;
#ARTIST:Evanescence;
#TITLETRANSLIT:;
#SUBTITLETRANSLIT:;
#ARTISTTRANSLIT:;
#GENRE:;
#CREDIT:;
#BANNER:Bring Me To Life.png;
#BACKGROUND:Bring Me To Life.png;
#LYRICSPATH:;
#CDTITLE:;
#MUSIC:[Round 1 Singles & Doubles] - Bring Me To Life.ogg;
#OFFSET:1.735613;
#SAMPLESTART:98.396095;
#SAMPLELENGTH:12.000000;
#LASTBEATHINT:204.366226;
#SELECTABLE:YES;
#DISPLAYBPM:48.000000:95.000000;
#BPMS:0.000000=47.504181
,26.000000=95.009361
,58.000000=47.504181
,59.000000=95.009361
,91.000000=47.504181
,93.000000=95.009361
,125.000000=47.567177
,127.000000=95.009361
;
#STOPS:
;
#BGCHANGES:;
#KEYSOUNDS:;
#ATTACKS:;

//---------------dance-single - ----------------
#NOTES:
     dance-single:
     :
     Hard:
     8:
     0.489947,0.496393,0.086911,0.461295,0.708656,431.000000,13.000000,69.000000,0.000000,0.000000,0.000000,0.489947,0.496393,0.086911,0.461295,0.708656,431.000000,13.000000,69.000000,0.000000,0.000000,0.000000:
// measure 0
0000
0000
0000
0000
,  // measure 1
0000
0000
0000
0000
,  // measure 2
0000
0000
0000
0000
0000
0000
0000
0000
0002
0000
0000
0000
2003
3200
0000
0320
,  // measure 3
0000
0000
0230
2300
0000
3002
0000
0203
0000
0000
0000
2300
3200
0320
0000
2030
,  // measure 4
0000
0100
0200
0300
0001
0002
3000
0000
0023
0000
0000
0000
2030
3002
0000
0203
,  // measure 5
0000
0000
2300
3020
0000
0230
0000
0320
0000
0000
0000
2030
3200
0320
0000
0032
,  // measure 6
0000
0200
0300
0200
0000
0000
0303
0000
0010
1000
0000
1000
0010
0000
1000
0001
,  // measure 7
0000
0001
1000
0000
0100
0000
1000
0000
0010
0100
0010
0000
0010
1000
0000
1000
,  // measure 8
0001
0000
0001
0010
0100
1000
0200
0000
0310
0001
0000
0001
0010
0000
0001
1000
,  // measure 9
0000
1000
0001
0000
0100
0000
0010
0000
0100
0010
1000
0000
1000
0100
0000
0100
,  // measure 10
0010
0000
0010
0100
1000
0001
2000
0000
3001
0100
0000
0100
0001
0000
1000
0100
,  // measure 11
0000
0100
1000
0000
0010
0000
0100
0000
0001
0100
0001
0000
0100
0010
0000
0010
,  // measure 12
1000
0000
0100
0010
0001
0010
0200
0000
1300
0100
0000
0100
1000
0000
0001
0100
,  // measure 13
0000
0100
0001
0000
1000
0000
0100
0000
0010
0100
0010
0000
0001
0010
0000
0010
,  // measure 14
0100
0000
0100
1000
0001
1000
0020
0000
0230
0000
0000
0000
0310
0000
1000
0000
,  // measure 15
1010
0000
0000
1000
0000
1000
0000
0001
0000
1000
0000
0100
0010
0000
0001
0000
,  // measure 16
0011
0000
0000
0001
0000
0001
0000
1000
0000
0001
0000
0100
0020
0000
0130
0000
,  // measure 17
1001
0000
0000
0001
0000
0010
0000
0200
0000
0000
1300
0000
0002
0000
0000
0103
,  // measure 18
0020
0000
0000
1030
0200
0000
0000
0310
0002
0000
1003
0100
1000
0000
0100
0000
,  // measure 19
1100
0000
0000
1000
0000
1000
0000
0001
0000
1000
0000
0010
0100
0000
0001
0000
,  // measure 20
0101
0000
0100
0001
0000
0001
0000
1000
0000
0001
0000
0010
0200
0000
0310
0000
,  // measure 21
1001
0000
0000
0001
0000
0100
0000
0020
0000
0000
0130
0000
0002
0000
0000
0013
,  // measure 22
0200
0000
0000
0000
0000
0000
1300
0000
0002
0000
0000
0000
0000
0000
0103
0000
0020
0000
0000
0000
0000
0000
0230
0000
0001
0001
0000
0001
0001
0000
0001
0001
,  // measure 23
0000
0001
0301
0000
0100
0001
1000
0000
0100
0000
1000
0000
0000
0000
0100
0000
1000
0000
0000
0000
0001
0000
1000
0000
0000
0000
0001
0000
1000
0000
0000
0000
,  // measure 24
0001
0010
0001
0100
0000
0100
0010
0000
1000
0010
0000
1000
0001
0000
1000
0100
,  // measure 25
0010
0100
2000
0000
3001
0100
0000
0010
0100
0000
0001
1000
0000
0100
0010
0000
,  // measure 26
0001
1000
0100
0010
0000
0100
1000
0000
0001
0100
0000
0010
0100
0000
0100
0001
,  // measure 27
0010
0100
2000
0000
3001
1000
0000
1000
0100
0000
0010
0001
0000
1000
0001
0000
,  // measure 28
0100
0010
1000
0100
0000
0100
0010
0000
0100
1000
0000
0001
0100
0000
0100
0010
,  // measure 29
1000
0001
0020
0000
0130
0010
0000
0010
0001
0000
0001
1000
0000
0001
0100
0000
,  // measure 30
0010
1000
0001
0100
0000
0100
0010
0000
1000
0001
1000
0100
0000
0100
0010
0000
,  // measure 31
0001
0000
0100
0000
0010
0000
0200
0000
0001
0001
0000
0001
0001
0000
0001
0001
0000
0001
0001
0000
0002
0000
0000
0303
1000
0000
0000
0000
0100
0000
0000
0000
,  // measure 32
1100
0000
0000
1000
0000
1000
0000
0001
0000
1000
0000
0100
0010
0000
0001
0000
,  // measure 33
0011
0000
0000
0001
0000
0001
0000
1000
0000
0001
0000
0100
0020
0000
0130
0000
,  // measure 34
1001
0000
0000
0001
0000
0010
0000
0200
0000
0000
1300
0000
0002
0000
0000
0103
,  // measure 35
0020
0000
0000
1030
0200
0000
0000
0310
0002
0000
0103
0010
0100
0000
0010
0000
,  // measure 36
1010
0000
0000
1000
0000
1000
0000
0001
0000
1000
0000
0010
0100
0000
0001
0000
,  // measure 37
0101
0000
0100
0001
0000
0001
0000
1000
0000
0001
0000
1000
0200
0000
0310
0000
,  // measure 38
1001
0000
0000
1000
0000
0010
0000
0200
0000
0000
0310
0000
2000
0000
0000
3100
,  // measure 39
0020
0000
0000
0031
0200
0000
0000
0310
1000
0010
0100
0001
1000
0000
0010
0100
,  // measure 40
0010
0000
1000
0000
0100
0000
0010
0001
0100
0010
0000
0010
0100
0000
0010
1000
,  // measure 41
0001
0000
1000
0000
0100
0010
0000
0100
1000
0000
0010
1000
0010
0100
0000
0100
,  // measure 42
0001
0000
0001
0100
1000
0100
0001
0200
0000
0000
0310
1000
0010
0000
0000
0010
,  // measure 43
1000
0000
0000
1000
0100
0010
0100
0000
0010
0001
0010
0001
0200
0000
0310
0100
,  // measure 44
0001
0000
1000
0000
0200
0000
0310
0100
1000
0001
0000
0100
0020
0000
0130
0001
,  // measure 45
1000
0000
0100
0000
0020
0100
0000
0031
1000
0001
0010
0100
2002
0000
0000
0000
,  // measure 46
0000
0000
0000
0000
,  // measure 47
0000
0000
0000
0000
,  // measure 48
0000
0000
0000
0000
,  // measure 49
0000
0000
3003
0000
;

//---------------dance-single - ----------------
#NOTES:
     dance-single:
     :
     Medium:
     6:
     0.344777,0.330929,0.046798,0.608374,0.320901,263.000000,7.000000,91.000000,0.000000,0.000000,0.000000,0.344777,0.330929,0.046798,0.608374,0.320901,263.000000,7.000000,91.000000,0.000000,0.000000,0.000000:
0000
0000
0000
0000
,
0000
0000
0000
0000
,
0000
0000
0000
0000
0000
0000
0000
0000
2000
0000
0000
0000
3100
0020
0000
0032
,
0000
0000
0013
0200
0000
2300
0000
3002
0000
0000
0003
1000
0100
0010
0000
0002
,
0000
0000
0000
0000
0000
0000
0000
0000
0203
0000
0000
0000
0310
2000
0000
3002
,
0000
0000
0013
0200
0000
2300
0000
3002
0000
0000
0000
1003
0100
0020
0000
0032
,
0000
0020
0030
0020
0000
0033
0000
0000
0100
0000
0000
0000
1100
0000
0001
0000
,
0100
0010
0000
2000
0000
3100
0020
0002
,
0030
0000
0000
0013
0200
0000
2300
0000
0001
0000
3000
0000
0101
0000
0100
0000
,
0010
1000
0001
2000
0000
3200
0000
0320
,
0000
0032
0000
0103
0110
0000
0100
0001
,
1000
0200
0000
0320
0000
0130
0200
2300
,
0000
0000
3002
0000
0000
0000
0203
0000
0000
0301
0200
0000
0000
0000
0310
0000
,
2010
3001
0102
0000
,
0000
0000
0000
0000
0000
0000
0000
0000
1003
0000
0000
0000
1100
0000
0000
0100
,
1000
0000
0000
0100
0000
1000
0000
0100
0000
0010
0000
0001
0100
0000
0000
0100
,
0001
0000
0000
0010
0000
0001
0000
0010
0000
0100
0000
1000
0001
0000
0000
0001
,
0100
0000
0000
0010
0000
1000
0000
0200
0000
0000
1300
0000
0002
0000
0000
0000
,
0203
0000
0000
0000
0320
0000
0000
0000
2030
0000
3001
1000
0001
0000
0000
0001
,
0100
0000
0000
0010
0000
0010
0000
1000
0000
0001
0000
0001
0010
0000
0000
0010
,
0100
0000
0100
1000
0000
1000
0000
0001
0000
0100
0000
0100
0010
0000
0000
0010
,
1000
0000
0000
0001
0000
0010
0000
0200
0000
0000
1300
0000
0002
0000
0000
0000
,
0203
0000
0000
0000
0320
0000
0000
0000
0230
0000
0310
2000
0020
0000
0000
0000
,
0000
0000
3030
0000
1000
0001
1000
0000
0200
0000
0000
0000
0000
0000
0000
0000
0310
0000
0000
0000
0100
0000
0000
0000
1000
0000
0000
0000
0001
0000
0000
0000
,
1000
0200
0000
0310
0001
2000
0000
3002
,
0000
0023
0000
0000
0031
1000
0100
0010
,
0000
0002
0000
0203
0020
0300
0000
2030
,
0000
0000
3001
1000
0002
0000
0000
0000
0013
0000
0100
0000
1000
0000
0001
0000
,
1000
0020
0000
0130
0001
2000
0000
3200
,
0000
0000
0320
0000
0000
0031
0020
0000
0000
0000
0130
0000
2000
0000
0000
0000
,
3001
0200
0010
0010
,
0310
0000
2000
0200
0000
0000
0000
0000
0000
0000
3300
0000
0011
0000
0000
0010
,
0001
0000
0000
1000
0000
0100
0000
1000
0000
0100
0000
0010
0001
0000
0000
0001
,
0010
0000
0000
0001
0000
0100
0000
0001
0000
0100
0000
0010
1000
0000
0000
1000
,
0010
0000
0000
1000
0000
0100
0000
0020
0000
0000
0130
0000
2000
0000
0000
0000
,
3020
0000
0000
0000
0230
0000
0000
0000
0302
0000
1003
0100
1000
0000
0000
1000
,
0001
0000
0000
0001
0000
0010
0000
0001
0000
0010
0000
0100
1000
0000
0000
1000
,
0100
0000
0100
1000
0000
0010
0000
1000
0000
0010
0000
0100
0001
0000
0000
0001
,
0100
0000
0000
0001
0000
0010
0000
0200
0000
0000
1300
0000
0002
0000
0000
0000
,
0023
2030
3200
0302
,
0100
2003
0100
3020
,
0100
2030
0100
3001
,
1000
0000
0001
1000
0001
1000
0001
2000
0000
0000
0000
0000
3200
0000
0000
0000
,
2300
3020
0230
0302
,
0100
2003
0100
3020
,
0100
0000
0000
0000
0032
0000
0000
0000
0103
0000
0010
0200
0020
0000
0000
0000
,
0000
0000
0000
0000
,
0000
0000
0000
0000
,
0000
0000
0000
0000
,
0000
0000
0330
0000
;

//---------------dance-double - ----------------
#NOTES:
     dance-double:
     :
     Hard:
     8:
     0.484216,0.496393,0.086911,0.401126,0.715341,434.000000,13.000000,60.000000,0.000000,0.000000,0.000000,0.484216,0.496393,0.086911,0.401126,0.715341,434.000000,13.000000,60.000000,0.000000,0.000000,0.000000:
00000000
00000000
00000000
00000000
,
00000000
00000000
00000000
00000000
,
00000000
00000000
00000000
00000000
00000000
00000000
00000000
00000000
00000200
00000000
00000000
00000000
00002300
00003200
00000000
00000320
,
00000000
00000000
00000230
00002300
00000000
00003002
00000000
00000203
00000000
00000000
00000000
00002300
00003200
00000320
00000000
00002030
,
00000000
00000100
00000200
00000300
01000000
02000000
00003000
00000000
23000000
00000000
00000000
00000000
30200000
02300000
00000000
03020000
,
00000000
00000000
00230000
02300000
00000000
03020000
00000000
00032000
00000000
00000000
00000000
00003200
00000320
00002030
00000000
00003002
,
00000000
00000020
00000030
00000020
00000000
00000000
00000000
00000033
00000100
00000100
00000000
00001000
00001000
00000000
00000001
00000001
,
00000000
00000100
00000100
00000000
00000010
00000100
00001000
00000000
00010000
00001000
00010000
00000000
01000000
01000000
00000000
10000000
,
10000000
00000000
00100000
01000000
00200000
00000000
02300000
00000000
03010000
00010000
00000000
10000000
10000000
00000000
01000000
01000000
,
00000000
00100000
00100000
00000000
00010000
00000000
10000000
00000000
00100000
01000000
00100000
00000000
01000000
01000000
00000000
00010000
,
00010000
00000000
00100000
00100000
00010000
00100000
00002000
00000000
00013000
00010000
00000000
00001000
00001000
00000000
00010000
00010000
,
00000000
00000100
00000100
00000000
00000010
00000000
00000001
00000000
00000100
00000001
00000100
00000000
00000010
00000010
00000000
00001000
,
00001000
00000000
00000001
00000001
00000010
00000100
00002000
00000000
00003001
00000001
00000000
00000100
00000100
00000000
00001000
00001000
,
00000000
00010000
00010000
00000000
01000000
10000000
01000000
00000000
00100000
00010000
00100000
00000000
00010000
00010000
00000000
10000000
,
10000000
00000000
00100000
01000000
00010000
10000000
00020000
00000000
00230000
00000000
00000000
00000000
01300000
00000000
10000000
00000000
,
11000000
00000000
00000000
10000000
00000000
01000000
00000000
00010000
00000000
00001000
00000000
00000100
00000001
00000000
00000100
00000000
,
00000101
00000000
00000000
00000001
00000000
00000100
00000000
00001000
00000000
00010000
00000000
01000000
20000000
00000000
31000000
00000000
,
11000000
00000000
00000000
01000000
00000000
00010000
00000000
00002000
00000000
00000000
00003100
00000000
00000001
00000000
00000000
00000002
,
00000010
00000000
00000000
00000023
00000100
00000000
00000000
00000130
00001000
00000000
00000001
00000100
00000001
00000000
00000100
00000000
,
00000101
00000000
00000000
00000001
00000000
00000010
00000000
00001000
00000000
00010000
00000000
01000000
10000000
00000000
00100000
00000000
,
10100000
00000000
00100000
10000000
00000000
00100000
00000000
00010000
00000000
00001000
00000000
00000100
00000002
00000000
00000103
00000000
,
00000101
00000000
00000000
00000100
00000000
00001000
00000000
00020000
00000000
00000000
01030000
00000000
10000000
00000000
00000000
20000000
,
00100000
00000000
00000000
00000000
00000000
00000000
30200000
00000000
01000000
00000000
00000000
00000000
00000000
00000000
01300000
00000000
00010000
00000000
00000000
00000000
10000000
00000000
02000000
00000000
10000000
10000000
00000000
10000000
10000000
00000000
10000000
10000000
,
00000000
10000000
13000000
00000000
00010000
10000000
02000000
00000000
03100000
00000000
00100000
00000000
00000000
00000000
00010000
00000000
00010000
00000000
00000000
00000000
10000000
00000000
10000000
00000000
00000000
00000000
00100000
00000000
00100000
00000000
00000000
00000000
,
01000000
00010000
10000000
01000000
00000000
01000000
00100000
00000000
01000000
01000000
00000000
10000000
10000000
00000000
00010000
01000000
,
00100000
01000000
00020000
00000000
10030000
10000000
00000000
01000000
01000000
00000000
00100000
00100000
00000000
00010000
00010000
00000000
,
10000000
00010000
10000000
01000000
00000000
01000000
00010000
00000000
00001000
00010000
00000000
00010000
00001000
00000000
00001000
00000100
,
00000010
00001000
00000002
00000000
00001003
00001000
00000000
00000001
00000001
00000000
00000100
00000100
00000000
00000010
00000010
00000000
,
00001000
00000001
00001000
00000100
00000000
00000100
00001000
00000000
00000001
00000001
00000000
00000100
00000100
00000000
00000010
00001000
,
00000100
00010000
00002000
00000000
00013000
00010000
00000000
00001000
00001000
00000000
00100000
00100000
00000000
01000000
01000000
00000000
,
10000000
00010000
01000000
00100000
00000000
00100000
01000000
00000000
00010000
10000000
01000000
00100000
00000000
00100000
01000000
00000000
,
10000000
00000000
00010000
00000000
10000000
00000000
02000000
00000000
00100000
00100000
00000000
00100000
00100000
00000000
00100000
00100000
00000000
00100000
00100000
00000000
00200000
00000000
03300000
00000000
01000000
00000000
00000000
00000000
10000000
00000000
00000000
00000000
,
11000000
00000000
00000000
10000000
00000000
01000000
00000000
00010000
00000000
00001000
00000000
00000010
00000001
00000000
00000100
00000000
,
00000101
00000000
00000000
00000001
00000000
00000100
00000000
00001000
00000000
00010000
00000000
00100000
20000000
00000000
31000000
00000000
,
11000000
00000000
00000000
01000000
00000000
00010000
00000000
00002000
00000000
00000000
00003100
00000000
00000001
00000000
00000000
00000002
,
00000010
00000000
00000000
00000023
00000100
00000000
00000000
00000130
00001000
00000000
00000001
00000100
00000001
00000000
00000100
00000000
,
00000101
00000000
00000000
00000001
00000000
00000010
00000000
00001000
00000000
00010000
00000000
01000000
10000000
00000000
00100000
00000000
,
10100000
00000000
00100000
10000000
00000000
00100000
00000000
00010000
00000000
00001000
00000000
00000100
00000002
00000000
00000103
00000000
,
00000101
00000000
00000000
00000100
00000000
00001000
00000000
00020000
00000000
00000000
01030000
00000000
10000000
00000000
00000000
20000000
,
00100000
00000000
00000000
30200000
01000000
00000000
00000000
01300000
00010000
01000000
00100000
10000000
01000000
00000000
00100000
00010000
,
10000000
00000000
01000000
00000000
00100000
00000000
01000000
00100000
00010000
00100000
00000000
01000000
00010000
00000000
00001000
00010000
,
00000100
00000000
00000010
00000000
00000001
00000000
00001000
00000001
00000100
00000010
00000000
00000100
00000001
00001000
00000000
00001000
,
00000100
00000000
00000010
00000001
00000100
00000010
00000100
00000002
00000000
00001003
00000100
00000010
00000001
00000000
00000000
00000001
,
00000100
00000000
00000000
00000100
00000010
00001000
00000010
00000000
00001000
00000100
00001000
00000100
00010000
00000000
01000000
10000000
,
00010000
00000000
01000000
00000000
00100000
00000000
01000000
00010000
10000000
01000000
00000000
01000000
00100000
00000000
00010000
00100000
,
00001000
00000000
01000000
00000000
00010000
10000000
00000000
00100000
01000000
00100000
00010000
00001000
00022000
00000000
00000000
00000000
,
00000000
00000000
00000000
00000000
,
00000000
00000000
00000000
00000000
,
00000000
00000000
00000000
00000000
,
00000000
00000000
00033000
00000000
;

//---------------dance-double - ----------------
#NOTES:
     dance-double:
     :
     Medium:
     6:
     0.351463,0.330929,0.000000,0.561576,0.337614,284.000000,0.000000,84.000000,0.000000,0.000000,0.000000,0.351463,0.330929,0.000000,0.561576,0.337614,284.000000,0.000000,84.000000,0.000000,0.000000,0.000000:
00000000
00000000
00000000
00000000
,
00000000
00000000
00000000
00000000
,
00000000
00000000
00000000
00000000
00000000
00000000
00000000
00000000
00020000
00000000
00000000
00000000
10030000
01000000
00000000
00200000
,
00000000
00000000
01300000
20000000
00000000
30020000
00000000
02030000
00000000
00000000
00000000
03100000
01000000
00010000
00000000
00200000
,
00000000
00000000
00000000
00000000
00000000
00000000
00000000
00000000
00302000
00000000
00000000
00000000
00013000
00000020
00000000
00000230
,
00000000
00000000
00000301
00002000
00000000
00003200
00000000
00000320
00000000
00000000
00000000
00000130
00001000
00000002
00000000
00000203
,
00000000
00000010
00000000
00000020
00000000
00000000
00000330
00000000
00000100
00000000
00000001
00000000
00001000
00000000
00000001
00000000
,
00000100
00000010
00010000
00002000
00000000
00000000
00023000
00032000
,
00000000
00000000
00000000
00013000
00001000
00000000
00010000
00000000
01000000
00000000
10000000
00000000
00010000
00000000
10000000
00000000
,
00100000
01000000
00001000
00020000
00000000
00030200
00000000
00000320
,
00000000
00000032
00000000
00000103
00000010
00001000
00000001
00001000
,
00000100
00000010
00001000
00020000
00000000
00031000
00100000
02000000
,
00000000
00000000
13000000
00000000
00010000
00000000
02000000
00000000
00000000
03100000
02000000
00000000
00000000
00000000
03010000
00000000
,
20000000
01000000
31000000
00000000
00200000
00010000
00010000
00000000
,
01000000
00000000
00000000
00000000
00310000
00000000
00000000
00000000
20000000
00000000
00000000
00000000
31000000
00000000
00000000
01000000
,
10000000
00000000
00000000
00100000
00000000
01000000
00000000
00100000
00000000
01000000
00000000
00010000
10000000
00000000
00000000
10000000
,
01000000
00000000
00000000
00100000
00000000
00010000
00000000
00100000
00000000
00010000
00000000
01000000
00100000
00000000
00000000
00100000
,
10000000
00000000
00000000
01000000
00000000
00010000
00000000
00002000
00000000
00000000
00003100
00000000
00000002
00000000
00000000
00000000
,
00000023
00000000
00000000
00000000
00000230
00000000
00000000
00000000
00002300
00000000
00003001
00000100
00000001
00000000
00000000
00000001
,
00000100
00000000
00000000
00000010
00000000
00001000
00000000
00000010
00000000
00001000
00000000
00000001
00000100
00000000
00000000
00000100
,
00000010
00000000
00001000
00000010
00000000
00001000
00000000
00000001
00000000
00001000
00000000
00000100
00000010
00000000
00000000
00000010
,
00000001
00000000
00000000
00000100
00000000
00001000
00000000
00020000
00000000
00000000
01030000
00000000
20000000
00000000
00000000
00000000
,
30200000
00000000
00000000
00000000
02300000
00000000
00000000
00000000
03020000
00000000
10030000
02000000
20000000
00000000
00000000
00000000
,
00000000
00000000
30000000
00000000
13000000
00010000
10000000
00000000
02000000
00000000
00000000
00000000
00000000
00000000
00000000
00000000
03100000
00000000
00000000
00000000
00010000
00000000
00000000
00000000
01000000
00000000
00000000
00000000
00100000
00000000
00000000
00000000
,
00010000
00002000
00000000
00013000
00000100
00000020
00000000
00000032
,
00000000
00002003
00000000
00003010
00000100
00000001
00001000
00000100
,
00000010
00000200
00000000
00002300
00000002
00003000
00000000
00000203
,
00000000
00000000
00000301
00001000
00000002
00000000
00000000
00000000
00000103
00000000
00000010
00000000
00010000
00000000
00001000
00000000
,
00100000
00020000
00000000
01030000
00100000
20000000
00000000
30020000
,
00000000
00000000
00230000
00000000
00000000
00310000
00100000
00000000
01000000
00000000
10000000
00000000
00020000
00000000
01000000
00000000
,
01030000
00000000
00200000
10000000
10000000
00000000
01000000
00000000
,
10300000
00000000
02000000
20000000
00000000
00000000
00000000
00000000
00000000
00000000
33000000
00000000
01000000
00000000
00000000
01000000
,
10000000
00000000
00000000
00100000
00000000
01000000
00000000
00100000
00000000
01000000
00000000
00010000
10000000
00000000
00000000
10000000
,
01000000
00000000
00000000
00100000
00000000
00010000
00000000
00100000
00000000
00010000
00000000
01000000
00100000
00000000
00000000
00100000
,
10000000
00000000
00000000
01000000
00000000
00010000
00000000
00002000
00000000
00000000
00003100
00000000
00000002
00000000
00000000
00000000
,
00000023
00000000
00000000
00000000
00000230
00000000
00000000
00000000
00002300
00000000
00003001
00000100
00000001
00000000
00000000
00000001
,
00000100
00000000
00000000
00000010
00000000
00001000
00000000
00000010
00000000
00001000
00000000
00000001
00000100
00000000
00000000
00000100
,
00000010
00000000
00001000
00000010
00000000
00001000
00000000
00000100
00000000
00000010
00000000
00000001
00000010
00000000
00000000
00000010
,
00000001
00000000
00000000
00000100
00000000
00001000
00000000
00020000
00000000
00000000
01030000
00000000
20000000
00000000
00000000
00000000
,
30200000
02300000
03020000
20030000
,
31000000
00000000
00000000
00000000
00200000
00000000
00000000
00000000
00310000
01000000
00000000
00100000
02000000
00000000
00000000
00000000
,
03100000
00000000
00000000
00000000
00020000
00000000
00000000
00000000
00031000
00000000
00010000
00000100
00010000
00000100
00000000
00010000
,
00000100
00000000
00000100
00001000
00000100
00001000
00000100
00002000
00000000
00000000
00000000
00000000
00003002
00000000
00000000
00000000
,
00000203
00000320
00002030
00003200
,
00010000
00002300
00010000
02003000
,
00010000
00000000
00000000
00000000
03200000
00000000
00000000
00000000
00310000
00000000
10000000
00020000
20000000
00000000
00000000
00000000
,
00000000
00000000
00000000
00000000
,
00000000
00000000
00000000
00000000
,
00000000
00000000
00000000
00000000
,
00000000
00000000
30030000
00000000
;

//---------------dance-single - ----------------
#NOTES:
     dance-single:
     :
     Easy:
     4:
     0.243541,0.281290,0.213934,0.173821,0.000000,197.000000,32.000000,26.000000,0.000000,0.000000,0.000000,0.243541,0.281290,0.213934,0.173821,0.000000,197.000000,32.000000,26.000000,0.000000,0.000000,0.000000:
0000
0000
0000
0000
,
0000
0000
0000
0000
,
0000
0000
2000
0000
,
0000
0000
3002
0000
,
0000
0000
0203
0000
,
0000
0000
0320
0000
,
0000
0000
1030
1100
,
0001
0100
0010
0000
0100
0000
0101
0000
,
1000
0100
0010
0000
0100
0000
1100
0000
,
0001
0100
0010
0000
0100
0000
0101
0000
,
1000
0100
0010
0000
0110
0000
0010
0000
,
0001
0100
0010
0000
0100
0000
0101
0000
,
0100
0001
1000
0000
0100
0000
0110
0000
,
0100
0010
0001
0000
1000
0000
1001
0000
,
0100
0000
0010
0000
0110
0000
1000
0100
,
0001
0000
0100
0000
0010
0000
0001
0100
,
1000
0000
0100
0000
0010
0000
1000
0100
,
0020
0000
0031
0000
1000
0010
0110
0000
,
1001
0000
1100
0000
0101
0000
0001
0100
,
1000
0000
0100
0000
0001
0000
1000
0100
,
0001
0000
0100
0000
1000
0000
0001
0100
,
0020
1030
0100
0110
,
1001
0101
1100
2000
,
0000
0000
3001
0000
0101
0000
0100
0010
,
1000
0000
0001
1000
0100
0000
0010
0100
,
1000
0000
0001
0000
1100
0000
1000
0100
,
0010
0000
0100
1000
0001
0000
0100
0010
,
0100
0000
0001
0000
0101
0000
0001
0100
,
0010
0000
1000
0100
0010
0000
0100
1000
,
0001
0000
1000
0000
1100
0000
1000
0001
,
0100
0000
0001
0100
0010
0000
1000
0001
,
0100
0000
0220
0000
0000
0330
0010
1000
,
0100
0000
0010
0000
0001
0000
0010
0001
,
0100
0000
0010
0000
1000
0000
0001
0100
,
0020
1030
0100
0110
,
0011
0000
1001
0000
1100
0000
0100
1000
,
0010
0000
0100
0000
0010
0000
0100
0001
,
0010
0000
0100
0000
1000
0000
0100
1000
,
0002
0103
0010
1010
,
1001
1100
0110
0021
,
0130
0000
2000
0000
3001
0100
0020
0000
,
0130
0000
0002
0000
1003
0100
0020
0000
,
0031
1000
0001
0200
,
0320
2030
3002
2003
,
3100
0000
0020
0000
0031
0100
0020
0000
,
1030
0001
0020
0000
0130
0010
0220
0000
,
0000
0000
0000
0000
,
0000
0000
0000
0000
,
0000
0000
0000
0000
,
0000
0000
0330
0000
;

//---------------dance-single - ----------------
#NOTES:
     dance-single:
     :
     Beginner:
     1:
     0.119383,0.187526,0.006685,0.113652,0.000000,107.000000,1.000000,17.000000,0.000000,0.000000,0.000000,0.119383,0.187526,0.006685,0.113652,0.000000,107.000000,1.000000,17.000000,0.000000,0.000000,0.000000:
0000
0000
0000
0000
,
0000
0000
0000
0000
,
0000
0000
1000
1000
,
1000
0000
0001
0001
,
0001
0000
0100
0100
,
0100
0000
0010
0010
,
0010
0000
1000
0000
,
1000
0000
2000
0000
,
0000
3000
0001
0000
,
0001
0000
0001
0000
,
0000
0000
0010
0000
,
0010
0000
0010
0000
,
0000
0000
0100
0000
,
0100
0000
0200
0000
,
0000
0000
1300
1000
,
0000
0100
0100
0100
,
0000
1000
1000
1000
,
0000
0001
0010
0001
,
0001
1000
1000
0010
,
0000
0100
0100
0100
,
0000
0001
0001
0001
,
0000
1000
0100
1000
,
1000
0001
0001
0200
,
0000
0310
0000
0010
,
0000
0010
0000
0000
,
0000
1000
0000
1000
,
0000
1000
0000
0000
,
0000
0001
0000
0001
,
0000
0001
0000
0000
,
0000
0010
0000
0010
,
0000
0020
0000
0000
,
0000
0130
0000
1001
,
0000
0001
0001
0001
,
0000
0100
0100
0100
,
0000
0001
1000
0001
,
0001
1000
1000
0001
,
0000
0100
0100
0100
,
0000
0010
0010
0010
,
0000
1000
0001
1000
,
1000
0001
0001
0200
,
0300
0020
0030
2000
,
3000
0002
0003
0100
,
0001
1000
0000
2000
,
3002
2003
3002
0203
,
0300
0020
0030
2000
,
3000
0002
0003
0020
,
0000
0000
0000
0030
;

//---------------dance-double - ----------------
#NOTES:
     dance-double:
     :
     Challenge:
     10:
     0.598824,0.645311,0.701970,0.173821,0.755454,496.000000,105.000000,26.000000,0.000000,0.000000,0.000000,0.598824,0.645311,0.701970,0.173821,0.755454,496.000000,105.000000,26.000000,0.000000,0.000000,0.000000:
00000000
00000000
00000000
00000000
,
00000000
00000000
00000000
00000000
,
00000000
00000000
00000000
00000000
00000000
00000000
00000000
00000000
00200000
00000000
00000000
00000000
01000000
00020000
00030000
00002000
,
00000000
00003000
00010000
02000000
03000000
00002000
00003000
00300200
00000000
00000000
00000000
00001000
00010000
00001000
00000000
00000020
,
00000300
00000001
00000200
00000300
00000100
00000032
00000000
00000000
00000203
00000000
00000000
00000000
00001000
00000002
00000003
00000320
,
00000000
00000000
00000100
00002000
00003000
00000200
00000300
00020030
00000000
00000000
00000000
00100000
00001000
00000200
00000300
00032000
,
00000000
00010000
00100000
00010000
00200000
00000000
00003000
00000000
01300000
01000000
00000000
10000000
10100000
00000000
00100000
00100000
,
00000000
01000000
01010000
00000000
10000000
01000000
00010000
00001000
00000100
00000001
00000001
00000000
00000011
00000010
00000000
00000100
,
00000100
00000000
00001100
00001000
00000001
00000000
00000001
00000100
00001000
00001000
00010000
00000100
00000100
00000000
00000110
00000010
,
00000100
00001000
00001000
00000000
00000001
00000100
00001000
00000100
00000001
00001000
00001000
00000000
00001100
00001000
00000000
00000010
,
00000010
00000000
00000110
00000100
00000001
00001000
00000002
00000000
00001003
00001000
00000000
00010100
00000100
00000000
00010000
00010000
,
00000000
00101000
00001000
00000000
00010000
00001000
01000000
00100000
10000000
00010000
00010000
00000000
00110000
00100000
00000000
01000000
,
01000000
00000000
11000000
10000000
00100000
01000000
00020000
00000000
10030000
10000000
00000000
11000000
01000000
00000000
00100000
00100000
,
00000000
00110000
00010000
00000000
10000000
00100000
00010000
00001000
00000000
00011000
00011000
00000000
00000100
00000100
00000000
00000110
,
00000110
00000000
00000001
00000001
00000000
00001001
00001001
00000000
00000100
00000000
00000000
00000000
00000110
00000000
00000110
00000000
,
00001001
00000000
00000000
00000001
00000100
00001000
00000000
00010000
01000000
10000000
00000000
00010000
01100000
00000000
01100000
00000000
,
10010000
00000000
00000000
10000000
01000000
00010000
00000000
00001000
00000100
00000001
00000000
00001000
00000110
00000000
00000110
00000000
,
00001001
00000000
00000000
00000001
00000010
00000001
00000100
00000010
00000000
00000010
00001000
00000000
00000001
00000000
00000001
00000010
,
00000100
00000000
00000100
00001000
00000010
00000000
00000010
00000100
00001000
00010000
00100000
01000000
01100000
00000000
10100000
00000000
,
01010000
00000000
00000000
10000000
01000000
00010000
00000000
00001000
00000010
00000001
00000000
00001000
00000110
00000000
00000101
00000000
,
00001100
00000000
00000010
00000001
00000100
00001000
00000000
00010000
00100000
10000000
00000000
00010000
01100000
00000000
01010000
00000000
,
11000000
00000000
00000000
10000000
01000000
00010000
00001000
00000100
00000000
00000100
00000001
00000000
00000010
00000000
00000001
00000100
,
00001000
00000000
00000000
00000000
00001000
00000000
00010000
00000000
01000000
00000000
00000000
00000000
01000000
00000000
10000000
00000000
00100000
00000000
00000000
00000000
00100000
00000000
01000000
00000000
00100000
10000000
00000000
01000000
00010000
00000000
00001000
00000100
,
00000000
00000001
00000010
00000000
00000001
00001000
00000100
00000000
00000011
00000000
00000001
00000000
00000000
00000000
00000101
00000000
00000100
00000000
00000000
00000000
00000110
00000000
00000010
00000000
00000000
00000000
00001010
00000000
00001000
00000000
00000000
00000000
,
00001100
00000100
00010000
00011000
00000000
00101000
00001000
00000000
00110000
00100000
00000000
01010000
01000000
00000000
10100000
10000000
,
00010000
10000000
01000000
00000000
00110000
00010000
00000000
10010000
10000000
00000000
10100000
00100000
00000000
01010000
01000000
00000000
,
00011000
00001000
00010000
00010100
00000000
00000110
00000010
00000000
00000011
00000001
00000000
00001001
00001000
00000000
00000110
00000100
,
00000001
00001000
00000010
00000000
00000101
00000001
00000000
00000011
00000010
00000000
00001100
00000100
00000000
00010100
00010000
00000000
,
00011000
00001000
00100000
00110000
00000000
01010000
01000000
00000000
10010000
10000000
00000000
11000000
01000000
00000000
01100000
00100000
,
00010000
10000000
00100000
00000000
01010000
01000000
00000000
01010000
01010000
00000000
10010000
10000000
00000000
11000000
11000000
00000000
,
01100000
00100000
00010000
00110000
00000000
00101000
00101000
00000000
00011000
00010000
00000100
00001100
00000000
00000110
00000010
00000000
,
00000001
00000000
00001000
00000000
00000001
00000000
00000100
00000000
00000010
00000100
00000000
00001000
00010000
00000000
01000000
10000000
00000000
00100000
01000000
00000000
02200000
00000000
00000000
03300000
10100000
00000000
00000000
00000000
01010000
00000000
00000000
00000000
,
00011000
00000000
00000000
00000100
00000010
00000001
00000100
00000010
00000100
00000001
00000010
00000100
00000110
00000000
00001100
00000000
,
00011000
00000000
00000000
00010000
01000000
00100000
00010000
01000000
00100000
00010000
00100000
01000000
01010000
00000000
00011000
00000000
,
00001100
00000000
00000000
00000010
00000001
00000100
00000010
00000100
00000000
00001000
00010000
00000000
00001000
00000000
00010000
00001000
,
00000100
00000000
00001000
00010000
01000000
00000000
00010000
00001000
00000010
00000000
00001000
00010000
01100000
00000000
01010000
00000000
,
00011000
00000000
00000000
00001000
00000010
00000100
00001000
00000001
00000100
00001000
00000100
00000001
00000110
00000000
00001010
00000000
,
00011000
00000000
00001000
00010000
01000000
00100000
00010000
01000000
00100000
10000000
01000000
00010000
01100000
00000000
00110000
00000000
,
00011000
00000000
00000000
00000100
00001000
00000010
00000100
00000001
00000000
00001000
00000100
00000000
00000010
00000000
00001000
00010000
,
01000000
00000000
00010000
00001000
00000100
00000000
00001000
00010000
00100000
00001000
00000100
00000010
00001000
00000000
00010000
01000000
,
10000000
00000000
00010000
00000000
10000000
00000000
00100000
00010000
00001000
00010000
00000000
00000100
00010200
00000000
00000310
00000001
,
00001000
00000000
00000001
00000000
00000201
00000000
00000310
00001000
00010000
01000000
10000000
01000000
00010000
00010000
00000000
10010000
,
10010000
00000000
11000000
00010000
00001000
00000100
00000001
00000020
00000000
00000130
00001000
00000010
00010010
00000000
00001000
00010000
,
01000000
00000000
00010000
00001000
00000100
00000000
00001000
00010000
01000000
00000000
00010000
00001000
00000100
00000000
00000001
00000010
,
00001000
00000000
00000010
00000000
00000100
00000000
00001000
00010000
00100000
01000000
00000000
10000000
00010000
00000000
10000000
00100000
,
00010000
00000000
00100000
10000000
00010000
00100000
01000000
00010000
00001000
00000100
00000001
00000010
00000200
00000000
00000000
00000000
,
00000000
00000000
00000000
00000000
,
00000000
00000000
00000000
00000000
,
00000000
00000000
00000000
00000000
,
00000000
00000000
00000300
00000000
;

//---------------dance-double - ----------------
#NOTES:
     dance-double:
     :
     Easy:
     4:
     0.245451,0.281290,0.140394,0.106967,0.000000,220.000000,21.000000,16.000000,0.000000,0.000000,0.000000,0.245451,0.281290,0.140394,0.106967,0.000000,220.000000,21.000000,16.000000,0.000000,0.000000,0.000000:
00000000
00000000
00000000
00000000
,
00000000
00000000
00000000
00000000
,
00000000
00000000
10000000
10000000
,
10000000
00000000
00010000
00010000
,
00010000
00000000
00100000
00100000
,
00100000
00000000
01000000
00010000
,
00001000
00000000
00000000
00000000
00010000
00001000
00000100
00000000
,
00001000
00000100
00000001
00000000
00000010
00000000
00000001
00000000
,
00000100
00000010
00000100
00000000
00001000
00010000
01000000
00000000
,
00010000
01000000
10000000
00000000
00010000
00000000
10000000
00000000
,
00100000
01000000
00100000
00000000
10000000
01000000
00010000
00000000
,
01000000
00010000
00001000
00000000
00010000
00000000
00001000
00000000
,
00010000
00001000
00000100
00000000
00001000
00000100
00000001
00000000
,
00000100
00000001
00001000
00000000
00000100
00000000
00000010
00000000
,
00000100
00010000
00001000
00000000
00011000
00000000
00001000
00010000
,
00001000
00000000
00010000
01000000
00100000
00000000
00010000
10000000
,
00010000
00000000
10000000
00100000
00010000
00000000
00001000
00010000
,
00001000
00000000
00010000
00000100
00001000
00000000
00001100
00000000
,
00010100
00000000
00011000
00000000
00101000
00000000
00010000
00001000
,
00010000
00000000
00001000
00000100
00000010
00000000
00001000
00000001
,
00001000
00000000
00000001
00000010
00001000
00000000
00010000
00001000
,
00010000
00000000
01000000
10000000
00010000
00000000
01010000
00000000
,
01001000
00011000
00010100
00022000
,
00000000
00033000
00001000
00000000
00000100
00000000
00000001
00001000
,
00000100
00000000
00001000
00000001
00000100
00000000
00000010
00000000
,
00000010
00000000
00000100
00000000
00000100
00000000
00000001
00001000
,
00000100
00000000
00001000
00000001
00000010
00000000
00000100
00000000
,
00010100
00000000
00010000
00001000
00100000
00000000
00001000
00100000
,
00010000
00000000
10000000
00010000
01000000
00000000
00100000
00000000
,
00100000
00000000
10000000
01000000
00100000
00000000
01000000
00010000
,
00001000
00000000
00010000
00001000
00000100
00000000
00000001
00000100
,
00000010
00000000
00000200
00000000
00000000
00000000
00000310
00000100
,
00000010
00000000
00001000
00000100
00000010
00000000
00000100
00000010
,
00000100
00000000
00001000
00000100
00000010
00000000
00000100
00010000
,
00001000
00000000
00001000
00010000
00001000
00000000
00011000
00000000
,
00010100
00000000
00011000
00000000
01001000
00000000
00010000
00001000
,
00010000
00000000
01000000
00100000
01000000
00000000
10000000
00010000
,
10000000
00000000
00100000
01000000
00100000
00000000
00010000
00001000
,
00010000
00000000
00001000
00000100
00000010
00000000
00001010
00000000
,
00010010
00011000
00101000
00210000
,
01300000
00000000
20000000
00000000
30100000
00010000
00002000
00000000
,
00013000
00000000
00001000
00000100
00000010
00000000
00001000
00000000
,
00000100
00000001
00000100
00002000
,
00003200
00000320
00000032
00000203
,
00001300
00000000
00020000
00000000
00031000
00010000
00200000
00000000
,
00310000
00100000
02000000
00000000
03100000
10000000
20020000
00000000
,
00000000
00000000
00000000
00000000
,
00000000
00000000
00000000
00000000
,
00000000
00000000
00000000
00000000
,
00000000
00000000
30030000
00000000
;
