#TITLE:Bad Girl;
#SUBTITLE:(w/ Lancaster);
#ARTIST:MACROSS 82-99;
#TITLETRANSLIT:;
#SUBTITLETRANSLIT:;
#ARTISTTRANSLIT:;
#GENRE:;
#CREDIT:;
#BANNER:[Round 1 Singles and Doubles] - Bad Girl (w Lancaster).png;
#BACKGROUND:[Round 1 Singles and Doubles] - Bad Girl (w Lancaster)-bg.png;
#LYRICSPATH:;
#CDTITLE:cdtitle.png;
#MUSIC:[Round 1 Singles and Doubles] - Bad Girl (w Lancaster).mp3;
#OFFSET:-8.619001;
#SAMPLESTART:50.730499;
#SAMPLELENGTH:12.890213;
#SELECTABLE:YES;
#BPMS:0.000000=114.000000
;
#STOPS:174.000000=0.541000
;
#BGCHANGES:;
#KEYSOUNDS:;
#ATTACKS:;

//---------------dance-single - ----------------
#NOTES:
     dance-single:
     :
     Hard:
     7:
     0.361488,0.325144,0.258701,0.153604,0.052549,262.000000,32.000000,19.000000,0.000000,0.000000,0.000000,0.361488,0.325144,0.258701,0.153604,0.052549,262.000000,32.000000,19.000000,0.000000,0.000000,0.000000:
1001
0000
0101
0000
0001
0100
0010
0000
,
1000
0010
0101
1100
,
1001
0000
0001
0000
1000
0010
0100
0000
,
0001
0100
1000
0100
0010
0010
0100
0001
,
0101
0000
0001
0000
0100
0010
1000
0000
,
0001
0010
0110
1001
,
1010
0000
0010
0000
0100
0010
1000
0000
,
0001
1000
1010
0011
,
1001
1000
0001
0000
1000
0010
0100
0001
,
0000
1000
1000
0000
1010
0000
0011
0000
,
1100
0000
0100
0000
1000
0010
0100
0001
,
0000
1000
0001
0000
1010
0000
0011
0000
,
1002
0000
0103
0000
0001
0100
0010
0000
,
2000
0000
3100
0000
1000
0010
0100
0000
,
0002
0000
0013
0000
0100
0010
0001
0000
,
2000
0000
3010
0000
0100
0010
1000
0000
,
0001
0000
1010
0000
1000
0001
0100
0000
,
0010
0000
1010
0000
1000
0010
0100
0000
,
0000
0001
0100
0010
1000
0001
0200
0000
,
0020
0000
0000
0300
,
0100
0100
0100
0100
,
0130
0010
1000
0001
0020
0000
0230
0000
,
0320
0000
0000
0000
0032
0000
0000
0000
1003
0000
0001
0100
0000
0001
1000
0000
,
0001
0000
0010
0100
0000
1000
0000
0000
0000
0000
0000
0000
0100
0000
1000
0000
,
0010
0100
0001
0010
0100
1000
0010
0010
,
0100
0000
0001
0000
1000
0000
0000
0010
0000
0000
0100
0000
0001
0000
0000
0000
,
2002
0000
0000
0000
,
0000
0000
3003
0000
0001
0010
1000
0010
,
0011
0000
0101
0000
0001
1000
0010
0000
,
1000
0000
0101
0000
0001
0100
0001
1000
,
0001
0000
0000
0000
0010
0000
0000
0000
0100
0000
0000
0000
2000
0000
0000
0020
,
0000
3030
0010
0100
,
1001
0000
0101
0000
0001
1000
0010
0000
,
0100
0000
0110
0000
0010
0010
0100
0001
,
0000
0000
1000
0000
0000
0000
0000
0000
0100
0000
0000
0000
1000
0000
0000
0002
,
0100
0000
0103
0000
0010
0100
0001
0000
,
1001
0000
1010
0000
1000
0100
1000
0000
,
0100
0000
0110
0000
0010
0100
1000
0001
,
0000
0000
1000
0000
0000
0000
0000
0000
0001
0000
0000
0000
0100
0000
0000
0020
,
1000
0000
1030
0000
0100
0010
0001
1000
,
0010
0000
1010
0000
0100
0001
0010
0000
,
0100
0000
1100
0000
1000
0001
1000
0100
,
0000
0000
1000
0000
0000
0000
0000
0000
0001
0000
0000
0000
0010
0000
0000
0200
,
0000
0300
0000
0010
,
0010
0000
0000
0000
0010
0000
0000
0000
0000
0000
0010
0001
0000
0000
0001
0000
,
0000
0001
0000
0000
0000
0000
0000
0000
2000
0000
0000
0000
3010
0000
0000
0000
,
0010
0000
0000
0000
0010
0000
0000
0000
0000
0000
1000
0010
0000
0000
0100
0000
,
0000
0100
0000
0000
0000
0000
0000
0000
0020
0000
0000
0000
1030
0000
0000
0000
,
1000
0000
1000
0000
0000
0001
1000
0010
,
0001
0010
0100
0001
1000
0100
0010
0000
,
0100
1000
0100
1000
,
0001
0000
0100
0010
0100
0001
1000
0000
,
0001
0100
0010
1000
,
0001
0000
1000
0010
0100
1000
0000
0000
;

//---------------dance-single - ----------------
#NOTES:
     dance-single:
     :
     Medium:
     4:
     0.265630,0.238439,0.194026,0.153604,0.000000,187.000000,24.000000,19.000000,0.000000,0.000000,0.000000,0.265630,0.238439,0.194026,0.153604,0.000000,187.000000,24.000000,19.000000,0.000000,0.000000,0.000000:
1001
0001
1000
0010
,
1000
0001
0011
1010
,
1100
1000
0010
0100
,
0002
0000
0000
0003
,
0011
0010
0001
0100
,
0001
1000
1100
0101
,
1100
0100
1000
0010
,
0100
0001
0011
1010
,
0011
0001
0010
0001
,
0100
0010
1010
0101
,
1010
1000
0001
0010
,
0001
1000
1001
0101
,
1001
1000
0000
0001
,
0000
0100
0000
0001
,
0000
1000
0000
0100
,
0000
1000
0000
0020
,
0130
0001
0100
0010
,
1000
0001
0010
0001
,
1000
0100
0001
0200
,
0000
0000
0000
0000
,
1000
0000
0010
0000
,
1300
0200
1300
0010
,
0200
0301
0100
0001
,
1000
0100
1000
0001
,
0100
0100
0001
0020
,
0031
0010
0001
1000
,
2002
0000
0000
0000
,
0000
0000
0000
3003
0110
0000
1001
0000
,
0110
0010
1000
1000
,
0010
0100
0001
0010
,
0001
1000
0200
2300
,
0020
3030
0010
1000
,
0101
0001
0010
0001
,
1000
0100
1000
1000
,
0001
0100
0002
2003
,
0200
3300
1000
1000
,
0101
0001
1000
1000
,
0010
0100
0001
1000
,
0100
1000
0020
0230
,
0002
0303
0001
0001
,
1100
1000
0010
0100
,
0001
0001
0100
0010
,
1000
0001
1000
0001
,
0200
0000
0300
0010
,
0010
0010
0000
1000
,
0000
0001
0000
1000
,
1000
1000
0000
0100
,
0000
1000
0020
0130
,
0100
0100
0000
0010
,
0100
0000
0001
1000
0010
1000
0001
0000
,
0001
1000
1000
0001
,
1000
0001
0001
0100
,
0010
0100
0100
0010
,
0100
0000
0010
0100
0001
1000
0000
0000
;

//---------------dance-single - ----------------
#NOTES:
     dance-single:
     :
     Challenge:
     8:
     0.502388,0.651805,0.226363,0.339545,0.327418,365.000000,28.000000,42.000000,0.000000,0.000000,0.000000,0.502388,0.651805,0.226363,0.339545,0.327418,365.000000,28.000000,42.000000,0.000000,0.000000,0.000000:
2001
0000
0000
0000
3010
0000
0000
0000
0100
0000
0001
0000
0010
0000
0001
1000
,
0000
0100
0100
0000
0021
0000
0230
0000
,
1300
0000
0000
0000
0011
0000
0000
0000
1000
0000
0100
0000
0010
0000
0100
0010
,
0001
0000
1000
0000
1000
0000
0001
1000
0010
0100
0010
0000
1000
0000
0001
0000
,
0011
0010
0100
0010
0001
0010
1000
0010
,
0001
0100
0010
0100
1200
0000
0302
0000
,
0013
0000
0100
0000
1000
0000
0001
0000
1000
0000
0010
0000
0100
0000
0001
1000
,
0001
0100
0100
0000
1020
0000
0230
0000
,
0301
0000
1000
0000
1010
0000
0010
1000
0100
0000
0010
0000
0100
0000
1000
0001
,
0010
0100
0100
0000
0210
0000
0320
0000
,
0031
0000
1000
0000
1100
0000
0100
1000
0001
0000
1000
0000
0100
0000
0010
0100
,
1000
0001
0001
0000
1020
0000
2030
0000
,
3100
0000
0010
0001
0000
1000
0000
0100
0000
0000
0010
0001
0000
0010
0100
1000
,
0000
0100
0000
0000
0000
0000
0000
0000
,
0000
0000
0010
0000
0001
1000
0100
0010
0000
0100
1000
0001
0100
0001
0000
0100
,
0010
0000
1000
0000
0010
0000
1000
0000
0000
0001
0000
0000
0000
0000
0000
0000
0000
0000
0000
0000
0000
0000
0000
0000
0000
0000
0000
0000
0000
0000
0000
0000
0000
0000
0000
0000
1000
0000
0000
0000
0000
0000
0000
0000
0000
0000
0000
0000
,
1001
0000
0001
1000
0000
0010
0000
1000
0000
0000
0001
0010
0000
0100
0010
0100
,
0000
0000
1000
0000
0010
0000
0100
0001
0000
0000
0000
0000
1000
0000
0000
0001
,
0000
1000
0010
1000
0000
0001
0100
0001
0000
0010
0001
0010
0000
0010
0100
2000
,
0020
0000
0000
3000
,
1000
0100
0001
0100
,
1030
0010
1000
0001
0020
0000
0230
0000
,
0320
0000
0000
0000
0032
0000
0000
0000
2003
0000
3001
0100
0000
0001
0100
0000
,
0010
0000
1000
0001
0000
0010
0000
0000
0000
0000
0000
0000
0100
1000
0010
0100
,
0001
0010
0001
0100
0010
1000
0100
0010
0001
0010
0001
1000
0010
0001
0010
1000
,
0001
0100
0001
0010
0001
1000
0001
1000
0000
0001
1000
0100
1000
0000
0001
1000
,
0020
1000
0100
0001
,
0230
0000
1000
0000
0310
1001
0100
1001
,
0010
0000
0101
0000
0001
1000
0100
1000
,
1001
0001
0001
0000
0100
0010
1000
0001
,
0000
0000
1100
0000
0000
0000
0000
0000
2010
0000
0000
3000
0002
0000
0000
0200
,
0000
0000
0000
0303
0001
0100
1000
0100
,
0110
0000
1010
0000
1000
0010
0100
0001
,
0011
0010
0010
0000
0100
1000
0100
1000
,
0000
0000
1010
0000
0000
0000
0000
0000
0020
0000
0000
0000
0230
0000
0000
0301
,
0010
0000
0000
0000
2002
0000
3003
0000
0001
0000
1000
0000
0010
1000
0000
0000
,
0201
0000
0301
0000
0010
0001
1000
0001
,
1000
0010
0010
0000
0100
0001
1000
0100
,
0000
0000
0110
0000
0000
0000
0000
0000
2000
0000
0000
0000
3002
0000
0000
0103
,
0010
0000
0000
0000
2002
0000
3003
0000
0001
0000
0100
0000
0010
1000
0000
0000
,
1200
0000
0310
0000
0100
0010
0001
1000
,
0001
0100
0100
0010
0100
0010
1000
0001
,
0000
0000
1100
0000
0000
0000
0000
0000
2000
0000
0000
0000
3020
0000
0000
0130
,
0010
2002
3003
0001
,
0001
0000
0000
0000
0002
0000
0000
0003
0000
0000
0001
1000
0000
0000
0001
0000
,
0000
0001
0000
0000
0000
0000
0000
0000
0200
0000
0000
0000
0310
0000
0000
0000
,
0010
0000
0000
0000
0010
0000
0000
0000
0000
0000
0010
0100
0000
0000
0010
0000
,
0000
0010
0000
0000
0000
0000
0000
0000
0200
0000
0000
0000
0301
0000
0000
0000
,
1000
0000
0000
0000
0000
0000
0000
0000
0000
0000
0000
0000
0010
0000
0000
0000
0000
0000
0000
0000
0000
0000
0000
0000
0000
0000
0000
0000
0000
0000
0100
0000
0000
0010
0000
0000
1000
0000
0000
0001
0000
0000
1000
0000
0001
0000
1000
0000
,
0001
0010
0100
1000
0100
0010
0001
0100
1000
0000
0010
0000
1000
0000
0001
0000
,
0100
0001
1000
0100
1000
0001
0100
0001
,
1000
0000
0100
0000
1000
0000
0001
1000
0100
0000
0010
0000
0001
0000
1000
0000
,
0010
1000
0001
0010
0001
1000
0010
1000
,
0001
0000
0010
0000
0001
0000
1000
0001
0200
0000
0020
0000
0330
0000
0000
0000
;

//---------------dance-single - ----------------
#NOTES:
     dance-single:
     :
     Easy:
     3:
     0.202110,0.195087,0.040422,0.113182,0.000000,156.000000,5.000000,14.000000,0.000000,0.000000,0.000000,0.202110,0.195087,0.040422,0.113182,0.000000,156.000000,5.000000,14.000000,0.000000,0.000000,0.000000:
1001
0000
0001
0000
,
1000
1000
0001
0100
,
0010
0000
0100
0000
,
0001
1000
0010
1000
,
0001
0000
1000
0000
,
0100
0100
1000
0010
,
0100
0000
0001
0000
,
1000
1000
0100
0010
,
0001
0100
0001
1000
,
0001
0010
0100
0010
,
0001
1000
0010
0100
,
0010
1000
0001
1000
,
0010
0000
1000
0000
,
0001
0001
0000
0000
,
0100
0000
0001
0000
,
0010
0001
0000
1000
,
0001
1000
0010
0010
,
1000
0001
0100
0100
,
0001
1000
0010
0200
,
0020
0000
0000
0000
,
0000
0000
0000
0330
,
0010
0100
0002
1003
,
2000
3100
2000
3001
,
0100
0001
0000
0100
,
0001
0010
0001
1000
,
1000
0100
1000
0010
,
2002
0000
0000
0000
,
0000
0000
3000
0003
,
1001
0001
1000
0010
,
1000
0100
1000
0010
,
0100
0000
0001
1000
,
0020
0000
0000
0000
,
0130
0001
0000
1000
,
0001
0001
0100
0001
,
1000
0000
0001
2000
,
0200
3300
0100
0100
,
1001
0000
0001
0000
,
0100
0001
0100
0010
,
0100
0000
0010
2000
,
0002
3003
0001
1000
,
1001
0000
0001
0000
,
0100
0100
0010
1000
,
0010
0100
0010
2000
,
0002
0000
3003
0001
,
0001
0000
0001
0000
0000
0000
0000
1000
,
0000
0000
0000
1000
,
1000
0000
1000
0000
0000
0000
0000
0001
,
0000
0000
0000
0100
,
0100
0100
0000
0010
,
0100
0001
0000
1000
,
0000
0001
0000
1000
,
0000
0001
0100
0010
,
0000
0100
0000
0010
,
0000
0000
0100
0001
1000
0001
0000
0000
;

//---------------dance-double - ----------------
#NOTES:
     dance-double:
     :
     Hard:
     7:
     0.374192,0.347629,0.242532,0.185941,0.076802,271.000000,30.000000,23.000000,0.000000,0.000000,0.000000,0.374192,0.347629,0.242532,0.185941,0.076802,271.000000,30.000000,23.000000,0.000000,0.000000,0.000000:
10020000
00000000
01030000
00000000
00100000
10000000
01000000
00100000
,
00000000
01000000
01000000
00000000
01100000
00000000
00101000
00000000
,
00010100
00000000
00000100
00000000
00001000
00000010
00000100
00000000
,
00000001
00000010
00001000
00000010
00000100
00001000
00000100
00010000
,
00011000
00000000
00001000
00000000
01000000
00010000
00100000
01000000
,
00000000
10000000
10000000
00000000
01100000
00000000
00110000
00000000
,
00101000
00000000
00001000
00000000
00010000
00000100
00001000
00000000
,
00000010
00001000
00000001
00000000
00000101
00000000
00001100
00000000
,
00002010
00000000
00003100
00000000
00001000
00000100
00010000
00001000
,
00000000
00100000
00100000
00000000
00110000
00000000
00010100
00000000
,
00021000
00000000
00030100
00000000
00001000
00000010
00000001
00000010
,
00000000
00000100
00000100
00000000
00000120
00000000
00002030
00000000
,
00003100
00001000
00000010
00000100
,
00000001
00001000
00000001
00000000
00001000
00000000
00000100
00000000
,
00001000
00000100
00010000
00001000
,
01000000
00100000
01000000
00000000
00100000
00000000
10000000
00000000
,
01010000
00010000
00100000
00001000
00010000
00000100
00001000
00000010
,
00000100
00000000
00000001
00000000
00001000
00000000
00000000
00000100
00000000
00000000
00000000
00000000
00001000
00000000
00000000
00000010
,
00000000
00000000
00000100
00000010
00000000
00000000
00000010
00001000
00000000
00000000
00001000
00000001
00000200
00000000
00000000
00000000
,
00000000
00000000
00000000
00000000
,
00000010
00000010
00000001
00000301
,
00000100
00000010
00001000
00000100
00020000
00000000
00030200
00000000
,
00020300
00000000
00000000
00000000
00032000
00000000
00000000
00000000
01003000
00000000
00010000
01000000
00000000
00100000
10000000
00000000
,
01000000
00000000
00100000
00010000
00000000
00010000
00000000
00000000
00000000
00000000
00000000
00000000
00100000
00000000
01000000
00000000
,
10000000
00010000
00100000
00010000
01000000
00001000
00010000
00010000
,
00000100
00000000
00000010
00000000
00000001
00000000
00000000
00000010
00000000
00000000
00000001
00000000
00000100
00000000
00000000
00000000
,
00002020
00000000
00000000
00000000
,
00000000
00000000
00003030
00000000
00000010
00010000
00001000
01000000
,
10010000
00000000
01010000
00000000
00010000
10000000
00100000
01000000
,
00000000
00010000
10000000
00000000
01000000
00100000
00010000
01000000
,
00000000
00000000
00001000
00000000
00000000
00000000
00000000
00000000
00020000
00000000
00000000
00000000
00030200
00000000
00000000
00002000
,
00000000
00003300
00000100
00000010
,
00001002
00000000
00000103
00000000
00000001
00001000
00000010
00000100
,
00000000
00000001
00001000
00000100
00010000
00001000
00100000
00010000
,
00000000
01000000
00000000
00000000
00100000
00000000
10000000
00000000
,
10010000
01010000
00101000
00011000
,
00001200
00000000
00000310
00000000
00000100
00000010
00000001
00001000
,
00000010
00000100
00000100
00000000
00000010
00001000
00000100
00010000
,
00000000
00001000
00000000
00000000
00100000
00000000
00001000
00000000
,
00110000
00011000
00001010
00011000
,
02001000
00000000
03100000
00000000
01000000
00100000
10000000
00010000
,
10000000
01000000
01000000
00100000
00010000
01000000
00001000
00010000
,
00000000
00000000
00001000
00000000
00000000
00000000
00000000
00000000
00100000
00000000
00000000
00000000
01000000
00000000
00000000
20000000
,
00000000
00000000
30000000
00010000
,
00010000
00000000
00000000
00000000
00010000
00000000
00000000
00000000
00000000
00000000
01000000
00100000
00000000
00000000
10000000
00000000
,
00000000
10000000
00000000
00000000
00000000
00000000
00000000
00000000
00020000
00000000
00000000
00000000
00130000
00000000
00000000
00000000
,
00100000
00000000
00000000
00000000
00100000
00000000
00000000
00000000
00000000
00000000
00001000
00010000
00000000
00000000
00000100
00000000
,
00000000
00000100
00000000
00000000
00000000
00000000
00000000
00000000
00000020
00000000
00000000
00000000
00000031
00000000
00000000
00000000
,
00000001
00000000
00000001
00000000
00000000
00001000
00000010
00010000
,
00001000
00000000
01000000
00000000
00100000
00000000
10000000
00010000
10000000
00000000
01000000
00000000
00100000
00000000
00000000
00000000
,
00010000
01000000
00100000
10000000
,
00010000
00000000
00000000
00000000
00100000
00000000
00001000
00010000
00001000
00000000
00010000
00000000
00000100
00000000
00000000
00000000
,
00001000
00000010
00000100
00000001
,
00001000
00000000
00000000
00000000
00000100
00000000
00010000
00001000
00020000
00000000
00002000
00000000
00033000
00000000
00000000
00000000
;

//---------------dance-double - ----------------
#NOTES:
     dance-double:
     :
     Medium:
     5:
     0.322221,0.281792,0.258701,0.121266,0.012127,232.000000,32.000000,15.000000,0.000000,0.000000,0.000000,0.322221,0.281792,0.258701,0.121266,0.012127,232.000000,32.000000,15.000000,0.000000,0.000000,0.000000:
// measure 0
10010000
00000000
00010000
00000000
01000000
00100000
10000000
00000000
,  // measure 1
00010000
00100000
00101000
00011000
,  // measure 2
00001100
00000000
00000100
00000000
00000010
00000001
00000100
00000000
,  // measure 3
00000020
00000000
00001030
00000000
00000100
00010000
00001000
00100000
,  // measure 4
01100000
01000000
10000000
00100000
,  // measure 5
01000000
00010000
00100000
00000000
01100000
00000000
00110000
00000000
,  // measure 6
00101000
00000000
00001000
00000000
00010000
00000100
00001000
00000000
,  // measure 7
00000100
00000010
00000011
00000110
,  // measure 8
00001001
00000000
00000001
00000000
00000100
00000010
00001000
00000010
,  // measure 9
00000000
00001000
00001000
00000000
00001100
00000000
00011000
00000000
,  // measure 10
00110000
00000000
00010000
00000000
01000000
00100000
10000000
00000000
,  // measure 11
00010000
10000000
11000000
01010000
,  // measure 12
02100000
03010000
10000000
01000000
,  // measure 13
10000000
00100000
10000000
00000000
00000000
00000000
00000000
00000000
,  // measure 14
00010000
00100000
00001000
00010000
,  // measure 15
00000100
00000010
00000001
00000000
00000000
00000000
00001000
00000000
,  // measure 16
00001010
00000000
00000010
00000000
00001000
00000100
00010000
00000000
,  // measure 17
00000100
00000000
00010000
00000000
00100000
01000000
10000000
00000000
,  // measure 18
00010000
01000000
00100000
20000000
,  // measure 19
00020000
00000000
00000000
00000000
00000000
00000000
00000000
30030000
,  // measure 20
10010000
00010000
00100000
00001000
,  // measure 21
00010000
00000000
00000100
00000010
00000002
00000000
00000013
00000000
,  // measure 22
00000200
00000000
00000000
00000000
00001300
00000000
00000000
00000000
00000100
00000000
00000000
00001000
00000000
00000000
00000010
00000000
,  // measure 23
00000100
00000000
00000000
00000001
00000000
00001000
00000000
00000000
00000000
00000000
00000000
00000000
00000010
00000000
00000000
00000000
,  // measure 24
00001000
00000000
00000001
00000000
00001000
00000100
00010000
00001000
,  // measure 25
01000000
00010000
00100000
01000000
,  // measure 26
20020000
00000000
00000000
00000000
,  // measure 27
00000000
00000000
00000000
30030000
10000000
01000000
00010000
01000000
,  // measure 28
10000000
10100000
00100000
01000000
,  // measure 29
10000000
00010000
00100000
00000000
00001000
00000000
00010000
00000000
,  // measure 30
00000100
00000001
00000200
00002300
,  // measure 31
00000020
00003030
00000010
00000100
,  // measure 32
00001001
00000000
00000001
00000000
00001000
00000010
00001000
00000000
,  // measure 33
00000100
00000000
00010000
00000000
00001000
00100000
00001000
01000000
,  // measure 34
00000000
00010000
00000000
00000000
10000000
00000000
00010000
00000000
,  // measure 35
10010000
01010000
10010000
11000000
,  // measure 36
10010000
00000000
00010000
00000000
00100000
00001000
00010000
00000000
,  // measure 37
00000100
00000010
00000010
00000000
00000001
00000010
00000100
00001000
,  // measure 38
00000001
00000100
00000010
00001000
,  // measure 39
00001100
00000110
00000011
00000101
,  // measure 40
00001001
00000000
00000001
00000000
00001000
00000100
00010000
00001000
,  // measure 41
00000000
00100000
00100000
00000000
01000000
00000000
10000000
00000000
,  // measure 42
00100000
01000000
00010000
00100000
,  // measure 43
00002000
00020000
00033000
00001000
,  // measure 44
00001000
00001000
00000000
00100000
,  // measure 45
00010000
01000000
00200000
10300000
,  // measure 46
10000000
10000000
00000000
00010000
,  // measure 47
00100000
00000000
00002000
00013000
,  // measure 48
00010000
00010000
00000000
00000100
,  // measure 49
00000010
00000000
00000001
00001000
00000001
00001000
00000010
00000000
,  // measure 50
00001000
00000100
00010000
00001000
,  // measure 51
00100000
00000000
01000000
00100000
00010000
10000000
00100000
00000000
,  // measure 52
01000000
00001000
00010000
00000100
,  // measure 53
00001000
00000000
00000010
00000100
00000001
00001000
00000000
00000000
;

//---------------dance-double - ----------------
#NOTES:
     dance-double:
     :
     Easy:
     3:
     0.214814,0.216763,0.056591,0.088928,0.000000,168.000000,7.000000,11.000000,0.000000,0.000000,0.000000,0.214814,0.216763,0.056591,0.088928,0.000000,168.000000,7.000000,11.000000,0.000000,0.000000,0.000000:
10010000
00010000
00000000
00100000
,
01000000
01000000
00100000
00001000
,
00010000
00001000
00000000
00000010
,
00000100
00000001
00000010
00000100
,
00001001
00000000
00001000
00000000
,
00000100
00001000
00001000
00000100
,
00010000
00001000
00000000
00100000
,
00000000
00010000
01000000
00100000
,
10010000
00010000
00100000
00100000
,
00001000
00010000
00000100
00000010
,
00000001
00000100
00000010
00000010
,
00001000
00000100
00010000
00001000
,
01000000
00010000
00000000
00010000
,
00000000
10000000
00000000
10000000
,
00000000
01000000
00000000
01000000
,
00000000
00100000
00000000
00100000
,
00010000
01000000
00001000
00010000
,
00000100
00000100
00000100
00000000
,
00001000
00000100
00000010
00000002
,
00002000
00000000
00000000
00000000
,
00000000
00000000
00000000
00003003
,
00000001
00000100
00000010
00001000
,
00000100
00010000
00001000
00100000
,
01000000
10000000
00000000
00000000
,
01000000
10000000
00100000
02000000
,
03010000
00100000
00001000
00010000
,
00022000
00000000
00000000
00000000
,
00033000
00000000
00010000
00000100
,
00001100
00000000
00000100
00000010
,
00000001
00001000
00000001
00000010
,
00000001
00000000
00000100
00000010
,
00002000
00000000
00003100
00010000
,
00011000
00001000
00100000
00010000
,
01000000
01000000
00100000
10000000
,
00010000
00010000
10000000
00010000
,
00200000
00000000
01300000
01000000
,
10010000
00010000
00100000
00001000
,
00010000
00010000
00000100
00000010
,
00000001
00000010
00000001
00000100
,
00000010
00002000
00003001
00000020
,
00000130
00001000
00000100
00010000
,
00001000
00001000
00100000
01000000
,
10000000
00010000
01000000
01000000
,
01000000
00000000
00000000
00010000
,
00010000
00000000
00010000
00000000
00000000
00000000
00000000
00100000
,
00000000
00000000
00002000
00013000
,
00010000
00000000
00010000
00000000
00000000
00000000
00000000
00000100
,
00000000
00000000
00000020
00000031
,
00000001
00000001
00000000
00000001
,
00000100
00000010
00001000
00000100
,
00000000
00010000
00000000
00001000
,
00000000
01000000
00000000
00100000
,
00000000
10000000
00000000
00010000
,
00000000
00000000
00100000
00000000
00010000
10000000
00000000
00000000
;

//---------------dance-single - ----------------
#NOTES:
     dance-single:
     :
     Beginner:
     1:
     0.107407,0.108129,0.056591,0.000000,0.000000,86.000000,7.000000,0.000000,0.000000,0.000000,0.000000,0.107407,0.108129,0.056591,0.000000,0.000000,86.000000,7.000000,0.000000,0.000000,0.000000,0.000000:
1001
0000
0000
0000
,
0000
0000
1000
1000
,
0010
0000
0000
0000
,
0100
0000
0000
0000
,
1001
0000
0000
0000
,
0000
0000
0001
0010
,
0001
0000
0000
0000
,
0000
0000
1000
0010
,
0110
0000
0000
0000
,
0000
0000
0100
0100
,
0010
0000
0000
0000
,
0000
0000
1000
0001
,
0010
0000
0000
0000
,
0100
0000
0000
0000
,
0010
0000
0000
0000
,
0001
0000
0000
1000
,
0001
0000
0000
0000
,
0100
0000
0000
0000
,
0010
0000
0100
0000
,
0001
0000
0000
0000
,
1000
0000
0000
0000
,
0010
0000
0100
0000
,
0001
0000
1000
0000
,
0001
0001
0000
0000
,
1000
0000
0100
0000
,
0010
0000
0001
0000
,
1001
0000
0000
0000
,
0000
0000
0010
0010
,
1001
0000
0000
0000
,
0000
0000
1000
0000
,
0001
0000
0100
0100
,
0100
0000
0000
0000
,
0110
0000
0000
0000
,
0010
0000
1000
1000
,
1000
0000
0001
0000
,
1000
0000
0010
0010
,
1001
0000
0000
0000
,
0100
0000
0001
0000
,
1000
0000
0100
0100
,
0100
0000
1000
0000
,
0001
0000
0000
0000
,
0000
0100
0010
0000
,
0100
0000
0001
1000
,
0001
0000
0000
1000
,
1000
1000
0000
0000
,
0000
0000
0000
0001
,
0001
0001
0000
0000
,
0000
0000
0000
0100
,
0100
0100
0000
0010
,
0000
0000
0000
1000
,
0000
0000
0000
0001
,
0000
0000
0000
0100
,
0000
0000
0000
0010
,
0000
0000
0100
0000
;
