#TITLE:Prismatic Lollipops;
#SUBTITLE:;
#ARTIST:Dj Mashiro;
#TITLETRANSLIT:;
#SUBTITLETRANSLIT:;
#ARTISTTRANSLIT:;
#CREDIT:brunobg24;
#BANNER:[Round 1 Doubles] - Prismatic Lollipops.png;
#BACKGROUND:[Round 1 Doubles] - Prismatic Lollipops-bg.png;
#LYRICSPATH:;
#CDTITLE:cdtitle.png;
#MUSIC:[Round 1 Doubles] - Prismatic Lollipops.mp3;
#OFFSET:-0.120;
#SAMPLESTART:3.640;
#SAMPLELENGTH:9.579;
#SELECTABLE:YES;
#BPMS:0.000=202.000;
#STOPS:;
#BGCHANGES:;

//---------------dance-double - ----------------
#NOTES:
     dance-double:
     :
     Hard:
     9:
     0.738,0.683,0.880,0.000,0.106:
00000000
00000000
00000000
00000000
,
00000000
00000000
00000000
00000000
,
00000000
00000000
00000000
00000000
,
10010000
00000000
01010000
00000000
10000000
01000000
00100000
00010000
,
00000000
00101000
00000000
00010000
00001000
01000000
00001000
00100000
,
00001000
00000000
00010100
00000000
00001010
00000000
00000100
00000001
,
00000000
00000011
00000000
00010000
00000010
00010000
00001000
00010000
,
00000100
00000000
00011000
00000000
00110000
00000000
00100000
01000000
,
00000000
00101000
00000000
01000000
00010000
00001000
00000010
00000100
,
00000010
00000000
00000000
00000000
00001000
00000000
00000000
00000000
00000100
00000000
00010000
00001000
00010000
00000000
00001000
00010000
,
00001000
00000000
01000000
00000000
00001000
00000000
00100000
00000000
00001000
00010000
00001000
00000000
00010000
00000000
00000010
00000000
,
00000100
00000000
00000101
00000000
00000001
00000010
00000100
00001000
,
00000000
00010010
00000000
00001000
00010000
00000100
00010000
00000010
,
00010000
00000000
00001000
01000000
00100000
10000000
00000000
10100000
,
00000000
01010000
00000000
00001000
00100000
00001000
00010000
00001000
,
01000000
00000000
00011000
00000000
00001010
00000000
00000010
00000100
,
00000000
00010010
00000000
00000100
00001000
00000010
00010000
00001000
,
01000000
00100000
10000000
00010000
00100000
00001000
00000000
00010000
,
00000010
00000000
00000000
00000100
00000000
00000000
00001000
00000000
00010000
00001000
00010000
00000000
00001000
00000000
01000000
00000000
,
01010000
00011000
00001100
00011000
,
00000010
00000000
00010000
00000000
00001000
00000000
00010000
00000000
01000000
00000000
00000000
00000000
00010000
00001000
00010000
00001000
,
00010000
00000000
00000000
00000000
00000100
00000000
00000010
00000000
00000000
00000000
00000010
00000000
00000001
00000100
00000001
00000100
,
00000010
00000000
00001000
00000000
00000100
00010000
00001000
01000000
,
00000000
00100000
10000000
01000000
00100000
00000000
01000000
10000000
,
00000000
00100000
00000000
10000000
01000000
00010000
00001000
00000100
,
00000001
00000000
00000000
00000010
00000100
00000000
00000000
00010000
,
00000010
00000000
00010000
00000000
00001000
00000000
01000000
00001000
,
00100000
00000000
01100000
00000000
01000000
00010000
00001000
00000100
,
00000001
00000000
00000100
00000000
00000001
00000100
00001000
00010000
,
01000000
00000000
00000000
00000000
10000000
00000000
00100000
00000000
00000000
00000000
00100000
00000000
10000000
01000000
10000000
01000000
,
00100000
00000000
00010000
00000000
01000000
00001000
00010000
00000100
,
00000000
00000010
00000001
00000100
00000010
00000000
00000100
00000001
,
00000000
00000010
00000000
00000001
00000100
00001000
00010000
01000000
,
10000000
00000000
00000000
00100000
01000000
00000000
00000000
00001000
,
00100000
00000000
00001000
00000000
00010000
00000000
00000100
00010000
,
00000010
00000000
00000110
00000000
00000100
00001000
00010000
01000000
,
10000000
00000000
01000000
00000000
10000000
01000000
00010000
00001000
,
00000100
00000110
00001001
00000011
,
00000100
00000001
00000010
00000001
00001000
00000000
00000100
00000000
,
00011000
00000000
00110000
00000000
01010000
00000000
10000000
00100000
,
10000000
01010000
00011000
00001100
,
00011000
00000000
00110000
00000000
10010000
00000000
10000000
01000000
,
00100000
00010000
01000000
00100000
10000000
00000000
10010000
00000000
,
00110000
00011000
00001010
00001001
,
00000110
00000000
00000000
00000000
00001001
00000000
00000000
00000000
00000110
00000000
00000000
00000000
00000001
00000010
00000001
00000010
,
00000100
00001100
00011000
00001010
,
00001000
00000100
00001000
00000010
00000100
00000000
00000001
00000000
,
00010100
00000000
01001000
00000000
00110000
00000000
10000000
01000000
,
00100000
00110000
00011000
00001010
,
00011000
00000000
00101000
00000000
01010000
00000000
10000000
00100000
,
01000000
00010000
00100000
01000000
10000000
00000000
01100000
00000000
,
01010000
00101000
00010010
00001100
,
00011000
00100010
00011000
01000100
,
00011000
00000000
00000000
00000000
00001000
00000000
00010000
00000000
00000000
00000000
00000000
00000000
00000100
00001000
00000100
00001000
,
00000001
00000000
00001100
00000000
00000001
00000100
00000010
00001000
,
00000000
00010010
00000000
00001000
00010000
00000100
00010000
00000010
,
00010000
00000000
01001000
00000000
00110000
00000000
01000000
10000000
,
00000000
10100000
00000000
00001000
00100000
00001000
00010000
00001000
,
01000000
00000000
00011000
00000000
00001010
00000000
00000010
00000100
,
00000000
00010010
00000000
00000100
00001000
00010000
00100000
01000000
,
00100000
00000000
00000000
00000000
00010000
00000000
00000000
00000000
01000000
00000000
00001000
00010000
00001000
00000000
00010000
00001000
,
00010000
00000000
00000100
00000000
00010000
00000000
00000010
00000000
00010000
00001000
00010000
00000000
00001000
00000000
00100000
00000000
,
01000000
00000000
11000000
00000000
10000000
00100000
01000000
00010000
,
00000000
00101000
00000000
00010000
00001000
01000000
00001000
00100000
,
00001000
00000000
00010000
00000100
00000010
00000001
00000000
00000011
,
00000000
00001100
00000000
00010000
00000010
00010000
00001000
00010000
,
00000100
00000000
00011000
00000000
00110000
00000000
00100000
01000000
,
00000000
00101000
00000000
01000000
00010000
00100000
00001000
00010000
,
00000100
00000010
00000001
00001000
00000010
00010000
00000000
00001000
,
00100000
00000000
00000000
01000000
00000000
00000000
00010000
00000000
00001000
00010000
00001000
00000000
00010000
00000000
00000100
00000000
,
00001100
00011000
01001000
00011000
,
00100000
00001000
00010000
00001000
00000100
00000000
00000000
00000000
;

//---------------dance-double - ----------------
#NOTES:
     dance-double:
     :
     Medium:
     6:
     0.499,0.531,0.286,0.000,0.011:
00000000
00000000
00000000
00000000
,
00000000
00000000
00000000
00000000
,
00000000
00000000
00000000
00000000
,
00000001
00000000
00000001
00000000
00001000
00000000
00000010
00000100
,
00000000
00000010
00000000
00001000
00000100
00000000
00010000
00000000
,
00001000
00000000
00001000
00000000
01000000
00000000
00100000
10000000
,
00000000
01000000
00000000
10000000
00010000
00000000
00100000
00000000
,
00010000
00000000
00010000
00000000
00000100
00000000
00000010
00000100
,
00000000
00000001
00000000
00000010
00000100
00000000
00001000
00000000
,
00000001
00000000
00000001
00000000
00001000
00000100
00000000
00010000
,
00000000
00001000
00000000
00100000
00010000
00100000
00010000
10000000
,
00100000
00000000
00100000
00000000
10000000
00000000
01000000
00100000
,
00000000
00010000
00000000
01000000
00001000
00000000
00010000
00000000
,
00000100
00000000
00000010
00000001
00000010
00000001
00000000
00000100
,
00000000
00000010
00001000
00000000
00000100
00000000
00010000
00000000
,
00001000
00000000
00001000
00000000
00100000
00000000
00010000
01000000
,
00000000
00100000
00000000
10000000
01000000
00000000
00100000
00000000
,
00001000
00010000
00001000
00000000
00010000
00001000
00000000
00010000
,
00000010
00000000
00000000
00000010
00000000
00000000
00000010
00000000
00001000
00000000
00000100
00000000
00001000
00000000
00000100
00000000
,
00010000
00011000
00001000
00011000
,
00010000
00001000
00010000
00001000
00010000
00000000
00000000
00000000
,
00000100
00001000
00000000
00000010
,
00000100
00000100
00000001
00000010
,
00000000
00000100
00001000
00000100
,
00010000
00001000
01000000
00100000
,
10000000
00000000
01000000
00000000
,
00100000
00001000
00010000
00000010
,
00000100
00000001
00001000
00001001
,
00000000
00000000
00000000
00000000
,
00000010
00001000
00000100
00010000
,
00001000
01000000
00010000
00100000
,
01000000
10000000
00100000
01000000
,
00010000
00100000
00001000
00010000
,
00000010
00001000
00000100
00000010
,
00000001
00001000
00000010
00010000
,
00010100
00000000
01001000
00000000
,
00010000
00010000
00001000
00001000
,
01000000
00011000
00000100
00011000
,
00010000
00001000
00010000
00000000
00000100
00000000
00001000
00000000
,
00000010
00000000
00000110
00000000
00000100
00000000
00000001
00000010
,
00000001
00000100
00000010
00001000
,
00000100
00000000
00001100
00000000
00010000
00000000
00001000
01000000
,
00001000
00100000
00010000
10000000
,
01000000
01100000
00100000
00101000
,
00010100
00011000
01001000
00000000
,
00100000
00011000
00000010
00011000
,
00010000
00001000
00010000
00000000
00000010
00000000
00001000
00000000
,
00000100
00000000
00000110
00000000
00000010
00000000
00000001
00000100
,
00000001
00000010
00000100
00001000
,
00000010
00000000
00001010
00000000
00010000
00000000
00001000
00100000
,
00001000
01000000
00010000
10000000
,
00100000
01100000
01000000
01001000
,
00011000
00010100
00011000
01001000
,
01010000
00000000
10000000
00100000
00000000
00000000
00000000
00000000
,
10000000
00000000
10000000
00000000
00010000
00000000
00100000
01000000
,
00000000
00100000
00000000
00010000
01000000
00000000
00001000
00000000
,
00010000
00000000
00010000
00000000
00000100
00000000
00000010
00000001
,
00000000
00000100
00000000
00000001
00001000
00000000
00000010
00000000
,
00001000
00000000
00001000
00000000
01000000
00000000
00100000
01000000
,
00000000
10000000
00000000
00100000
01000000
00000000
00010000
00000000
,
10000000
00000000
10000000
00000000
00010000
01000000
00000000
00001000
,
00000000
00010000
00000000
00000010
00001000
00000010
00001000
00000001
,
00000010
00000000
00000010
00000000
00000001
00000000
00000100
00000010
,
00000000
00001000
00000000
00000100
00010000
00000000
00001000
00000000
,
01000000
00000000
00100000
10000000
00100000
10000000
00000000
01000000
,
00000000
00100000
00010000
00000000
01000000
00000000
10000000
00000000
,
00010000
00000000
00010000
00000000
00000010
00000000
00001000
00000100
,
00000000
00000010
00000000
00000001
00000100
00000000
00000010
00000000
,
00010000
00001000
00010000
00000000
00001000
00010000
00000000
00001000
,
00100000
00000000
00000000
00100000
00000000
00000000
00100000
00000000
00010000
00000000
01000000
00000000
00010000
00000000
01000000
00000000
,
00001000
00011000
00010000
00011000
,
00001000
00010000
00001000
00010000
00001000
00000000
00000000
00000000
;

//---------------dance-double - ----------------
#NOTES:
     dance-double:
     :
     Easy:
     3:
     0.324,0.341,0.053,0.000,0.000: // measure 1
00000000
00000000
00000000
00000000
,  // measure 2
00000000
00000000
00000000
00000000
,  // measure 3
00000000
00000000
00000000
00000000
,  // measure 4
10000000
00100000
10000000
00000000
,  // measure 5
00010000
01000000
00010000
00000000
,  // measure 6
10000000
00010000
10000000
00000000
,  // measure 7
00010000
01000000
00010000
00000000
,  // measure 8
00100000
00001000
00100000
00000000
,  // measure 9
00001000
00010000
00001000
00000000
,  // measure 10
00010000
00000010
00010000
00000000
,  // measure 11
00001000
00001000
00010000
00010000
,  // measure 12
00001000
00010000
00001000
00000000
,  // measure 13
00100000
00010000
00100000
00000000
,  // measure 14
00010000
01000000
00010000
00000000
,  // measure 15
10000000
01000000
10000000
00000000
,  // measure 16
00010000
10000000
00010000
00000000
,  // measure 17
00100000
00001000
00100000
00000000
,  // measure 18
00001000
00001000
00010000
00000000
,  // measure 19
00000100
00000000
00001001
00000000
,  // measure 20
00000001
00000001
00001000
00001000
,  // measure 21
00000001
00001000
00001001
00000000
,  // measure 22
00000100
00000000
00000000
00000000
,  // measure 23
00010000
00000000
00000000
00000000
,  // measure 24
00001000
00000000
00000000
00000000
,  // measure 25
00100000
00000000
00000000
00000000
,  // measure 26
00010000
00000000
00000000
00000000
,  // measure 27
01000000
00000000
00000000
00000000
,  // measure 28
00100000
00000000
00000000
00000000
,  // measure 29
10000000
00000000
00000000
00000000
,  // measure 30
01000000
00100000
01000000
00000000
,  // measure 31
10000000
00010000
10000000
00000000
,  // measure 32
00010000
00100000
00010000
00100000
,  // measure 33
00001000
00010000
00001000
00010000
,  // measure 34
00000010
00001000
00000010
00000000
,  // measure 35
00001000
00000100
00001000
00000000
,  // measure 36
00000001
00001000
00000001
00001000
,  // measure 37
00001001
00000000
00000000
00000000
,  // measure 38
00000010
00000010
00000100
00000100
,  // measure 39
00000010
00001000
00000100
00010000
,  // measure 40
00001000
00001000
00100000
00100000
,  // measure 41
00010000
01000000
00100000
10000000
,  // measure 42
01000000
01000000
00100000
00100000
,  // measure 43
00010000
01000000
00001000
00010000
,  // measure 44
00000100
00000100
00001000
00001000
,  // measure 45
00000100
00000010
00000001
00000000
,  // measure 46
00001000
00001000
00000010
00000010
,  // measure 47
00000100
00000001
00000010
00000100
,  // measure 48
00001000
00001000
00000100
00000100
,  // measure 49
00010000
00001000
00100000
00010000
,  // measure 50
01000000
01000000
00100000
00100000
,  // measure 51
10000000
00010000
10000000
00100000
,  // measure 52
01000000
01000000
00010000
00010000
,  // measure 53
00100000
00001000
00010000
00000100
,  // measure 54
00001000
00000000
00000010
00000100
00000000
00000000
00000000
00000000
,  // measure 55
00000001
00000100
00000001
00000000
,  // measure 56
00001000
00000010
00001000
00000000
,  // measure 57
00000001
00001000
00000001
00000000
,  // measure 58
00001000
00000010
00001000
00000000
,  // measure 59
00000100
00010000
00000100
00000000
,  // measure 60
00010000
00001000
00010000
00000000
,  // measure 61
00001000
01000000
00001000
00000000
,  // measure 62
00010000
00010000
00001000
00001000
,  // measure 63
00010000
00001000
00010000
00000000
,  // measure 64
00000100
00001000
00000100
00000000
,  // measure 65
00001000
00000010
00001000
00000000
,  // measure 66
00000001
00000010
00000001
00000000
,  // measure 67
00001000
00000001
00001000
00000000
,  // measure 68
00000100
00010000
00000100
00000000
,  // measure 69
00010000
00010000
00001000
00000000
,  // measure 70
00100000
00000000
10010000
00000000
,  // measure 71
10000000
10000000
00010000
00010000
,  // measure 72
10000000
00010000
10010000
00000000
;
