#TITLE:Elevate Myself;
#SUBTITLE:;
#ARTIST:Grandaddy;
#TITLETRANSLIT:;
#SUBTITLETRANSLIT:;
#ARTISTTRANSLIT:;
#GENRE:;
#CREDIT:;
#BANNER:Elevate Myself-bn.png;
#BACKGROUND:Elevate Myself-bg.png;
#LYRICSPATH:;
#CDTITLE:;
#MUSIC:Elevate Myself.mp3;
#OFFSET:0.000;
#SAMPLESTART:20.989;
#SAMPLELENGTH:13.913;
#SELECTABLE:YES;
#DISPLAYBPM:138.000;
#BPMS:0.000=138.000,5.000=130.000,8.000=138.000,13.000=134.000,16.000=138.000,104.000=70.000,108.000=138.000,121.000=135.000,124.000=139.000,138.000=137.000,140.000=138.000,152.000=141.500,156.000=138.000;
#STOPS:;
#TIMESIGNATURES:0.000=4=4
;
#BGCHANGES:;
#KEYSOUNDS:;

//---------------dance-double - ----------------
#NOTES:
     dance-double:
     :
     Easy:
     3:
     0.211,0.226,0.165,0.226,0.000,125.000,19.000,26.000,0.000,0.000,0.000,0.211,0.226,0.165,0.226,0.000,125.000,19.000,26.000,0.000,0.000,0.000:
00000000
00000000
00000000
00000000
,
00000000
00000000
00000000
00000000
,
10000000
00000000
10000000
00000000
,
00010000
00000000
00000000
00010000
00000000
00000000
00000000
00000000
,
01000000
00000000
01000000
00000000
,
00100000
00000000
00100000
00000000
,
10000000
00010000
20000000
00000000
,
00000000
00000000
00000000
00000000
,
30010000
00000000
00010000
00000000
,
01000000
00000000
01000000
00000000
,
00001000
00020000
00002000
00000000
,
00000000
00000000
00000000
00033000
,
00011000
00000000
01100000
00000000
,
11000000
00000000
00110000
00000000
,
00022000
00000000
00000000
00000000
,
00033000
00000000
00000000
00000000
,
00011000
00000000
00000110
00000000
,
00000101
00000000
00001010
00000000
,
00022000
00000000
00000000
00000000
,
00033000
00000000
00000000
00000000
,
00001000
00000000
00010000
00000000
,
00001000
00000000
00100000
00000000
,
01000000
10000000
02000000
00000000
,
00000000
00000000
00000000
03000000
,
01100000
00000000
00011000
00000000
,
00000110
00000000
00000011
00000000
,
00000202
00000000
00000000
00000303
,
00000001
00000000
00001000
00000000
,
00000100
00000000
00000000
00000100
00000000
00000000
00000000
00000000
,
00010000
00000000
00010000
00000000
,
00001000
00000000
00000000
00100000
00000000
00000000
00000000
00000000
,
22000000
00000000
00000000
00000000
,
33000000
00000000
00000000
00000000
,
00000202
00000000
00000000
00000000
,
00000303
00000000
00000000
00000000
,
02200000
00000000
00000000
00000000
,
03300000
00000000
00000000
00000000
,
00000220
00000000
00000000
00000000
,
00000330
00000000
00000000
00000000
,
00000010
00000010
00010000
00010000
,
00001000
00001000
01000000
01000000
,
00100000
00000000
00000000
00200000
00000000
00000000
00000000
00000000
,
00300000
00000000
00000000
00000000
,
10000000
10000000
00010000
00010000
,
01000000
01000000
00001000
00001000
,
00010000
00000000
00000020
00000000
,
00000030
00000000
00000000
00000000
,
00001000
00000100
00000010
00000001
,
00001000
00000001
00000100
00000010
,
00001000
00001000
00002000
00000000
,
00003000
00000000
00000000
00000000
,
00000010
00000010
00010000
00010000
,
00001000
00001000
00100000
00100000
,
02000000
00000000
00100000
00000000
,
00100000
00000000
00100000
00000000
,
03100000
00100000
00000010
00000010
,
00000100
00000100
00010000
00010000
,
01000000
00000000
00100000
10000000
,
00100000
00000000
10000000
01000000
,
10000000
00000000
01000000
00100000
,
01000000
00000000
00100000
00001000
,
00100000
00000000
00000010
00010000
,
00000010
00000000
00000100
00000010
,
00000200
00000000
00000000
00000300
00000200
00000000
00000000
00000300
,
00000200
00000000
00000300
00000200
00000000
00000000
00000000
00000000
,
00000300
00000000
00000000
00000000
;

//---------------dance-double - ----------------
#NOTES:
     dance-double:
     :
     Medium:
     6:
     0.368,0.396,0.183,0.331,0.000,237.000,21.000,38.000,0.000,0.000,0.000,0.368,0.396,0.183,0.331,0.000,237.000,21.000,38.000,0.000,0.000,0.000:
00000000
00000000
00000000
00000000
,
00000000
00000000
00000000
00000000
,
20000000
00000000
30020000
00000000
,
00230000
00000000
00000000
00002000
00000000
00000000
00303000
00000000
,
00001000
00000000
00001000
00000000
00100000
00010000
00100000
00000000
,
01000000
00000000
01000000
00000000
10000000
00100000
10000000
00000000
,
10010000
01010000
02002000
00000000
,
00000000
00000000
03003000
00000000
,
01000000
00000000
01000000
00000000
00001000
00010000
00001000
00000000
,
00010000
00000000
00010000
00000000
00000010
00000100
00000010
00000000
,
00001010
00001100
00020200
00000000
,
00000000
00000000
00030300
00000000
,
00000100
00010000
00000100
00000000
00010000
00001000
00010000
00000000
,
00001000
01000000
00001000
00000000
01000000
00100000
01000000
00200000
,
00000000
00000000
00000000
20000000
00000000
00000000
00000000
00000000
,
30300000
00000000
00000000
00000000
,
10000000
01000000
10000000
00000000
01000000
00100000
01000000
00000000
,
00100000
00010000
00100000
00000000
00010000
10000000
00010000
02000000
,
00000000
00000000
00002000
00000000
,
03003000
00000000
00000000
00000000
00000000
00000000
00000000
00001000
,
00000000
00010000
00000010
00001000
00000010
00000100
00000010
00001000
,
00000010
00000100
00000001
00001000
,
00001100
00010100
00202000
00000000
,
00303000
00000000
00000000
00000000
,
00100000
01000000
00100000
00000000
10000000
00010000
10000000
00000000
,
00100000
01000000
00100000
00000000
01000000
00001000
01000000
00000000
,
00022000
00000000
00000000
00033000
,
00001000
00010000
00001000
00000000
00100000
01000000
00100000
00000000
,
00001000
00010000
00001000
00020000
00000000
00000000
00030000
00000000
,
00000010
00000100
00000010
00000000
00010000
00001000
00010000
00000000
,
00000010
00000100
00000010
00000200
00000000
00000000
00000000
00000300
,
00000101
00000001
00001000
00000100
,
00010000
00001000
00100000
00010000
,
10010000
10000000
20000000
00000000
,
30000000
00000000
00000000
00000000
,
00000011
00000001
00000100
00000010
,
00010000
00001000
01000000
00010000
,
20010000
00000000
00000000
30200000
00000000
00000000
02000000
00000000
,
00000000
00000000
00000000
03300000
,
01000000
00001000
01000000
00000000
00000100
00010000
00000100
00000000
,
01000000
00010000
01000000
00000000
00000100
00001000
00000100
00002000
,
00000000
00000000
00000000
00000002
00000000
00000000
00000000
00000000
,
00003003
00000000
00000000
00000000
,
00001000
00000100
00010000
00000000
00001000
00010000
00000010
00000000
,
00000100
00000010
00010000
00000000
00001000
00100000
00010000
00200000
,
00000000
00000000
02000000
00000000
,
03300000
00000000
00000000
00000000
00000000
00000000
00100000
00100000
,
00000000
01000000
10000000
01000000
00100000
01000000
10000000
00010000
,
01000000
01000000
00010000
00010000
,
10010000
00011000
00020020
00000000
,
00000000
00000000
00030030
00000000
,
00000010
00000100
00000010
00000000
00010000
00001000
00010000
00000000
,
00000100
00000010
00000100
00000000
00010000
00001000
00010000
00000000
,
00002000
00000000
00000000
00000000
10000000
10003000
00000000
00000000
,
20000000
00000000
00000000
00000000
00100000
30100000
00000000
00000000
,
01000000
00100000
01000000
00000000
00000010
00000100
00000010
00000000
,
01000000
00100000
01000000
00000000
00000010
00000100
00000010
00001000
,
00000100
00000000
00000100
00000000
00010000
00001000
00010000
00000000
,
01000000
00000000
01000000
00000000
10000000
00100000
10000000
00000000
,
00001000
00000000
00001000
00000000
00010000
00000010
00010000
00000000
,
00000001
00000000
00000001
00000000
00001000
00000100
00001000
00000000
,
00000100
00000000
00000100
00000000
00100000
01000000
00100000
00000000
,
00001000
00000000
00001000
00000000
01000000
00100000
01000000
00000000
,
02002000
00000000
00000000
03003000
00022000
00000000
00000000
00033000
,
00020200
00000000
00030300
00000220
00000000
00000000
00000000
00000000
,
00000330
00000000
00000000
00000000
;

//---------------dance-double - ----------------
#NOTES:
     dance-double:
     :
     Hard:
     8:
     0.470,0.481,0.148,0.261,0.022,331.000,17.000,30.000,0.000,0.000,0.000,0.470,0.481,0.148,0.261,0.022,331.000,17.000,30.000,0.000,0.000,0.000:
00000000
00000000
00000000
00000000
,
00000000
00000000
00000000
00000000
,
10000000
00010000
10000000
00000000
00001000
00100000
00001000
00000000
,
00010000
00001000
00010000
00000020
00000000
00000000
00000000
00000000
,
00000130
00000001
00000100
00000001
00000010
00000001
00000010
00000001
,
00001000
00000100
00001000
00000100
00010000
00000100
00010000
00000100
,
00020000
00030020
00000032
00000000
,
00000000
00000000
00000000
00000000
,
00000013
00001000
00000010
00001000
00000100
00010000
00000100
00010000
,
00001000
01000000
00001000
01000000
00100000
01000000
00100000
01000000
,
00002000
00203000
20300000
00000000
,
00000000
00000000
00000000
00000000
,
30100000
00010000
10000000
01000000
00100000
00010000
10000000
01000000
,
00100000
00001000
00010000
00000010
00100000
00001000
00010000
00000020
,
00000000
00000000
00000000
00000200
00000000
00000000
00000000
00000000
,
00000330
00000000
00000000
00000000
,
00000010
00001000
00000001
00000100
00000010
00001000
00000001
00001000
,
00000100
00010000
00001000
01000000
00000100
00010000
00001000
01000000
,
00020000
00000000
00200000
00000000
,
00330000
00000000
00000000
00000000
00000000
00000000
00010000
00100000
,
00000000
00100000
00010000
10000000
00010000
01000000
00001000
00010000
,
00000010
00000100
00000010
00010000
00001000
00100000
01000000
00100000
,
00101000
00100010
00002020
00000000
,
00003030
00000000
00000000
00000000
,
00000010
00010000
00001000
00010000
00000010
00010000
00001000
00010000
,
00000100
00010000
00001000
00010000
00000100
00010000
00001000
00010000
,
00022000
00000000
00000000
00033000
,
00001000
10000000
00001000
00000000
00010000
00000001
00010000
00000000
,
00001000
10000000
00001000
00020000
00000000
00000000
00000000
00000000
,
00030010
00010000
00000010
00000000
01000000
00001000
01000000
00000000
,
00000010
00010000
00000010
00002000
00000000
00000000
00000000
00003000
,
00001001
00000001
00001000
00000001
00000100
00000001
00000010
00000100
,
00010000
00000100
01000000
00010000
01000000
00100000
10000000
00010000
,
02010000
00010000
00020000
00000000
,
00000000
00000000
00000000
03030000
,
01100000
00100000
10000000
00010000
00100000
01000000
10000000
00001000
,
00010000
00010000
00010000
00001000
00010000
00000010
00000100
00000001
,
00000102
00000000
00000000
00000023
00000000
00000000
00000200
00000000
,
00000000
00000000
00000000
00000330
,
00000010
00000100
00010000
00000100
00000010
00000100
00010000
00000100
,
00100000
00000010
00001000
00000010
00100000
00000010
00001000
00000020
,
00000000
00000000
00000000
00200000
00000000
00000000
00000000
00000000
,
00300030
00000000
00000000
00000000
,
00100000
00001000
10000000
00010000
00100000
00001000
10000000
00010000
,
01000000
00001000
00100000
00010000
01000000
00001000
00100000
00020000
,
00000000
00000000
00200000
00000000
,
00330000
00000000
00000000
00000000
00000000
00000000
00010000
00100000
,
00000000
00100000
00001000
00010000
00000100
00000010
00000100
00010000
,
00000010
00000100
00000010
00010000
00001000
01000000
00100000
10000000
,
10100000
10001000
00022000
00000000
,
00033000
00000000
00000000
00000000
,
00001000
01000000
00100000
10000000
00001000
01000000
00100000
10000000
,
00001000
00100000
00000100
00010000
00001000
00100000
00000100
00010000
,
00000001
00000010
00000001
00000010
00000100
00001000
00000100
00001000
,
00000100
01000000
00000100
01000000
00001000
00010000
00001000
00010000
,
00001000
10000000
01000000
10000000
00001000
00010000
00000010
00010000
,
00001000
01000000
00100000
01000000
00000100
00000010
00000001
00001000
,
00000100
00000000
00000000
00000000
00001100
00000000
00000000
00000000
00001000
00000000
00000001
00000000
00000001
00000000
00001000
00000010
,
00001000
00000000
00000000
00000000
00001010
00000000
00000000
00000000
00000010
00000000
00010000
00000000
00010000
00000000
00001000
00100000
,
00001000
00000000
00000000
00000000
01100000
00000000
00000000
00000000
01000000
00000000
10000000
00000000
10000000
00000000
00010000
01000000
,
00010000
00000000
00000000
00000000
10010000
00000000
00000000
00000000
10000000
00000000
00001000
00000000
00001000
00000000
00010000
00000010
,
00010000
00000000
00000000
00000000
00010010
00000000
00000000
00000000
00000010
00000000
00000100
00000000
00000100
00000000
00000001
00001000
,
00000001
00000000
00001001
00000000
00001000
00000100
00000100
00010000
,
00001000
00100000
00001000
00000000
10000000
01000000
10000000
00000000
,
00001000
00010000
00000020
00000200
00000000
00000000
00000000
00000000
,
00000330
00000000
00000000
00000000
;

//---------------dance-double - ----------------
#NOTES:
     dance-double:
     :
     Challenge:
     9:
     0.534,0.481,0.183,0.279,0.013,376.000,21.000,32.000,0.000,0.000,0.000,0.534,0.481,0.183,0.279,0.013,376.000,21.000,32.000,0.000,0.000,0.000:
00000000
00000000
00000000
00000000
,
00000000
00000000
00000000
00000000
,
01000000
00100000
01000000
00100000
00001000
00010000
00001000
00010000
,
00000010
00000100
00000010
00000200
00000000
00000000
00000000
00000000
,
00000301
00000100
00001000
00000100
00000010
00010000
00001000
00100000
,
10000000
00100000
01000000
10000000
00010000
00100000
00001000
00010000
,
00002000
02003000
23000000
00000000
,
31000000
00000000
00010000
00000000
00110000
00100000
01000000
00000000
,
10000000
01000000
00010000
01000000
00100000
00001000
00000010
00001000
,
00010000
00000001
00000100
00001000
00000100
00000010
00001000
00000001
,
00020000
00030200
00000302
00000000
,
00000103
00000000
00000010
00000000
00000011
00000001
00001000
00000000
,
00000100
00010000
00100000
00010000
00000100
00010000
00100000
00010000
,
00001000
00000010
00001000
00010000
00001000
00000010
00001000
00020000
,
00000000
00000000
00000000
00000002
00000000
00000000
00000000
00030003
,
00010001
00000000
00000001
00000000
00000101
00000100
00000010
00000000
,
00010000
01000000
00010000
00001000
00010000
01000000
00010000
00001000
,
01000000
00010000
00000100
00010000
01000000
00010000
00000100
00020000
,
00000000
00000000
00000000
00000000
20000000
00000000
00000000
30030000
,
10010000
00000000
10000000
00000000
11000000
01000000
00100000
00020000
,
00000000
10030000
10000000
00010000
00100000
01000000
10000000
00001000
,
00010000
00000010
00001000
00000010
00010000
00001000
00100000
01000000
,
11000000
00011000
00000202
00000000
,
00000000
00000000
00000000
00000303
,
00000100
00000010
00010000
00001000
00100000
01000000
00010000
00001000
,
01000000
00100000
00010000
00001000
00000010
00000100
00010000
00001000
,
00022000
00000000
00000000
00033000
,
00001000
01000000
00001000
01000000
00000100
00010000
00000100
00010000
,
00001000
01000000
00001000
02000000
00000000
00000000
00000000
00000000
,
03000010
00010000
00000010
00010000
00001000
00100000
00001000
00100000
,
00000010
00010000
00000010
00020000
00000000
00000000
00000000
00030000
,
00011000
00001000
10000000
01000000
00100000
01000000
10000000
00001000
,
01000000
00001000
00010000
00000010
00000100
00000010
00010000
00000100
,
00021000
00030200
00000302
00000000
,
00000000
00000000
00000000
00000000
00000000
00000000
00000000
00000003
,
00000101
00000100
00000010
00000001
00010000
00001000
01000000
00010000
,
01000000
01000000
01000000
00100000
10000000
01000000
00100000
00001000
,
00021000
00000000
00000000
00030020
00000000
00000000
00000032
00000000
,
00000000
00000000
00000000
00000000
,
00000013
00010000
00100000
00010000
00000010
00010000
00100000
00010000
,
00001000
00100000
10000000
00100000
00001000
00100000
10000000
00200000
,
00000000
00000000
00000000
02000000
00000000
00000000
00000000
03300000
,
01100000
00000000
01000000
00000000
11000000
10000000
00010000
00000000
,
01000000
00001000
00000100
00001000
01000000
00001000
00000100
00001000
,
00010000
01000000
00010000
00001000
00010000
01000000
00010000
00002000
,
00000000
00000000
00000000
00000000
00200000
00000000
00000000
00303000
,
00101000
00000000
00100000
00000000
00100010
00000010
00001000
00000001
,
00000000
00000001
00001000
00000100
00001000
00000010
00010000
00001000
,
00100000
01000000
10000000
00001000
00010000
00000010
00000100
00000001
,
00000011
00011000
20200000
00000000
,
00000000
00000000
00000000
30300000
,
10000000
01000000
00001000
01000000
10000000
01000000
00001000
01000000
,
00100000
00000010
00001000
00000010
00100000
00000010
00001000
00000010
,
00100000
01000000
00100000
01000000
00000010
00000100
00000010
00000100
,
00100000
00001000
00100000
00001000
00010000
00000010
00010000
00000010
,
00000100
00010000
00100000
00010000
01000000
00001000
00000010
00001000
,
01000000
00010000
00000100
00010000
00100000
00001000
00000010
00000001
,
00010000
00000000
00001000
00000000
00010000
00000000
00000010
00000000
00000100
00000000
00000010
00000000
00010000
00000000
00001000
00100000
,
00001000
00100000
00010000
10000000
00100000
10000000
01000000
00100000
,
00010000
00000000
10000000
00000000
00001000
00000000
00010000
00000000
00000010
00000000
00000100
00000000
00000001
00000000
00001000
00000100
,
00001000
00000001
00000010
00000001
00000100
00000010
00001000
00000100
,
00000010
00000000
00000100
00000000
00010000
00000000
00001000
00000000
01000000
00000000
00010000
00000000
10000000
00000000
00100000
01000000
,
00100000
10000000
00010000
00100000
00001000
00010000
00000010
00000100
,
00000001
00001000
00000001
00001000
00000100
01000000
00000100
01000000
,
00001000
00010000
00000020
00200000
00000000
00000000
00000000
00000000
,
00300030
00000000
00000000
00000000
;
