#TITLE:Bring Me To Life;
#SUBTITLE:;
#ARTIST:Rochelle;
#TITLETRANSLIT:;
#SUBTITLETRANSLIT:;
#ARTISTTRANSLIT:;
#GENRE:;
#CREDIT:;
#BANNER:;
#BACKGROUND:;
#LYRICSPATH:Bring Me To Life - Rochelle.lrc;
#CDTITLE:encorerebirth.png;
#MUSIC:Bring Me To Life - Rochelle.ogg;
#OFFSET:0.000;
#SAMPLESTART:31.285;
#SAMPLELENGTH:16.515;
#SELECTABLE:YES;
#DISPLAYBPM:33.000:130.000;
#BPMS:0.000=65.000
,16.000=97.500
,43.000=130.000
,143.000=65.000
,159.000=32.500
,163.000=130.000
;
#STOPS:
;
#BGCHANGES:;
#KEYSOUNDS:;
#ATTACKS:;

//---------------dance-double - Spork!----------------
#NOTES:
     dance-double:
     :
     Easy:
     4:
     0.256,0.294,0.223,0.358,0.000,152.000,28.000,45.000,0.000,0.000,0.000,0.256,0.294,0.223,0.358,0.000,152.000,28.000,45.000,0.000,0.000,0.000:
00000000
00000000
00000000
00000000
,
00000000
00000000
00000000
00000000
,
00000000
00000000
00000000
00000000
,
00000000
00000000
00000000
00000000
,
00010000
00000000
00000000
00100000
00000000
00000000
00002000
00000000
,
00000000
00023000
00000000
00000000
00030010
00000000
00000000
00001000
,
00000000
00000000
00000100
00000000
00000000
00000010
00000000
00000000
,
00001001
00000000
00000000
00001000
00000000
00000000
00000010
00000000
,
00000000
00010000
00000000
00000000
00001000
00000000
00000000
00200000
,
00000000
00000000
02300000
00000000
00000000
13000000
00000000
00000000
,
00200000
00000000
00300000
10020000
,
00130000
00001000
00010000
00021000
,
00031000
00010000
00000100
00001001
,
00002001
00003100
00010000
00000020
,
00002030
00003200
00000310
00002001
,
00003100
00010000
00001000
00012000
,
00013000
00001000
00100000
10010000
,
10020000
01030000
00001000
00200000
,
00320000
20030000
30200000
02300000
,
00000000
00000000
03000000
00010000
,
00000000
00010000
00000000
10000000
,
01000000
00010000
00000100
00002000
,
00000000
00000100
00000000
00003002
,
00000000
00000010
00000000
00001003
,
00000000
00001000
00000000
00000001
,
00000100
00001000
01000000
00010000
,
00000000
00010000
00000000
00100000
,
00100000
00001000
00001000
02001000
,
03000000
00100000
10000000
12000000
,
03000000
00100000
00001000
00012000
,
00003000
01000000
00001000
00012000
,
00013000
00000010
00010000
00010200
,
00000300
00000010
00000001
00000201
,
00000300
00000010
00010000
00021000
,
00030000
00001000
00100000
00012000
,
00003000
01001000
00000000
10010000
,
00000000
00000000
00000000
00000000
,
00000000
00000000
00000000
10000000
,
01000000
00010000
00000000
00000001
,
00000010
00001000
00000000
10000000
,
10000000
00000000
10000000
00100000
00100000
00100000
02100000
00000000
,
03010000
00100000
00001000
00021000
,
00031000
00010000
00000010
00000110
,
00001002
00000103
00000010
00002000
,
00003002
00000203
00000310
00000120
,
00001030
00000100
00010000
00012000
,
00013000
00001000
00100000
01100000
,
20010000
30010000
00100000
00020000
,
00230000
02300000
23000000
30010000
,
00000000
00010000
00000000
10000000
,
00100000
00010000
00000010
00002000
,
00000000
00003002
00000000
00000023
,
00000000
00000130
00000000
00001001
;

//---------------dance-double - Spork!----------------
#NOTES:
     dance-double:
     :
     Medium:
     6:
     0.311,0.336,0.207,0.406,0.024,196.000,26.000,51.000,0.000,0.000,0.000,0.311,0.336,0.207,0.406,0.024,196.000,26.000,51.000,0.000,0.000,0.000:
00000000
00000000
00000000
00000000
,
00000000
00000000
00000000
00000000
,
00000000
00000000
00000000
00000000
,
00000000
00000000
00000000
00000000
,
00000100
00000000
00000000
00000000
00000000
00000000
00000010
00000000
00000000
00000000
00000000
00000000
00020000
00000000
00000000
00001000
,
00000000
00000000
00001000
00000000
00000000
00001000
00000000
00000000
00031000
00000000
00000000
00000000
00000000
00000000
01000000
00000000
,
00000000
00000000
00000000
00000000
00010000
00000000
00000000
00000000
00000000
00000000
00100000
00000000
00000000
00100000
00000000
00000000
,
10010000
00000000
00000000
01000000
00000000
00000000
00001000
00000000
,
00000000
00010000
00000000
00000000
00000010
00000000
00000000
00002000
,
00000000
00000000
00003002
00000000
00000000
00000013
00000000
00000000
,
00000220
00000000
00000000
00000000
00000330
00000000
00000001
00000100
,
00000001
00000000
00000010
00000000
00000100
00000000
00010000
00001000
,
00010000
00001000
01000000
01100000
,
10020000
10030000
01000000
11000000
,
01100000
00000000
00110000
00000000
10010000
00000000
10000000
00100000
,
10000000
00000000
01000000
00000000
00100000
00000000
00001000
00010000
,
00001000
00010000
00000010
00000110
,
00001002
00001003
00000001
00000011
,
00000110
00001100
00001001
00000200
,
00000000
00000000
00000010
00000010
00000310
00000010
00001000
00000100
,
00000000
00000100
00000010
00000000
00000001
00000000
00000100
00000000
,
00001000
01000000
00011000
00002000
,
00000000
00000000
00103000
00010000
01000000
00000000
00000000
00000000
,
00000000
01000000
00100000
01000000
00010000
00000000
00010000
00100000
,
00000000
00100000
01000000
00000000
10000000
00000000
01000000
00000000
,
00010000
00000000
00000100
00000000
00001000
00000000
00001000
00000010
,
00000000
00000010
00000100
00000000
00000001
00000000
00002000
00000000
,
00003200
00000320
00000032
00002003
,
00000000
00000000
00003000
00000020
00000000
00020030
00000000
00000000
,
00031000
00200000
00000000
00302000
00000000
00023000
00000000
00030000
,
00001000
02000000
00000000
03020000
00000000
20030000
00000000
30000000
,
00000000
10010000
00000000
10010000
00000000
00000000
00020000
00000000
,
00000000
00000000
00030000
00000000
00200000
00002000
00300000
00003000
,
00000000
00020000
00000000
00030020
00000000
00002030
00000000
00003000
,
00000000
00000200
00000000
00020300
00000000
00030000
00001000
00000000
,
01000000
00000000
00010000
00000000
10000000
00000000
12000000
10000000
,
00000000
00020000
03000000
00032000
00000000
00003100
00000200
00000001
,
00000000
00002000
00000300
00023000
00000000
01030000
00100000
00000000
,
00010000
02000000
03000000
00000100
,
00001000
00000000
00000000
00000000
00000020
00000000
00000000
00000000
00000030
00000000
00000000
00000000
00000000
00010000
00001000
00000000
,
00000000
00001000
00000100
00000000
00000000
00000100
00000002
00000000
00000023
00000000
00000230
00000000
00001300
00000000
00000001
00000000
,
00001000
00000000
00000010
00000000
00010000
00000000
00000100
00001000
,
00000100
00010000
00001000
01001000
,
20010000
31000000
10000000
10100000
,
10010000
00000000
01100000
00000000
01010000
00000000
00010000
10000000
,
00010000
00000000
01000000
00000000
00001000
00000000
00100000
00010000
,
00100000
00001000
00010000
00010100
,
00001002
00000013
00000100
00002000
,
00003020
00000000
00020030
00000000
00030200
00000000
00001300
00000010
,
00000000
00000010
00000100
00000000
00000001
00000000
00000010
00000000
,
00001000
00000000
00100000
00000000
00010000
01000000
00020000
00000000
,
00000000
00230000
00000000
02300000
,
00000000
23000000
00000000
30010000
;

//---------------dance-double - Spork!----------------
#NOTES:
     dance-double:
     :
     Challenge:
     11:
     0.651,0.664,0.486,0.319,0.797,471.000,61.000,40.000,78.000,0.000,0.000,0.651,0.664,0.486,0.319,0.797,471.000,61.000,40.000,78.000,0.000,0.000: // measure 0
00000000
00000000
00000000
00000000
,  // measure 1
00000000
00000000
00000000
00000000
,  // measure 2
00000000
00000000
00000000
00000000
,  // measure 3
00000000
00000000
00000000
00000000
,  // measure 4
00010000
00000000
00000000
00000000
00000000
00000000
00100000
00000000
00000000
00000000
00000000
00000000
01000000
00000000
00000000
10000000
00000000
00000000
00000000
00000000
00000000
10000000
00000000
00000000
00100000
00000000
00000000
00000000
00000000
00000000
01000000
00000000
00000000
00000000
00000000
00000000
00001000
00000000
00000000
00100000
00000000
00000000
00000000
00000000
00000000
00001000
00000000
00000000
00010000
00000000
00000000
00000000
00000000
00000000
00000100
00000000
00000000
00000000
00000000
00000000
00000010
00000000
00000000
00000100
,  // measure 5
00000000
00000000
00000000
00000000
00000000
00000100
00000000
00000000
00001000
00000000
00000000
00000000
00000000
00000000
00000010
00000000
00000000
00000000
00000000
00000000
00010000
00000000
00000000
00000000
00000000
00000000
00000000
00000000
00000000
00000100
00000000
00000000
00001000
00000000
00000000
00000000
00000000
00000000
00000100
00000000
00000000
00000000
00000000
00000000
00000010
00000000
00000000
00000001
00000000
00000000
00000000
00000000
00000000
00000001
00000000
00000000
00000100
00000000
00000000
00000000
00000000
00000000
00000010
00000000
,  // measure 6
00000000
00000000
00000000
00000000
00010000
00000000
00000000
00000100
00000000
00000000
00000000
00000000
00000000
00010000
00000000
00000000
00001000
00000000
00000000
00000000
00000000
00000000
00100000
00000000
00000000
00000000
00000000
00000000
00001000
00000000
00000000
01000000
00000000
00000000
00000000
00000000
00000000
00010000
00000000
00000000
10000000
00000000
00000000
00000000
00000000
00000000
01000000
00000000
00000000
00000000
00000000
00000000
00100000
00000000
00000000
01000000
00000000
00000000
00100000
00000000
00000000
00000000
00000000
00000000
,  // measure 7
10010000
00000000
00000000
00000000
00000000
00000000
10000000
00000000
00000000
00000000
00000000
00000000
00100000
00000000
00000000
10000000
00000000
00000000
00000000
00000000
00000000
10000000
00000000
00000000
01000000
00000000
00000000
00000000
00000000
00000000
00100000
00000000
00000000
00000000
00000000
00000000
00001000
00000000
00000000
00010000
00000000
00000000
00000000
00000000
00000000
00000100
00000000
00000000
00010000
00000000
00000000
00000000
00000000
00000000
00001000
00000000
00000000
00000000
00000000
00000000
00000100
00000000
00000000
00000000
,  // measure 8
00000000
00000000
00000000
00000000
00000000
00000100
00000000
00000000
00000001
00000000
00000000
00000000
00000000
00000000
00000100
00000000
00000000
00000000
00000000
00000000
00000010
00000000
00000000
00010000
00000000
00000000
00000000
00000000
00000000
00010000
00000000
00000000
00001000
00000000
00000000
00000000
00000000
00000000
00100000
00000000
00000000
00000000
00000000
00000000
00000000
00000000
00000000
00000000
00000000
00000000
00000000
00000000
00000000
00001000
00000000
00000000
00010000
00000000
00000000
00000000
00000000
00000000
01000000
00000000
,  // measure 9
00000000
00000000
00000000
00000000
10000000
00000000
00000000
01000000
00000000
00000000
00000000
00000000
00000000
00100000
00000000
00000000
01000000
00000000
00000000
00000000
00000000
00000000
00100000
00000000
00000000
00000000
00000000
00000000
00001000
00000000
00000000
00010000
00000000
00000000
00000000
00000000
00000000
00001000
00000000
00000000
01000000
00000000
00000000
00000000
00000000
00000000
00010000
00000000
00000000
00000000
00000000
00000000
10000000
00000000
00000000
00010000
00000000
00000000
00000000
00000000
00000000
00000000
00000000
00000000
,  // measure 10
00200000
00000000
00000000
01000000
00000000
00000000
00000000
00000000
00000000
00000000
00000000
00000000
00000000
00000000
00000000
00000000
00000000
00300000
00000000
00000000
00000000
00000000
00000000
00000000
1002M000
00000000
00000000
00000000
010000M0
00000000
00030M00
00000000
,  // measure 11
10010000
00000000
00100000
10000000
00000000
00001000
00000000
00010000
00000000
00000001
00000000
00M00010
000M0210
00000000
0M001000
00000300
,  // measure 12
M0000110
00000000
00000100
00010000
00000000
00000010
00000000
00100000
00000000
00001000
00000000
00000000
01M02000
00000000
00000000
00003000
,  // measure 13
00020M10
00000000
00000000
00031000
00000000
00010000
00000000
00000100
00000000
00000000
00001000
00000000
00001100
00000000
00000100
00010000
,  // measure 14
00001000
01000000
00010000
01000000
00001000
00000000
00100000
00001000
00010000
00000010
00001000
00000001
000M2001
00000000
0M000010
00M03000
,  // measure 15
00001001
00000000
00000100
00000001
00000000
00010000
00000000
00001000
00000000
10000000
00000000
01000M00
0120M000
00000000
000100M0
00300000
,  // measure 16
0110000M
00000000
00100000
00001000
00000000
01000000
00000000
00000100
00000000
00010000
00000000
00000000
00020M10
00000000
00000000
00030000
,  // measure 17
01M02000
00000000
00000000
00013000
00000000
00000000
00001000
00000000
00100000
00000000
00010000
00000000
01000000
00000000
00100000
10000000
,  // measure 18
01000000
00000000
00100000
00010000
01000000
00000000
00010000
00100000
00001000
00000000
00010000
00000010
00001000
00000000
00001000
00000000
,  // measure 19
00001000
00000000
00001000
00000000
00000100
00000010
00000100
00000010
00000100
00000010
00000100
00000010
00000001
00000000
00000201
00000000
,  // measure 20
00000000
00000301
00000010
00000000
00000110
00000000
00000100
00001000
00000010
00010000
M0001000
01000000
0001000M
00000000
00110000
00000000
,  // measure 21
00100000
00000000
00011000
00000000
00001000
00000000
01000000
00010000
00100000
00000000
01100000
00000000
01000000
00000000
12000000
00000000
,  // measure 22
00000000
03100000
000100M0
00000000
01010M00
00000000
0100000M
000010M0
00010000
00000000
00001000
00000000
00101000
00000000
01100000
00000000
,  // measure 23
11000000
00000000
10000M00
0000M000
010100M0
00000000
01000M00
0010000M
1000M000
00000000
10010000
00000000
10000000
00000000
12000000
00000000
,  // measure 24
00000000
13000000
00100000
00000000
01100000
00000000
01000000
00010000
00100000
00001000
00010000
00000010
00001000
00000000
00001100
00000000
,  // measure 25
00000100
00000000
00011000
00000000
00010000
00000000
00000010
00001000
00000100
00000000
00000110
00000000
00000010
00000000
00002001
00000000
,  // measure 26
00000000
00003010
00000100
00000000
00001010
00000000
00001000
00000010
00010000
00000000
00001000
00000000
10020000
00000000
00000000
00030000
,  // measure 27
00021000
00000000
00000000
00030000
00002001
00000000
00000000
00003000
00012000
00000000
00000000
00003000
00010000
00000000
00000100
00000000
,  // measure 28
00000010
00000000
00000100
00000010
00001000
00000000
00000010
00000000
00000001
00000000
00000100
00000000
00001000
00000000
00010000
00001000
,  // measure 29
00100000
00000000
01000000
00000000
00010000
00000000
00001000
00010000
00000010
00000000
00000100
00000000
00001000
00000000
00010000
00001000
,  // measure 30
01000000
00000000
00001000
00010000
00000100
00000000
00010000
00001000
00100000
00000000
00001000
00010000
00000010
00000000
00010000
00001000
,  // measure 31
01000000
00010000
00100000
00001000
00010000
00000000
00001000
00100000
01000000
00000000
00100000
00000000
00001000
00000000
01000000
00000000
,  // measure 32
00100000
00000000
01000000
00100000
00010000
00000000
00100000
00000000
10000000
00000000
01000000
00000000
00010000
00000000
00000010
00000000
,  // measure 33
00000100
00000000
00000010
00000100
00001000
00000000
00000100
00000000
00000001
00000000
00000010
00000000
00001000
00000000
01000000
00001000
,  // measure 34
00010000
00000000
00000010
00010000
00001000
00000000
00100000
00001000
00010000
00000000
00000100
00010000
00001000
00000000
00000000
00000000
,  // measure 35
00010000
00000000
00000000
00000000
00000100
00000000
00000000
00000100
00000010
00000000
00000000
00000000
000M1001
00000000
M0000001
00M00010
,  // measure 36
00000000
0M000100
00000000
0001M000
00000000
0M000100
000M1000
00000010
00M10000
00000000
00001000
00000000
00000000
M0001000
0001000M
M0001000
,  // measure 37
00100M00
00000000
00000000
00000000
010000M0
00000000
00100M00
00000000
00000000
00000000
00100M00
00000000
0001M000
00000000
00000000
00000000
1000000M
00000000
01000000
00000000
000000M0
00000000
01000000
00000000
00100000
00000000
00000000
00001000
00000000
00000000
00100000
00000000
,  // measure 38
00010000
00000000
00000000
00000000
01000000
00000000
00001000
00000000
00000000
00000000
00010000
00000000
00000010
00000000
00000000
00000000
00000000
00000000
00000100
00000000
00000000
00000000
00000001
00000000
00000010
00000000
00000000
00000100
00000000
00000000
00010000
00000000
,  // measure 39
00001000
00000000
00000000
00000000
00100000
00000000
00001000
00000000
00010000
00000000
00000020
00000000
00000000
00000000
00000000
00000000
00000000
00000000
00000000
00000000
00000130
00000000
00000000
00000000
00000000
M0000001
0M000010
00M00100
000M1000
00000000
00000000
00000000
,  // measure 40
00000000
00000010
00M10000
M0001000
0100000M
00000M00
00000000
00000000
00000000
0001M000
00100M00
010000M0
2000000M
00000000
00000000
30000000
00200000
00000000
00000000
00300000
02000000
00000000
00000000
03000000
01020M00
00000000
00000000
00000000
1000M000
00000000
00030000
00000000
,  // measure 41
001100M0
00000000
00010000
01000000
00000000
00001000
00000000
00100000
00000000
00000100
00000000
00M01000
0M001002
00000000
000M0100
00000003
,  // measure 42
M0001001
00000000
00001000
00000010
00000000
00100000
00000000
00001000
00000000
01000000
00000000
00000000
01M02000
00000000
00000000
00003000
,  // measure 43
000201M0
00000000
00000000
00031000
00000000
00100000
00000000
01000000
00000000
00000000
00100000
00010000
01000000
00000000
00001000
00010000
,  // measure 44
00001000
00100000
00010000
01000000
00001000
00000000
00010000
00001000
00010000
00000010
00001000
00000100
00M01200
00000000
000M0010
00000300
,  // measure 45
0M000101
00000000
00000010
00010000
00000010
00010000
00001000
00010000
00001000
00100000
00001000
00100M00
002100M0
00000000
0100M000
00300000
,  // measure 46
1010000M
00000000
01000000
00001000
01000000
00001000
00010000
00001000
00010000
00000100
00000000
00010000
00020M10
00000000
00000000
00030000
,  // measure 47
0M102000
00000000
00000000
00013000
00000000
00000000
00001000
00000000
01000000
00000000
00100000
00000000
20000000
00000000
00000000
00000000
,  // measure 48
32000000
00000000
03200000
00000000
00320000
00000000
01030000
01200000
,  // measure 49
00000000
10300000
01000000
00000000
11000000
00000000
01000000
00100000
00010000
01000000
00001000
00010000
00000010
00000000
00011000
00000000
,  // measure 50
01000000
00000000
00011000
00000000
00000100
00000000
00001000
00000100
00000010
00000000
00001001
00000000
00000001
00000000
00000102
00000000
,  // measure 51
00000000
00000103
00000010
00000000
00001001
00000000
00001000
00000100
00000010
00000000
00000100
00000000
00002001
00000000
00000000
00003000
,  // measure 52
00021000
00000000
00000000
00030000
10020000
00000000
00000000
00030000
00012000
00000000
00000000
00003000
00000200
00000000
00000000
00000000
,  // measure 53
00000000
00000000
00000000
00000300
;

//---------------dance-double - Spork!----------------
#NOTES:
     dance-double:
     :
     Hard:
     8:
     0.477,0.514,0.231,0.279,0.303,355.000,29.000,35.000,0.000,0.000,0.000,0.477,0.514,0.231,0.279,0.303,355.000,29.000,35.000,0.000,0.000,0.000:
00000000
00000000
00000000
00000000
,
00000000
00000000
00000000
00000000
,
00000000
00000000
00000000
00000000
,
00000000
00000000
00000000
00000000
,
10010000
00000000
00000000
00000000
00000000
00000000
00010000
00000000
00000000
10000000
00000000
00000000
01000000
00000000
00000000
10000000
00000000
00000000
00100000
00000000
00000000
01000000
00000000
00000000
00010000
00000000
00000000
00000000
00000000
00000000
00200000
00000000
,
00000000
00000000
00000000
00000000
00302000
00000000
00000000
00023000
00000000
00000000
00030020
00000000
00000000
00002030
00000000
00000000
00003100
00000000
00000000
00000000
00000000
00000000
00000010
00000000
00000000
00000100
00000000
00000000
00001000
00000000
00000000
00000010
,
00000000
00000000
00010000
00000000
00000000
00001000
00000000
00000000
00100000
00000000
00000000
00000000
00000000
00000000
01000000
00000000
00000000
00100000
00000000
00000000
00001000
00000000
00000000
00010000
00000000
00000000
00000010
00000000
00000000
00000100
00000000
00000000
,
00001001
00000000
00000000
00000000
00000000
00000000
00000100
00000000
00000000
00000001
00000000
00000000
00000010
00000000
00000000
00000001
00000000
00000000
00000100
00000000
00000000
00000010
00000000
00000000
00001000
00000000
00000000
00000000
00000000
00000000
00000010
00000000
,
00000000
00010000
00000000
00000000
00001000
00000000
00000000
00100000
00000000
00000000
01000000
00000000
00000000
10000000
00000000
00000000
00010000
00000000
00000000
00000000
00000000
00000000
01000000
00000000
00000000
00100000
00000000
00000000
20000000
00000000
00000000
00000000
,
00000000
30000000
00100000
00000000
00000000
10000000
00000000
00000000
00020000
00000000
00000000
00000000
00000000
00030000
00100000
00000000
00000000
00000000
00000000
00000000
00001000
00000000
00000000
00000000
00000000
00000000
00010000
00000000
00000000
00000000
00000000
00000000
,
00022000
00000000
00000000
00000000
00033000
00000000
00001000
00200000
,
01000000
00000000
00310000
01000000
00001000
00001000
00010000
00000020
,
00000100
00000000
00001030
00000100
00010000
00010000
00010010
00000000
,
00101000
00000000
00000000
00001000
00000000
01000000
00000000
00010000
00000000
00000000
00100000
00000000
01100000
00000000
00000000
00000000
,
00101000
00000000
00010010
00000000
00011000
00000000
00010000
00000200
,
00000010
00000000
00001300
00001000
00000010
00010000
00001000
02000000
,
00100000
00000000
03010000
00010000
00100000
00001000
01001000
00000000
,
00010100
00000000
00000000
00010000
00000000
00000000
00000010
00000000
00001000
00000000
00000001
00000000
00000011
00000000
00000000
00000000
,
00000110
00000000
00010100
00000000
00011000
00000000
00010000
00010000
,
00001000
00000000
00001000
00000000
01000000
00100000
01000000
00100000
01000000
00100000
01000000
00000000
00010000
00000000
00100000
00000000
,
00000000
00100000
01000000
00000000
10000000
00000000
00000000
00000000
00100000
00000000
00010000
00000000
00001000
00000000
00010000
00000000
,
00100000
00000000
01000000
00000000
00001000
00000000
00010000
00001000
00010000
00000000
00000010
00000000
00000100
00000000
00000001
00000000
,
00000000
00000001
00000010
00000000
00000100
00000000
00000000
00000000
00000100
00000000
00001000
00000000
00000010
00000000
00010000
00000000
,
00000010
00000000
00000100
00000000
00001000
00000000
00010000
00001000
00010000
00000000
00000100
00000000
00001000
00000000
00000010
00000000
,
00000000
00000010
00000100
00000000
00000001
00000000
00000000
00000000
00000010
00000100
00000010
00000100
00000010
00000000
00000001
00000000
,
00000100
00000000
00001000
00000000
00010000
00000000
00001000
00010000
00001000
00000000
00100000
00000000
00010000
00000000
01000000
00000000
,
00000000
01000000
00100000
00000000
10000000
00000000
00000000
10000000
00100000
00000000
01000000
00000000
01100000
00000000
00000000
00000000
,
01001000
00000000
00011000
00000000
00010100
00000000
00000100
00001000
,
00000010
00010000
00000010
00001000
00000100
00000100
01000000
00010000
,
00100000
00001000
00100000
00010000
01000000
01000000
00000100
00010000
,
00001000
00100000
00001000
00010000
00000100
00000100
01000000
00001000
,
00100000
00100000
00000010
00010000
00000100
00000100
00100000
00010000
,
01000000
00001000
01000000
00010000
00100000
00100000
00000010
00001000
,
00000100
00010000
00000100
00001000
00000010
00000010
00100000
00010000
,
01000000
01000000
00000100
00001000
00000010
00000010
00001010
00000000
,
00011000
00000000
00000000
00000000
00110000
00000000
00000000
00010000
01000000
00000000
00000000
00000000
00011000
00000000
00001000
00010000
,
00000000
00000100
00000000
00000010
00000000
00000001
00000000
00001000
00000020
00000000
00020030
00000000
00030000
00001000
00010000
00001000
,
00100000
00000000
01000000
10000000
00000000
10000000
00010000
00000000
02000000
00000000
03002000
00000000
00013000
00000000
00000100
00000000
,
00000010
00000001
00000010
00000200
00000000
00010300
00001000
01000000
,
00100000
00000000
10000000
00000000
00100000
00000000
02000000
00000000
00000000
00000000
03001000
00000000
00000000
00100000
00011000
00000000
,
00000000
00000100
00011000
00000000
00000000
01000000
00020000
00000000
00230000
00000000
02300000
00000000
13000000
00000000
00200000
00000000
,
00010000
00000000
01300000
00001000
00010000
00010000
00001000
00200000
,
01000000
00000000
00301000
00010000
00000010
00001000
00001001
00000000
,
00011000
00000000
00000000
00001000
00000000
00010000
00000000
00000100
00000000
00000000
00001000
00000000
00000001
00000000
00000000
00000001
,
00000100
00000000
00000000
00000100
00000010
00000000
00000000
00000010
00001000
00000000
00000000
00001000
00000001
00000000
00000020
00000000
,
00001000
00000000
00000130
00000100
00010000
00001000
00010000
00000020
,
00000100
00000000
00001030
00001000
00000100
00010000
00011000
00000000
,
10010000
00000000
00000000
00010000
00000000
00000000
01000000
00000000
00001000
00000000
00100000
00000000
02000000
00000000
00000000
00000000
,
23000000
00000000
30020000
00000000
02030000
00000000
03100000
10000000
,
00000000
10000000
00100000
00000000
00010000
00000000
00000000
00000000
00100000
00000000
01000000
00000000
00001000
00000000
00010000
00000000
,
00000100
00000000
00000010
00000000
00001000
00000000
00010000
00001000
00010000
00000000
00000010
00000000
00000100
00000000
00000001
00000000
,
00000000
00000001
00000010
00000000
00001000
00000000
00000000
00000000
00000010
00000000
00000100
00000000
00020000
00000000
00000000
00000000
,
00032000
00003200
00000302
00002003
,
00000000
00000000
00000000
00003000
;
