#TITLE:Wanyo Wanyo;
#SUBTITLE:;
#ARTIST:Unknown artist;
#TITLETRANSLIT:;
#SUBTITLETRANSLIT:;
#ARTISTTRANSLIT:;
#GENRE:;
#CREDIT:;
#BANNER:WANYO WANYO banner.png;
#BACKGROUND:WANYO WANYO-bg.png;
#LYRICSPATH:;
#CDTITLE:;
#MUSIC:Wanyo Wanyo.mp3.mp3;
#OFFSET:-0.400;
#SAMPLESTART:4.000;
#SAMPLELENGTH:12.000;
#SELECTABLE:YES;
#BPMS:0.000=120.000;
#STOPS:32.000=3.500
,95.000=0.500
,126.000=0.500
,157.000=0.500
,192.000=0.850
,193.750=0.500
;
#BGCHANGES:;
#KEYSOUNDS:;

//---------------dance-single - Blank----------------
#NOTES:
     dance-single:
     Blank:
     Hard:
     9:
     0.504,0.538,0.182,0.154,0.461:
0000
0000
0000
0000
,
0000
0000
0000
0000
,
0000
0000
0000
0000
,
0000
0000
0000
0000
,
1000
0000
0000
1000
0000
0000
0010
0000
0100
0000
0001
0100
0000
0000
0010
0000
,
1000
0000
0000
0001
0000
0000
0001
0000
1000
0000
0000
0100
0000
0000
0010
0000
,
0001
0000
0000
0001
0000
0000
0100
0000
0010
0000
1000
0010
0000
0000
0000
0000
,
2000
3200
0302
0023
,
2000
0000
3030
0000
0001
0000
0000
0001
0000
0000
1000
0000
0001
0000
0000
0000
,
1000
0000
0010
1000
0010
0000
1000
0000
0001
0000
1000
0000
0100
0000
1000
0000
,
0001
0000
0001
0000
1000
0000
0000
1000
0000
0000
0001
0000
0100
0000
0000
0000
,
0010
0000
1000
0010
0000
0000
1000
0000
0001
0000
1000
0000
0001
0000
0100
0000
,
0001
1000
0001
0000
1000
0000
0002
0000
0000
0203
0000
0000
0320
0000
0000
1030
,
0000
0001
1000
0000
0010
0000
0100
0000
0001
0000
0000
0000
1000
0000
0001
1000
,
0001
1000
0000
0000
0001
0000
1000
0000
0010
0000
1000
0000
0001
0000
0100
0000
,
0001
0100
0001
0000
1000
0000
0100
0000
0010
0000
0001
0000
1000
0000
0010
1000
,
0010
1000
0000
0000
0001
0000
0000
0101
0000
0000
0100
0000
0010
0000
0000
1000
,
0000
0000
1000
0000
0001
0000
0000
0110
0000
0000
0100
0000
0001
0000
1000
0000
,
1000
0000
0001
0000
1000
0000
0000
1010
0000
0000
0010
0000
0100
0000
0000
0001
,
0000
0000
0001
0000
1000
0000
0000
0110
0000
0000
0010
0000
1000
0000
0001
0000
,
0001
0000
0100
0000
0010
0000
0100
0010
0000
0000
1000
0000
0010
0000
0000
0100
,
0000
0000
0001
0000
0010
0000
0100
0010
0000
0000
0100
0000
1000
0000
0001
0000
,
0001
0000
1000
0000
0001
0000
0100
0001
0000
0000
1000
0000
0001
0000
0000
1001
,
0000
0000
1000
0000
0010
0000
1000
0010
0000
0000
1000
0000
0002
0003
0000
0001
,
1000
0000
0010
0000
1000
0001
0000
0100
0010
0000
0100
0000
0001
1000
0000
0000
,
0010
0000
0100
0000
1000
0000
0010
0000
0001
0010
0000
0010
0100
0000
0001
0000
,
1000
0000
0100
0000
0010
0000
1000
0000
0001
0000
0100
0010
0100
0000
0001
0000
,
1000
0000
1000
0010
0000
0010
0100
0000
0100
0000
0001
0000
0001
0010
0100
0000
,
2000
0000
0000
0010
0000
0000
0010
0000
3100
0000
0000
0000
0000
0000
0000
0000
,
0002
0000
0000
1000
0000
0000
1000
0000
0013
0000
0000
0000
0000
0000
0000
0000
,
0200
0000
0000
0010
0000
0000
0010
0000
1300
0000
0000
0000
0000
0000
0000
0000
,
1000
0000
0000
0001
0000
0000
1000
0000
2002
0000
3003
0000
0101
0000
0000
0101
,
0000
0000
0001
0000
1000
0000
0000
0000
0001
0000
1000
0000
0010
0000
0000
1010
,
0000
0000
0010
0000
1000
0000
0000
0001
0000
0000
1000
0000
1100
0000
0000
1100
,
0000
0000
0001
0000
0100
0000
0000
0000
0010
0000
1000
0000
0001
0000
0000
0110
,
0000
0000
0001
0000
2000
0000
0000
3001
0000
0000
0010
0000
1010
0000
0000
1010
,
0000
0000
0100
0000
0001
0000
0000
0000
1000
0000
0001
0000
1000
0000
0001
1000
,
0000
1000
0001
0000
0100
0000
0001
0100
0000
0100
0001
0000
0010
0000
0000
1000
,
0000
0100
0001
0000
0010
0100
1000
0010
,
0100
0000
0000
0000
1001
0000
0000
0000
0001
0000
1000
0001
0000
0001
0100
0000
,
0001
1000
0001
1000
0001
0000
0100
0000
0010
0100
0010
0100
0000
0010
1000
0010
,
1000
0000
0100
0000
0010
1000
0010
0000
0100
0000
0010
0100
0000
0100
0000
0100
,
0001
0000
0100
0001
0100
0000
0000
0000
0001
1000
0001
1000
0001
0000
0100
0000
,
0100
0001
0000
0001
1000
0000
0000
0000
0010
0000
0010
0000
0010
0100
0000
0100
,
0000
0100
0000
0100
0001
1000
0001
0000
0010
0000
0010
0000
0010
1000
0000
1000
,
0000
1000
0000
1000
0001
0100
0001
0000
0010
0000
0010
0000
0010
0100
0000
0100
,
0000
0100
0000
1000
0001
1000
0001
0000
0010
0000
0100
0000
0100
0001
0000
1000
,
0000
0010
0000
0100
0001
1000
0010
0000
0020
0000
0000
0000
0000
0000
0000
0000
,
0130
0000
0000
0000
1010
0000
0000
1010
0011
0000
0000
0011
0000
0000
0000
0000
;

//---------------dance-single - Hard----------------
#NOTES:
     dance-single:
     Hard:
     Medium:
     6:
     0.357,0.374,0.115,0.125,0.144:
0000
0000
0000
0000
,
0000
0000
0000
0000
,
0000
0000
0000
0000
,
0000
0000
0000
0000
,
0010
0000
0000
0010
0000
0000
0100
0000
0010
0000
0000
0000
1000
0000
0000
0000
,
0001
0000
0000
0100
0000
0000
0101
0000
1000
0000
0000
0100
0000
0000
1100
0000
,
1000
0000
0000
1000
0000
0000
0001
0000
1000
0000
0000
0000
0001
0000
0000
0000
,
1010
1100
0101
0011
,
1001
0000
0001
0000
1000
0010
1000
0000
,
0001
0000
0100
0001
0100
0010
0100
0010
,
1000
0001
0000
1000
0100
0010
0001
0000
,
1000
0000
0010
1000
0010
0100
0001
0010
,
0100
1000
0002
0000
1000
0000
0000
0003
,
0000
1000
0001
0000
0100
0000
0000
0000
0001
0000
0000
0000
1000
0000
0010
0000
,
1000
0000
0001
0100
0010
0000
0001
1000
,
0001
0000
1000
0100
0010
0001
1000
0001
,
1000
0000
0000
0000
0001
0000
0000
0001
0000
0000
1000
0000
0001
0000
0000
0001
,
0000
0000
1000
0000
0010
0000
0000
0010
0000
0000
0100
0000
0010
0000
0000
0000
,
0000
0000
0000
0000
1000
0000
0000
1000
0000
0000
0010
0000
1000
0000
0000
1000
,
0000
0000
0001
0000
0100
0000
0000
0100
0000
0000
0010
0000
0100
0000
0000
0000
,
0000
0000
0000
0000
0001
0000
0000
0101
0000
0000
0000
0000
1000
0000
0000
1001
,
0000
0000
0000
0000
0001
0000
0000
1000
0000
0000
0001
0000
1000
0000
0000
0000
,
0001
0000
1000
0000
0010
0000
0000
1010
0000
0000
0000
0000
0100
0000
0000
0101
,
0000
0000
0000
0000
0001
0000
0000
1000
0000
0000
0001
0000
2000
3000
0000
0000
,
0001
0000
1000
0000
0001
0100
1000
0000
,
0010
0000
1000
0000
0001
1000
0001
0100
,
0002
2003
3020
2030
,
3001
0100
0001
0010
0100
1000
0001
1000
,
0002
0000
1003
0000
,
0020
0000
1030
0000
,
0200
0000
1300
0000
,
2000
0000
0000
0000
0000
0000
0000
0000
0001
3000
0000
0000
0100
0000
0000
0100
,
0000
0000
0001
0000
1000
0000
0000
0000
0010
0000
0000
0000
0100
0000
0000
0100
,
0000
0000
0001
0000
1000
0000
0000
0010
0000
0000
0100
0000
0001
0000
0000
0100
,
0000
0000
0100
0000
0010
0000
0000
0000
1000
0000
0000
0000
0100
0000
0000
1000
,
0000
0000
1000
0000
0010
0000
0000
0100
0000
0000
0100
0000
0001
0000
0000
0010
,
0000
0000
0010
0000
0100
0000
0000
0000
1000
0000
0000
0000
0000
0001
0000
0100
,
0000
0000
0100
0000
0010
0000
0000
1000
0000
0000
1000
0000
0001
0000
0000
0010
,
0000
0010
0100
0000
1000
0000
0001
0100
,
0010
0000
1001
0000
0001
0100
0001
0100
,
0001
1000
0001
0000
0010
1000
0010
0100
,
0010
0100
0001
0000
0001
1000
0100
0010
,
0100
0010
0001
0000
0001
0100
0010
1000
,
0001
0010
0100
0000
1000
0000
0001
0000
,
0010
0100
0001
0000
1000
0000
0100
0000
,
1000
0010
0100
0000
0001
0000
0010
0000
,
0001
0100
0010
0000
0001
0000
1000
0000
,
0001
0100
1000
0010
0002
0000
0000
0000
,
1003
0000
0000
0000
2000
0000
0000
3010
0200
0000
0000
0301
0000
0000
0000
0000
;

//---------------dance-single - Blank----------------
#NOTES:
     dance-single:
     Blank:
     Easy:
     4:
     0.250,0.234,0.106,0.010,0.010:
0000
0000
0000
0000
,
0000
0000
0000
0000
,
0000
0000
0000
0000
,
0000
0000
0000
0000
,
0001
0001
1000
0010
,
0100
0100
0001
0001
,
1000
1000
0010
0100
,
0001
1000
1010
1001
,
0100
0010
0010
1000
,
0001
0000
1000
0000
0010
0000
1000
0010
,
1000
0001
0100
0100
,
0010
0000
1000
0000
0001
0000
1000
0100
,
0010
0001
1000
0010
,
0100
0001
1000
0001
,
1000
0010
0100
1000
,
0010
0100
0001
0010
,
0100
1000
0000
0001
,
0000
1010
0000
0101
,
1000
0001
0000
0100
,
0000
1010
0000
0110
,
0001
1000
0000
0010
,
0000
0110
0000
1001
,
1000
0001
0000
0010
,
0000
1100
0000
1010
,
1000
0000
0010
0000
0100
0000
0001
1000
,
0010
0100
0001
1000
,
0010
1000
0100
0010
,
0001
0000
1000
0000
0010
0100
0010
0000
,
1000
0000
0001
0000
,
0100
0000
0010
1000
,
0001
0000
0010
0000
,
0100
0000
1000
0001
,
1000
0010
0100
0001
,
1000
0010
0100
1000
,
0100
0010
0001
0100
,
0010
1000
0001
0100
,
0010
1000
0100
0010
,
0001
1000
0010
0100
,
0001
1000
0010
1000
,
0001
1001
0010
1000
,
0001
0100
0001
0000
1000
0000
0010
0000
,
1000
0001
0010
0100
,
1000
0001
1000
0000
0010
0000
0100
0000
,
1000
0001
0010
0100
,
0010
0001
0010
0000
0100
0000
1000
0000
,
0001
1000
0001
0000
0100
0000
0010
0000
,
1000
0010
1000
0000
0001
0000
0100
0000
,
0010
1000
0001
0000
2000
0000
0000
0000
,
3001
0000
0000
0000
0000
0000
0000
0001
0000
0000
0000
1000
0000
0000
0000
0000
;
