#TITLE:Take Me Out;
#SUBTITLE:;
#ARTIST:EnV;
#TITLETRANSLIT:;
#SUBTITLETRANSLIT:;
#ARTISTTRANSLIT:;
#GENRE:Drum & Bass;
#CREDIT:;
#BANNER:Take Me Out-bn.png;
#BACKGROUND:Take Me Out-bg 16-9.png;
#LYRICSPATH:;
#CDTITLE:;
#MUSIC:EnV - Take Me Out.ogg;
#OFFSET:-1.379310;
#SAMPLESTART:56.768032;
#SAMPLELENGTH:44.137928;
#SELECTABLE:YES;
#DISPLAYBPM:174.000000;
#BPMS:0.000000=174.000000
,160.000000=87.000000
,163.000000=174.000000
,251.000000=87.000000
,251.500000=174.000000
;
#STOPS:251.500000=0.172000
;
#BGCHANGES:;
#KEYSOUNDS:;
#ATTACKS:;

//---------------dance-single - ----------------
#NOTES:
     dance-single:
     :
     Challenge:
     9:
     0.496076,0.698982,0.241645,0.957632,0.031324,254.000000,27.000000,107.000000,7.000000,0.000000,22.000000,0.496076,0.698982,0.241645,0.957632,0.031324,254.000000,27.000000,107.000000,7.000000,0.000000,22.000000:
0000
0000
0000
0000
,
0000
0000
0000
0000
,
0000
0000
0000
0000
,
0000
0000
0000
0000
,
0000
0000
0000
0000
,
0000
0000
0000
0000
,
0000
0000
0000
0000
,
0000
0000
0000
0000
,
4000
0000
0000
0000
,
0000
0000
0000
0000
,
3004
0000
0000
0000
,
0403
0000
0000
0000
,
4300
0000
0000
0000
,
0000
0000
0000
0000
,
3004
0000
0000
0000
,
0403
0000
0000
0000
0000
0300
1001
0000
,
0020
0000
0100
0000
0000
0030
0010
0000
,
0200
0000
0010
0000
0000
0300
0100
0000
,
0002
0000
0010
0000
0000
0013
0001
0000
,
2000
0000
0010
0000
0000
3010
1000
0000
,
0200
0000
0010
0000
0000
0310
0110
0000
,
2000
0000
0100
0000
0000
3100
1100
0000
,
0002
0000
0010
0000
0000
0013
0011
0000
,
2000
0000
3020
0000
0230
0000
0320
0000
1030
0001
1000
0001
0200
0000
0300
0000
,
0002
0000
0000
0000
2000
0003
0020
3000
0000
0000
0200
0030
0002
0300
2000
0003
,
0000
0000
0020
3000
0000
0000
0200
0030
0000
0000
0002
0300
0020
0003
0200
0030
,
2000
0300
0000
0000
0002
3000
0020
0003
0000
0000
0200
0030
2000
0300
0000
0000
,
0002
3000
0000
0000
0200
0003
0020
0300
0000
0000
0200
0030
0002
0300
2000
0003
,
0020
3000
0000
0000
2000
0030
0002
3000
0000
0000
0020
0003
0200
0030
2000
0300
,
0000
0000
0020
3000
0000
0000
0200
0030
0000
0000
0002
0300
0020
0003
0200
0030
,
2000
0300
0000
0000
0200
3000
0020
0300
0000
0000
0200
0030
2000
0300
0000
0000
,
0002
3000
0000
0000
0103
0000
0000
0000
0000
0000
0110
0000
0110
0000
0000
0000
,
0002
0000
0100
0000
0000
0013
0011
0000
,
2000
0000
0100
0000
0000
3010
1010
0000
,
0200
0000
0010
0000
0000
0310
1001
0000
,
0020
0000
0100
0000
0000
0130
1001
0000
,
2000
0000
0010
0000
0000
3100
1100
0000
,
0002
0000
0010
0000
0000
0103
0101
0000
,
2000
0000
0000
0002
0000
3003
0110
0000
,
2010
0000
0000
0001
0000
0000
0100
3100
,
0000
0000
0M00
0000
M000
0000
000M
0000
0M00
0000
00M0
M000
000M
0000
0100
0000
,
0110
2000
0001
0100
,
0001
0000
0010
0000
3100
1000
0100
0010
,
0100
1000
0002
0000
1000
0000
0100
0000
,
1000
0000
0010
0003
0001
0010
0100
1000
,
0001
1000
0020
0000
0100
0000
1000
0000
,
0100
0000
0001
0000
0130
0010
1000
0010
,
0100
0001
2000
0000
3200
0000
0320
0000
,
0032
0000
2003
0000
3100
0010
0001
1000
,
0001
0100
0020
0000
2030
0000
3002
0000
,
0203
0000
0320
0000
1030
0100
0010
0100
,
1000
0001
0020
0000
0230
0000
2300
0000
,
3002
0000
0023
0000
0130
1000
0010
0100
,
0010
1000
0002
0000
0103
0000
2000
0000
,
3100
0000
0020
0000
0130
0000
1000
1000
,
0001
0001
4000
0000
0000
3040
0000
0000
,
0032
0000
4003
0000
0000
3040
0000
0000
,
0230
0000
4300
0000
0000
3040
0000
0000
,
0032
0000
4003
0000
0000
3040
0000
0100
,
0130
0000
0004
0000
0000
0043
0000
0000
,
2030
0000
3004
0000
0000
0043
0000
0000
,
0230
0000
0304
0000
0000
0043
0000
0000
,
2030
0000
3004
0000
0000
0403
0000
0310
,
2002
0000
3003
2002
0000
3003
0100
0000
,
2002
0000
3003
2002
0000
3003
0010
0000
,
2002
0000
3003
2002
0000
3003
0100
0000
,
2000
0000
0000
3200
0000
0000
0301
0000
,
1100
0000
1000
2002
0000
3003
0000
0000
,
0011
0001
0001
2002
0000
3003
0000
0000
,
0110
0010
0010
0202
0000
0303
0000
0000
,
1000
0000
0100
0000
0010
0000
0001
0000
1000
0001
1000
0001
1000
0001
1000
0001
,
0100
0000
0000
0000
;

//---------------dance-single - ----------------
#NOTES:
     dance-single:
     :
     Easy:
     5:
     0.301737,0.349491,0.143197,0.259545,0.000000,191.000000,16.000000,29.000000,0.000000,0.000000,0.000000,0.301737,0.349491,0.143197,0.259545,0.000000,191.000000,16.000000,29.000000,0.000000,0.000000,0.000000:
// measure 0
0000
0000
0000
0000
,  // measure 1
0000
0000
0000
0000
,  // measure 2
0000
0000
0000
0000
,  // measure 3
0000
0000
0000
0000
,  // measure 4
0000
0000
0000
0000
,  // measure 5
0000
0000
0000
0000
,  // measure 6
0000
0000
0000
0000
,  // measure 7
0000
0000
0000
0000
,  // measure 8
1001
0000
1000
0000
,  // measure 9
0100
0000
1000
0000
,  // measure 10
0010
0000
0100
0000
,  // measure 11
0001
0000
0100
0000
,  // measure 12
0010
0000
1000
0000
,  // measure 13
0001
0000
1000
0000
,  // measure 14
0100
0000
0010
0000
,  // measure 15
0001
0000
1000
0000
,  // measure 16
0001
0100
0000
0100
,  // measure 17
0000
0100
0000
0100
,  // measure 18
0000
0010
0000
0010
,  // measure 19
0000
0010
0000
0010
,  // measure 20
0001
1000
0000
1000
,  // measure 21
0010
0100
0000
0100
,  // measure 22
0001
1000
0100
1000
,  // measure 23
0010
0000
0100
0000
0001
0000
0202
0303
,  // measure 24
2000
0001
0000
0100
,  // measure 25
3020
1000
0000
0100
,  // measure 26
2030
0001
0000
0100
,  // measure 27
3002
0010
0000
0100
,  // measure 28
2003
0010
0000
0001
,  // measure 29
3200
1000
0000
0010
,  // measure 30
2300
0100
0000
0010
,  // measure 31
3002
0100
0003
1001
,  // measure 32
0020
0130
0000
0110
,  // measure 33
2000
3010
0000
1010
,  // measure 34
0002
0103
0000
0101
,  // measure 35
2000
3001
0000
1001
,  // measure 36
2000
3100
0000
1100
,  // measure 37
0002
0013
0000
0011
,  // measure 38
0200
0310
0000
0110
,  // measure 39
0002
0000
0000
1003
,  // measure 40
0000
0000
0000
0000
,  // measure 41
1001
1000
0100
1000
,  // measure 42
0010
1000
0100
0020
,  // measure 43
0030
0001
0100
0001
,  // measure 44
0010
0001
0100
0020
,  // measure 45
0030
1000
0001
0010
,  // measure 46
0001
1000
0010
0200
,  // measure 47
0300
0001
0100
0010
,  // measure 48
0100
0001
0010
0200
,  // measure 49
0300
1000
0100
0010
,  // measure 50
0100
1000
0010
0200
,  // measure 51
0300
0001
0100
1000
,  // measure 52
0100
0001
1000
0200
,  // measure 53
0300
1000
0010
0001
,  // measure 54
0010
1000
0001
0020
,  // measure 55
0030
0100
0100
0100
,  // measure 56
0110
0010
0010
0010
,  // measure 57
0000
0001
0001
0001
,  // measure 58
1001
1000
1000
1000
,  // measure 59
0000
0010
0010
0010
,  // measure 60
1010
1000
1000
1000
,  // measure 61
0000
0001
0001
0001
,  // measure 62
0101
0000
0100
0000
0100
0000
0200
0300
,  // measure 63
1000
0010
1000
0010
,  // measure 64
0100
0001
0100
0001
,  // measure 65
0010
0001
0010
0001
,  // measure 66
1000
0100
1000
0100
,  // measure 67
0020
0000
0000
0130
0000
0000
0000
0000
,  // measure 68
0020
0000
0000
0130
0000
0000
0000
0000
,  // measure 69
0020
0000
0000
0130
0000
0000
0000
0000
,  // measure 70
1000
0001
1000
0001
,  // measure 71
0110
0000
0000
0000
;

//---------------dance-single - ----------------
#NOTES:
     dance-single:
     :
     Medium:
     7:
     0.443656,0.508350,0.331144,0.393792,0.000000,266.000000,37.000000,44.000000,0.000000,0.000000,0.000000,0.443656,0.508350,0.331144,0.393792,0.000000,266.000000,37.000000,44.000000,0.000000,0.000000,0.000000:
0000
0000
0000
0000
,
0000
0000
0000
0000
,
0000
0000
0000
0000
,
0000
0000
0000
0000
,
0000
0000
0000
0000
,
0000
0000
0000
0000
,
0000
0000
0000
0000
,
0000
0000
0000
0000
,
1000
0000
0000
1000
0000
0000
1000
0000
,
0000
1000
0000
0000
1000
0000
0000
0000
,
0001
0000
0000
0001
0000
0000
0001
0000
,
0000
0100
0000
0000
0100
0000
0000
0000
,
1000
0000
0000
1000
0000
0000
1000
0000
,
0000
1000
0000
0000
1000
0000
0000
0000
,
0001
0000
0000
0001
0000
0000
0001
0000
,
0000
0100
0000
0000
0100
0000
0110
0000
,
0000
0100
0000
0100
,
0000
0010
0000
0010
,
1000
0000
0001
0000
0000
1000
0001
0000
,
0100
0000
0010
0000
0000
0100
0010
0000
,
1000
0000
0010
0000
0000
1000
0010
0000
,
0100
0000
0001
0000
0000
0100
0001
0000
,
0010
0001
0100
0001
,
0010
0100
2000
3000
,
0002
0000
0010
0000
0003
0001
0010
0000
,
2000
0000
0010
0000
3000
1000
0010
0000
,
0002
0000
0100
0000
0003
0001
0100
0000
,
2000
0000
0100
0000
3000
1000
0100
0000
,
0002
0000
1000
0000
0003
0001
0010
0000
,
2000
0000
0001
0000
3000
1000
0010
0000
,
0002
0000
0100
0000
0003
0001
1000
0000
,
0200
0000
0010
0000
0000
0010
0310
0000
,
0002
0000
0103
0000
0010
0100
0001
0000
,
2000
0000
3100
0000
0010
0100
1000
0000
,
0002
0000
1003
0000
0010
1000
0001
0000
,
2000
0000
3001
0000
0010
0001
1000
0000
,
0002
0000
0103
0000
0010
0100
0010
0000
,
2000
0000
3100
0000
0010
0100
0010
0000
,
0200
0000
0310
0000
1000
0001
0100
0000
,
0010
0000
0000
0010
0000
0000
0110
0000
,
0000
0000
0000
0000
0000
0000
0000
0100
,
0110
0002
0103
2000
,
3100
0000
0010
0000
0100
1000
0100
0000
,
0110
0002
1003
0020
,
0130
0000
0001
0000
1000
0000
0001
0100
,
0101
2000
3010
0002
,
0013
0000
0100
0000
0010
0001
0010
0000
,
0011
0001
2000
0000
3020
0000
0032
0000
,
0023
0000
1030
0000
0001
0000
0100
0001
,
0101
2000
3200
0302
,
0203
0000
1300
0000
0100
0010
0100
0000
,
0110
0002
0203
2300
,
3200
0000
0302
0000
1003
0000
0010
1000
,
1010
0002
0023
2030
,
3020
0000
0032
0000
2003
0000
3001
0100
,
0010
0100
0101
0000
1010
1000
0000
0001
,
0011
0000
0010
0000
1100
1000
0000
0001
,
0101
0000
1000
0000
0011
0001
0000
1000
,
1010
0000
0001
0000
1010
0010
0000
0100
,
0101
0000
0010
0000
1001
1000
0000
0010
,
0110
0000
0100
0000
1001
0001
0000
0100
,
0110
0000
0001
0000
1100
1000
0000
0001
,
0101
0000
1000
0000
0010
0100
0020
0030
,
1000
0000
0100
1000
0000
1000
1100
0000
,
0001
0000
0100
0001
0000
0001
0101
0000
,
1000
0000
0010
0100
0000
0100
0110
0000
,
0002
0000
0000
2003
0000
0000
3100
0000
,
0110
0000
0010
0110
0000
0100
0110
0000
,
1001
0000
0001
1001
0000
1000
1001
0000
,
1100
0000
1000
1010
0000
0010
0110
0000
,
0001
1000
0100
0010
0001
0100
0010
1000
,
1001
0000
0000
0000
;

//---------------dance-single - ----------------
#NOTES:
     dance-single:
     :
     Hard:
     10:
     0.649502,0.730753,0.635438,0.035799,0.085023,433.000000,71.000000,4.000000,0.000000,1.000000,0.000000,0.649502,0.730753,0.635438,0.035799,0.085023,433.000000,71.000000,4.000000,0.000000,1.000000,0.000000:
0000
0000
0000
0000
,
0000
0000
0000
0000
,
0000
0000
0000
0000
,
0000
0000
0000
0000
,
0000
0000
0000
0000
,
0000
0000
0000
0000
,
0000
0000
0000
0000
,
0000
0000
0000
0000
,
1010
0000
0000
1010
0000
0000
1010
0000
,
0000
1010
0000
0000
1010
0000
0000
0001
,
0011
0000
0000
0011
0000
0000
0011
0000
,
0100
0001
0000
0100
0001
0000
0100
0010
,
1010
0000
0000
1010
0000
0000
1010
0000
,
0000
1010
0000
0000
1010
0000
0000
0001
,
0011
0000
0000
0011
0000
0000
0011
0000
,
0100
0001
0000
0100
0001
0100
0110
0010
,
1000
0000
0100
1100
0000
0100
1100
0000
,
0100
0010
0110
0000
0000
0001
1001
0000
,
1000
0010
1010
0000
0000
0100
0101
0000
,
0001
0000
0010
0000
0011
0000
0000
0000
0000
0000
0100
0001
1000
0000
0000
0000
,
0100
1000
1100
0000
0000
0001
0101
0000
,
0010
1000
1010
0000
0000
0001
0011
0000
,
0010
0100
0110
0000
0000
0010
0110
0000
,
1000
0000
0001
0000
0100
0000
0010
0000
1000
0001
1000
0001
0200
0000
0300
0000
,
1000
0010
0100
0010
1000
0100
0010
0000
,
0001
0100
0010
0100
0001
0010
0100
0000
,
1000
0100
0010
0100
1000
0100
0010
0100
,
1000
0000
0010
0000
0100
0000
0010
0000
1000
0000
0100
0010
0100
0000
0000
0000
,
0001
0010
0100
0010
0001
0100
0010
0000
,
1000
0100
0010
0100
1000
0010
0100
0000
,
0001
0100
0010
0100
0001
0100
0010
0100
,
0001
0010
0100
0010
0001
1001
1001
0000
,
1000
0001
0100
0001
1000
0100
0010
0100
,
1000
0001
0100
0010
1000
0001
0010
0100
,
1000
0001
0010
0001
1000
0010
0100
0010
,
1000
0100
0010
0001
1000
0010
0101
0000
,
0001
1000
0100
1000
0001
0100
0010
0100
,
0001
1000
0100
0010
0001
1000
0010
0100
,
0001
1000
0010
1000
0001
0010
0100
0010
,
0011
0000
0001
0000
0100
0000
1010
0000
1000
0000
0100
0000
0010
0001
0010
0001
,
0000
0000
1000
0000
0001
0000
0010
0000
0100
0000
1000
0010
0100
0000
0001
0000
,
0101
0000
1000
0100
0010
0100
1000
0010
,
0100
0010
1000
0100
0010
0001
0100
0010
,
1000
0001
0000
1000
0100
0010
0001
0010
,
0100
1000
0010
1000
0100
0010
0001
1000
,
0010
0100
0000
0010
1000
0001
0010
0100
,
1000
0001
0100
0010
1000
0100
0010
0001
,
1000
0000
0010
0100
0010
0000
0000
0000
1100
0000
0000
0000
1001
0000
0000
0000
,
1100
0000
0011
0000
1000
0010
0001
0010
,
1010
1000
0000
0000
1001
0000
0101
0000
,
1001
0000
0110
0000
1000
0100
0001
0100
,
1100
1000
0000
0000
0011
0000
1100
0000
,
1010
0000
0101
0000
1000
0001
0100
0001
,
0010
0100
1000
0100
0010
0001
1000
0010
,
0100
0001
1000
0100
0001
0100
1100
1100
,
1001
1001
1000
1000
0100
0001
0001
0100
,
0010
0100
1000
1000
0100
0001
0001
0100
,
0100
0100
1000
1000
0010
0001
0001
0010
,
0100
0010
1000
1000
0010
0001
0001
0010
,
0110
0000
1000
0100
0010
0001
0010
0100
,
1001
0000
0101
0100
0010
1000
0010
0100
,
0110
0000
1000
0100
0010
0100
1000
0010
,
0001
0010
1000
0001
0010
0100
0100
0110
,
1001
1000
0001
1001
0001
0100
0010
1000
,
1010
0010
1000
1010
0010
0100
0001
1000
,
1100
0100
1000
1100
0100
0010
0001
0100
,
0020
0000
0000
2030
0000
0000
3002
0000
,
1103
0100
0100
1100
0100
0100
0010
0010
,
0011
0000
0001
0010
0001
0000
0011
0000
0001
0000
0001
0000
0100
0000
0100
0000
,
0110
0000
0010
0100
0010
0000
0110
0000
0010
0000
0010
0000
1000
0000
0100
0010
,
0001
0010
0001
0010
0001
0010
0001
0010
0001
0010
0001
0010
0001
0010
0001
0100
,
0010
0000
0000
0000
;
