#TITLE:脳漿炸裂ガール;
#SUBTITLE:(DIVELA REMIX);
#ARTIST:れるりり feat. 鏡音リン, 鏡音レン;
#TITLETRANSLIT:Spinal Fluid Explosion Girl;
#SUBTITLETRANSLIT:(DIVELA REMIX);
#ARTISTTRANSLIT:Rerulili feat. Kagamine Rin, Kagamine Len;
#GENRE:;
#CREDIT:;
#BANNER:[Qualifier Singles] - Spinal Fluid Explosion Girl (DIVELA REMIX).png;
#BACKGROUND:[Qualifier Singles] - Spinal Fluid Explosion Girl (DIVELA REMIX)-bg.png;
#LYRICSPATH:;
#CDTITLE:;
#MUSIC:[Qualifier Singles] - Spinal Fluid Explosion Girl (DIVELA REMIX).mp3;
#OFFSET:-1.577;
#SAMPLESTART:63.497;
#SAMPLELENGTH:12.387;
#SELECTABLE:YES;
#BPMS:0.000=155.000
;
#STOPS:
;
#BGCHANGES:;
#KEYSOUNDS:;
#ATTACKS:;

//---------------dance-single - ----------------
#NOTES:
     dance-single:
     :
     Medium:
     7:
     0.470,0.497,0.247,0.171,0.038,302.000,26.000,18.000,0.000,0.000,0.000,0.470,0.497,0.247,0.171,0.038,302.000,26.000,18.000,0.000,0.000,0.000:
0000
0000
0000
0000
,
0000
0000
0000
0000
,
0000
0000
0000
0000
,
0000
0000
0000
0000
,
0001
0100
0010
0010
,
0100
0000
0010
0000
1000
0010
1000
1000
,
0010
0000
1000
0000
0001
0000
0010
0001
,
0020
0000
0130
0010
0100
0100
1000
1000
,
0001
0010
0001
1000
,
0010
0000
0100
0000
0001
1000
0001
0001
,
1000
0000
0100
0000
0010
0000
0001
0010
,
0002
0000
1003
0010
0100
0100
0001
0001
,
1000
0000
0000
1001
0000
0000
0000
0000
0000
0000
0000
0000
0000
0000
0000
0000
,
0001
0000
0000
0000
0010
0000
0100
0000
1000
0000
0000
1100
0000
0000
0100
0000
,
1000
0000
0000
1001
0000
0000
0000
0000
0000
0000
0000
0000
0000
0000
0000
0000
,
0001
0000
0000
0000
0100
0000
0010
0000
1000
0000
0000
1010
0000
0000
0010
0000
,
1000
0000
0000
0000
0100
0000
0000
0000
0001
0000
0000
0100
0000
0000
1000
0000
,
0001
0000
0000
0000
0100
0000
0000
0000
1000
0000
0000
0100
0000
0000
0001
0000
,
1000
0000
0000
0000
0100
0000
0000
0000
0010
0000
0000
0001
0000
0000
1000
0000
,
0010
0000
0100
0000
0001
1000
0001
0000
,
2000
0000
3100
0010
0100
0000
0010
0001
,
0010
0000
0001
1000
0002
0000
0203
0000
,
0310
0000
1000
0100
1000
0000
0001
1000
,
0001
0000
0100
0001
0200
0000
0320
0000
,
1030
0100
0010
0001
1000
1000
1000
0000
,
0001
0010
0100
1000
0001
0001
0001
0000
,
1000
0010
0100
0001
1000
1000
1000
0000
,
0010
1000
0010
0000
0100
0001
0100
0000
,
0001
0010
0100
1000
0001
0001
0001
0000
,
1000
0100
0010
0001
1000
1000
1000
0000
,
0001
0100
0001
0100
0010
1000
0010
1000
,
0002
1003
2002
3003
,
2000
0001
0000
0100
,
0000
0010
0000
3001
,
0001
0010
0100
0100
0010
0100
1000
1000
,
0001
0100
1000
1000
0100
0001
1000
1000
,
0002
0010
0000
1000
,
0000
0100
0000
1003
,
1100
0000
1100
0000
,
1001
1001
0101
0101
,
0110
0110
0010
1000
,
0010
1000
0001
0000
1001
0000
0000
0000
,
1000
0000
0100
0000
0010
0100
0010
0000
,
0001
0010
0001
0000
0011
0000
1001
0000
,
1010
0000
1000
0010
,
0100
0010
0100
0000
0110
0000
0000
0000
,
0010
0100
0010
0000
0100
0001
0100
0000
,
0001
1000
0001
1000
0100
0000
0010
0000
,
0011
0011
0001
1000
,
0010
0100
0001
0000
0101
0000
0000
0000
,
0100
0001
0100
0000
0001
1000
0001
0000
,
1000
0100
1000
0000
1100
0000
0110
0000
,
0011
0000
0001
1000
,
0010
0100
0010
0000
0110
0000
0000
0000
,
0100
0001
0100
0000
0001
1000
0001
0000
,
1000
0100
0010
0001
1000
0000
0010
0000
,
0100
0000
0001
0000
,
1000
0000
0000
0000
0001
0010
1000
0010
,
0001
0000
0010
0000
,
0100
0000
0000
0000
1000
0010
0001
0010
,
1000
0000
0001
0100
0001
0000
1000
0001
,
1000
0000
0100
1000
0200
0000
0320
0000
,
0031
0000
0010
0001
0010
0000
0001
1000
,
0001
0000
1000
0010
2000
0000
3020
0000
,
0130
0000
0000
0000
0001
0000
0000
0000
1000
0000
0000
1000
0000
0000
2002
0000
,
0000
3003
0000
0000
;

//---------------dance-single - ----------------
#NOTES:
     dance-single:
     :
     Easy:
     4:
     0.283,0.274,0.067,0.152,0.000,185.000,7.000,16.000,0.000,0.000,0.000,0.283,0.274,0.067,0.152,0.000,185.000,7.000,16.000,0.000,0.000,0.000:
0000
0000
0000
0000
,
0000
0000
0000
0000
,
0000
0000
0000
0000
,
0000
0000
0000
0000
,
1000
0100
0010
0010
,
0001
1000
0002
0003
,
0100
0010
1000
0001
,
2000
3000
0002
0003
,
1000
0010
0100
0100
,
0001
1000
0002
0003
,
1000
0100
0010
0001
,
2000
3000
0002
0003
,
1001
0000
0000
0000
,
1100
0000
0110
0000
,
0011
0000
0000
0000
,
1001
0000
0101
0000
,
0110
0010
1000
0001
,
0010
0010
0100
0100
,
1000
0100
1000
0001
,
0200
0000
0000
0000
,
0310
1000
1000
0001
,
0001
0010
0010
0100
,
1000
0001
0001
0100
,
0100
0010
0010
1000
,
0001
0010
0100
0100
,
1000
0001
1000
1000
,
0001
0100
0010
0010
,
2000
3000
0002
0003
,
1000
0100
0010
0010
,
0001
1000
0010
0010
,
0100
0010
1000
0001
,
0010
0010
0020
0030
,
0200
0000
0000
0300
,
1000
0000
1000
0000
,
0001
0001
0002
0003
,
0100
0100
0200
0300
,
0020
0000
0000
0030
,
1000
0000
1000
0000
,
0002
0003
2000
3000
,
0100
0100
0010
0010
,
0001
0001
1000
0001
,
0100
0100
0100
0000
,
0010
0000
1000
0000
,
0001
0000
0010
0010
,
0010
0000
0100
0100
,
1000
1000
0001
0000
,
1000
0000
0001
0000
,
0100
0100
0010
0010
,
1000
1000
0001
0010
,
0100
0100
0100
0000
,
1000
0000
0001
0000
,
0100
0000
0010
0010
,
0010
0000
1000
0001
,
0010
0010
0010
0000
,
0100
0100
1000
1000
,
0001
0100
0010
1000
,
0001
0000
0010
0000
,
0100
0000
1000
1000
,
1000
0000
0001
0000
,
0100
0000
0010
0010
,
0010
0100
0001
1000
,
0100
0010
0001
1000
,
0010
1000
0001
1000
,
0001
0010
0001
1000
,
0010
0000
0000
0000
;

//---------------dance-single - ----------------
#NOTES:
     dance-single:
     :
     Beginner:
     2:
     0.152,0.183,0.000,0.000,0.000,112.000,0.000,0.000,0.000,0.000,0.000,0.152,0.183,0.000,0.000,0.000,112.000,0.000,0.000,0.000,0.000,0.000:
0000
0000
0000
0000
,
0000
0000
0000
0000
,
0000
0000
0000
0000
,
0000
0000
0000
0000
,
0001
0000
0100
0000
,
0010
0000
0010
0000
,
0100
0000
0010
0000
,
1000
0000
1000
0000
,
0001
0000
0010
0000
,
0100
0000
0100
0000
,
1000
0000
0001
0000
,
0100
0000
0100
0000
,
0010
0000
0000
0000
,
1000
0000
1000
0000
,
1000
0000
0000
0000
,
0001
0000
0001
0000
,
0001
0000
0000
0000
,
0010
0000
0000
0000
,
0100
0000
0000
0000
,
1000
0000
0000
0000
,
0001
0000
0001
0000
,
0100
0000
0100
0000
,
0010
0000
0010
0000
,
1000
0000
1000
0000
,
0001
0001
0001
0000
,
1000
1000
1000
0000
,
0100
0100
0100
0000
,
0010
0000
0010
0000
,
0001
0001
0001
0000
,
1000
1000
1000
0000
,
0010
0010
0010
0000
,
0100
0000
0100
0000
,
0001
0000
0000
0000
,
1000
0000
1000
0000
,
1000
0000
0000
0000
,
0100
0000
0100
0000
,
0100
0000
0000
0000
,
0010
0000
0010
0000
,
0010
0000
0001
0000
,
1000
1000
1000
1000
,
1000
0000
0001
0000
,
0100
0000
0000
0000
,
0010
0000
0010
0000
,
1000
0000
1000
0000
,
0001
0000
0010
0000
,
0100
0000
0000
0000
,
0010
0000
0010
0000
,
0100
0000
0100
0000
,
1000
0000
0001
0000
,
0100
0000
0000
0000
,
0010
0000
0010
0000
,
1000
0000
1000
0000
,
0001
0000
1000
0000
,
0100
0000
0000
0000
,
0010
0000
0001
0000
,
1000
0000
0010
0000
,
0100
0000
0000
0000
,
0001
0000
0000
0000
,
1000
0000
0000
0000
,
0100
0000
0000
0000
,
0010
0000
0010
0000
,
0001
0000
0001
0000
,
1000
0000
1000
0000
,
0010
0000
0010
0000
,
0100
0000
0000
0000
;

//---------------dance-single - q----------------
#NOTES:
     dance-single:
     :
     Hard:
     9:
     0.712,0.745,0.371,0.409,0.476,442.000,39.000,43.000,0.000,0.000,2.000,0.712,0.745,0.371,0.409,0.476,442.000,39.000,43.000,0.000,0.000,2.000: // measure 0
0000
0000
0000
0000
,  // measure 1
0000
0000
0000
0000
,  // measure 2
0000
0000
0000
0000
,  // measure 3
0000
0000
0000
0000
,  // measure 4
1000
0000
0000
0000
0010
0000
0000
0000
0100
0000
0000
0100
0000
0000
0100
0000
,  // measure 5
0000
0000
0001
0000
0100
0000
0000
0000
0001
0010
0100
1000
0001
0000
0001
0000
,  // measure 6
1000
0000
0000
0000
0001
0000
0000
0000
0010
0000
0000
0010
0000
0000
0010
0000
,  // measure 7
0200
0000
0000
0000
1300
0000
0001
0000
0100
0010
0100
0010
0100
0000
0010
0000
,  // measure 8
1000
0000
0000
0000
0001
0000
0000
0000
0010
0000
0000
0010
0000
0000
0010
0000
,  // measure 9
0000
0000
0100
0000
0010
0000
0000
0000
0100
1000
0001
0100
0010
0000
0010
0000
,  // measure 10
0100
0000
0000
0000
0010
0000
0000
0000
1000
0000
0000
1000
0000
0000
1000
0000
,  // measure 11
0002
0000
0000
0000
1003
0000
0001
0000
0010
0100
0010
0100
0010
0000
0100
0000
,  // measure 12
1000
0000
0000
1001
0000
0000
0000
0000
0000
0000
0000
0000
0000
0000
0000
0000
,  // measure 13
0101
0000
0000
0000
0100
0000
0010
0000
1010
0000
0000
1001
0000
0000
0011
0000
,  // measure 14
0110
0000
0000
1100
0000
0000
0000
0000
0000
0000
0000
0000
0000
0000
0000
0000
,  // measure 15
1100
0000
0000
0000
1000
0001
0100
0010
1000
0000
0000
1010
0000
0000
1001
0000
,  // measure 16
0001
0000
0010
0000
0100
1000
0000
0001
1000
0000
0001
0100
0000
0010
0100
0000
,  // measure 17
0010
0000
1000
0000
0001
0010
0001
0010
0100
0010
0100
0010
0100
1000
0100
1000
,  // measure 18
0001
0000
0010
0000
0100
1000
0000
1000
0001
0000
0100
0000
0010
0000
0010
0000
,  // measure 19
0100
0000
0010
1000
0010
0000
1000
0001
1000
0001
0010
0000
0100
1000
0000
1000
,  // measure 20
0002
0000
0000
0000
0103
0000
0010
0000
2010
0000
0000
3002
0000
0000
0013
0000
,  // measure 21
0021
0000
0000
0230
0000
0000
1300
0000
1100
0000
0000
0000
1001
0000
0000
0000
,  // measure 22
0101
0000
0000
0000
0001
0000
0100
0000
0210
0000
0000
0320
0000
0000
1030
0000
,  // measure 23
2010
0000
0000
3002
0000
0000
1003
0000
1001
0000
0000
0000
0011
0000
0000
0000
,  // measure 24
0010
0000
0100
0000
1000
0100
0000
1000
0001
0000
0100
0000
0010
0000
1000
0001
,  // measure 25
1000
0000
0001
0000
1000
0100
0000
1000
0010
0000
0100
0000
0001
0000
0100
0001
,  // measure 26
0100
0000
0001
1000
0001
0000
1000
0100
1000
0000
0001
0010
0001
0010
0000
0010
,  // measure 27
0200
0000
0000
0000
1300
0100
1000
0001
0100
0000
0100
0000
0010
0000
1000
0001
,  // measure 28
0010
0000
0001
0000
1000
0010
0000
0010
0100
0000
0001
0000
0010
0000
0100
0010
,  // measure 29
0100
0000
1000
0000
0001
0100
0000
0100
0010
0000
1000
0000
0001
0000
0010
0100
,  // measure 30
1000
0000
0001
0000
0100
0000
0010
0100
0010
0000
1000
0000
0001
0000
0010
0000
,  // measure 31
0200
0000
0000
0000
2300
0000
0000
0000
3004
4000
0000
0000
0000
0000
0000
0000
,  // measure 32
3003
0000
1000
0000
0010
0100
0000
0100
0001
0000
1000
0000
0001
0000
0010
0100
,  // measure 33
0000
0000
1000
0000
0001
1000
0000
1000
0001
0000
0100
0000
0010
0100
0010
0100
,  // measure 34
0010
0000
1000
0000
0001
0010
0000
0010
0100
0000
1000
0000
0100
1000
0100
1000
,  // measure 35
0100
0000
0100
0000
1000
0001
1000
0001
1000
0000
1000
0000
0001
0100
0001
0100
,  // measure 36
0001
0000
0100
0000
0001
0100
0000
0101
0000
0000
0000
0000
0001
0000
1001
0000
,  // measure 37
0000
0000
0000
0000
1000
0000
0000
1010
0000
0000
0010
0000
1000
0000
0001
0000
,  // measure 38
0022
0033
0220
0330
,  // measure 39
2200
3300
2002
3003
0202
0303
0110
0000
,  // measure 40
1010
0000
0000
0000
1001
0000
0000
0000
0001
0010
0000
0010
0100
0000
0100
0000
,  // measure 41
0010
0000
0100
0000
1000
0001
0000
0001
0100
0000
0000
0000
0101
0000
0000
0000
,  // measure 42
0001
0100
0010
0100
1000
0100
0001
0000
,  // measure 43
0100
0001
1000
0000
0001
0010
1000
0100
,  // measure 44
0001
0000
1001
0000
1000
0100
0010
0100
,  // measure 45
0001
0000
0100
0000
1000
0001
0000
0001
1000
0000
0000
0000
1001
0000
0000
0000
,  // measure 46
0001
0010
1000
0010
0001
0100
1000
0100
,  // measure 47
0001
0010
0100
1000
0001
0100
1000
0010
,  // measure 48
0001
0000
0000
0000
0010
0000
0001
0000
2000
0000
0000
3020
0000
0000
1030
0000
,  // measure 49
0020
0000
0000
0230
0000
0000
0310
0000
0200
0000
0000
0000
0302
0000
0000
0000
,  // measure 50
1003
0000
0000
0000
0001
0000
1000
0000
0002
0000
0000
0023
0000
0000
0031
0000
,  // measure 51
0020
0000
0000
0230
0000
0000
0310
0000
0100
0000
1000
0000
0010
0000
0001
0000
,  // measure 52
0100
0000
1000
0100
1000
0000
0001
0000
0200
0000
0000
0320
0000
0000
1030
0000
,  // measure 53
0002
0000
0000
0023
0000
0000
0130
0000
2000
0000
0000
0000
3001
0000
0000
0000
,  // measure 54
0101
0000
0000
0000
0110
0000
0000
0000
0020
0000
0000
2030
0000
0000
3001
0000
,  // measure 55
0010
0110
1100
1001
,  // measure 56
0001
0000
0000
0000
0100
0000
0000
0000
0010
0000
0000
0010
0000
0000
0010
0000
,  // measure 57
0000
0000
0100
0000
0010
0000
0000
0000
1000
0010
0100
0001
1000
0000
1000
0000
,  // measure 58
0001
0000
0000
0000
0010
0000
0000
0000
0100
0000
0000
0100
0000
0000
0100
0000
,  // measure 59
1000
0000
0000
0000
0001
0000
0001
0000
1000
0001
1000
0001
1000
0000
1000
0000
,  // measure 60
0001
0100
0010
0100
1000
0100
0001
0001
,  // measure 61
1000
0100
0010
0100
0001
0100
1000
1000
,  // measure 62
0001
0010
1000
0010
0001
0100
1000
0100
,  // measure 63
0001
0010
0100
1000
0001
0100
0010
1000
,  // measure 64
0001
0000
0000
0000
0010
0000
0000
0000
0100
0000
1000
0001
0000
0000
2002
0000
,  // measure 65
0000
3003
0000
0000
;
