#TITLE:Sadistic Music Factory;
#SUBTITLE:;
#ARTIST:cosMo BousouP;
#TITLETRANSLIT:;
#SUBTITLETRANSLIT:;
#ARTISTTRANSLIT:;
#GENRE:;
#CREDIT:;
#BANNER:Sadistic Music Factory.png;
#BACKGROUND:Sadistic Music Factory-bg.png;
#LYRICSPATH:;
#CDTITLE:;
#MUSIC:Sadistic Music Factory.ogg;
#OFFSET:-0.581000;
#SAMPLESTART:28.215542;
#SAMPLELENGTH:19.999985;
#SELECTABLE:YES;
#DISPLAYBPM:165.000000;
#BPMS:0.000000=165.000000
,75.000000=330.000000
,76.000000=165.000000
,364.000000=330.000000
,365.000000=165.000000
;
#STOPS:75.000000=0.182000,
364.000000=0.181824
;
#BGCHANGES:;
#KEYSOUNDS:;
#ATTACKS:;

//---------------dance-single - ----------------
#NOTES:
     dance-single:
     :
     Challenge:
     13:
     1.000000,1.000000,0.291266,0.277057,1.000000,944.000000,41.000000,39.000000,70.000000,0.000000,0.000000,1.000000,1.000000,0.291266,0.277057,1.000000,944.000000,41.000000,39.000000,70.000000,0.000000,0.000000:
// measure 0
0000
0000
0000
0000
,  // measure 1
1001
0000
00M0
0M00
0000
0000
0000
0000
0000
0000
0000
0000
0000
0000
0000
0000
,  // measure 2
0000
0000
0000
0000
0000
0000
00M0
M000
0000
0000
0000
0000
0000
0000
0000
0M00
,  // measure 3
00M0
000M
0000
0000
0000
0000
0000
0000
0000
0000
0000
0000
M000
000M
M000
000M
,  // measure 4
0000
0000
M000
0000
0000
000M
0000
0000
0M00
00M0
0M00
0000
0000
0000
0000
0000
,  // measure 5
1000
0010
1000
0001
0100
0000
0000
0000
0000
0000
0000
0000
0000
0000
0000
0000
,  // measure 6
0000
0000
0000
0000
0000
0000
0000
0000
0000
0000
0000
0000
0000
0000
0010
1000
,  // measure 7
0001
0010
0001
0000
0000
0000
0000
0000
0000
0000
0000
0000
0000
0000
0000
0000
,  // measure 8
0010
0001
1000
0001
0100
0000
0000
0000
0000
0000
0000
0000
0000
0000
0000
0000
,  // measure 9
0001
0010
1100
1001
,  // measure 10
0010
0100
0101
1010
,  // measure 11
0100
0010
0011
1100
,  // measure 12
0010
1000
1001
0110
,  // measure 13
0010
1000
0100
0010
0001
1000
0010
0100
,  // measure 14
0010
1000
0001
0010
0100
1000
0010
0100
,  // measure 15
0001
1000
0001
1000
0001
1000
0001
1000
0001
1000
0001
1000
0001
1000
0001
1000
,  // measure 16
0M02
00M0
M000
0M00
00M0
0M00
M000
00M0
0M00
00M0
M000
0M00
00M3
0M00
00M0
000M
,  // measure 17
1000
0010
1000
0010
0000
0000
0100
0001
0100
0001
0000
0000
0010
1000
0010
1000
,  // measure 18
0100
0010
0001
0100
0010
1000
0001
1000
0100
0010
0001
0100
0010
0000
MMMM
0000
,  // measure 19
1001
0010
1000
0001
0020
0000
0000
0130
,  // measure 20
1000
0000
0001
0000
1000
0000
0010
0000
0000
0000
1000
0010
1000
0000
0001
0100
,  // measure 21
0010
0100
0001
1000
0200
0000
0000
0310
,  // measure 22
0001
0000
1000
0000
0100
0000
1000
0000
0000
0000
0101
0000
1000
0010
1000
0000
,  // measure 23
0001
1000
0100
0010
0002
0000
0000
0013
,  // measure 24
0100
0000
1000
0000
0001
0000
0100
0000
0000
0000
0010
0100
0010
0000
1000
0001
,  // measure 25
1000
0000
0001
0000
0010
0000
0001
0000
0200
0000
0000
0000
0300
0000
0010
1000
,  // measure 26
0001
0100
0001
0100
0010
1000
0010
1000
0001
0010
0001
0010
0100
1000
0100
1000
,  // measure 27
0001
0100
0001
0000
1000
0100
1000
0000
0010
0100
0001
1000
0100
1000
0010
1000
,  // measure 28
0001
0000
0000
1100
0000
0000
0101
0000
0010
0100
1000
0100
0010
1000
0100
1000
,  // measure 29
0001
0100
0001
0000
1000
0100
1000
0000
0010
0100
0001
0010
0100
0010
0001
1000
,  // measure 30
0100
1000
0100
0000
0010
0100
0010
0000
0001
1000
0001
0010
0100
1000
0010
0100
,  // measure 31
0001
0000
1000
0000
0010
0000
0100
0001
1000
0001
0010
0001
0100
0010
1000
0001
,  // measure 32
1000
0100
0010
0001
0100
0000
0010
1000
0001
0010
0001
0000
0100
0010
1000
0100
,  // measure 33
0010
0001
0100
0000
0010
1000
0001
0000
0100
0010
1000
0000
0100
1000
0000
0010
,  // measure 34
0100
0001
0010
0001
0100
0010
1000
0100
0010
0100
1000
0001
0010
0100
0010
0001
,  // measure 35
0100
0000
0001
0000
0100
0010
0000
1000
0001
0010
0001
0000
1000
0010
1000
0000
,  // measure 36
0001
0000
0100
0000
0010
1000
0000
0001
0100
0010
0100
0000
0001
0010
0001
0000
,  // measure 37
1000
0000
0010
0000
1000
0001
0000
0100
0010
1000
0010
0000
0100
0001
0100
0000
,  // measure 38
0010
0000
1000
0000
0001
0010
0000
0001
1000
0010
1000
0000
0001
0010
0100
0010
,  // measure 39
0001
0000
0010
0000
0001
1000
0000
0100
0010
0001
0010
0000
0100
0010
0001
0000
,  // measure 40
1000
0000
0100
0000
0010
0001
0000
1000
0010
1000
0100
0010
0001
0100
0010
1000
,  // measure 41
0001
0000
1000
0010
0000
0010
0100
0000
0000
0000
0010
0000
0100
0000
0001
0000
,  // measure 42
1000
0010
1000
0100
0010
0001
0100
0010
1000
0100
0010
0001
0010
0100
1000
0001
,  // measure 43
0010
0100
1000
1010
0100
0001
1000
0001
,  // measure 44
0110
0000
0100
0000
1000
0000
0010
0000
0101
0000
0000
0110
0000
0000
1001
0000
,  // measure 45
0010
0110
1100
0010
0110
0001
1000
1001
,  // measure 46
1010
0100
1000
1100
0010
0011
1000
0010
,  // measure 47
0110
0001
1000
1001
0010
0100
1000
1100
,  // measure 48
0110
0001
1000
0010
0100
0010
1010
0001
,  // measure 49
0100
0001
0000
0000
1100
0000
0110
0000
0011
0000
0100
0000
1001
0000
0001
0000
,  // measure 50
0100
0001
1000
0010
0110
0010
1001
0001
,  // measure 51
0100
0010
0200
0000
0301
1000
0002
0000
0203
0000
0310
1000
0001
0010
0002
0000
,  // measure 52
0103
0010
2000
0000
3001
0010
0002
0000
0203
0000
0310
1000
0001
0010
0002
0000
,  // measure 53
0103
0010
2000
0000
3100
0010
0002
0000
0203
0000
0301
1000
0010
0100
0002
0000
,  // measure 54
1003
0010
2000
0000
3001
0010
0200
0000
0320
0000
0031
1000
0100
1000
0020
0000
,  // measure 55
1030
0100
2000
0000
3001
0100
0020
0000
2030
0000
3001
0100
1000
0100
0020
0000
,  // measure 56
0130
0001
2000
0000
3010
0100
0002
0000
2003
0000
3010
0100
0001
1000
0010
0100
,  // measure 57
0001
1000
0010
0000
1000
0100
1000
0000
0010
0100
0001
0010
0100
1000
0010
0100
,  // measure 58
00M1
0M00
00M0
1M00
00M0
0M00
00M1
M000
010M
M000
000M
10M0
000M
M000
01M0
M000
,  // measure 59
0001
0010
0001
0000
0001
0100
0001
0000
0001
1000
0001
0000
1001
0000
0000
0000
,  // measure 60
1000
0100
1000
0000
1000
0010
1000
0000
1000
0001
1000
0000
1001
0000
0000
0000
,  // measure 61
0100
0001
0100
0000
0010
1000
0010
0000
1000
0100
1000
0000
1100
0000
0000
0000
,  // measure 62
0010
0001
0010
0000
0001
1000
0001
0000
0100
0010
0100
0000
0110
0000
0000
0000
,  // measure 63
1000
0010
0100
0001
0100
0001
0010
0100
1000
0010
0100
0010
1000
0001
0100
0000
,  // measure 64
0001
0010
0100
1000
0010
0100
0010
1000
0001
0100
0001
0010
0100
1000
0100
0000
,  // measure 65
0010
0100
1000
0100
0010
0001
1000
0001
0100
0010
1000
0010
0100
0010
1000
0000
,  // measure 66
0001
0100
0001
0100
0001
0000
1000
0000
0000
0000
1000
0000
0001
0000
0010
0000
0100
0000
0010
0000
0100
0000
1000
0000
0100
0000
0010
0000
0001
0000
0000
0000
,  // measure 67
1000
0001
0100
0001
1000
0001
0010
0100
1000
0100
0010
0001
0010
0100
1000
0000
,  // measure 68
0001
0100
0001
1000
0001
0010
0100
1000
0010
0100
0010
1000
0010
0100
0001
0000
,  // measure 69
1000
0001
0100
0001
1000
0001
0010
0100
1000
0100
0010
0001
1000
0001
0100
0000
,  // measure 70
0010
1000
0010
0100
0001
1000
0001
0010
0100
1000
0100
0010
0001
1000
0001
0000
,  // measure 71
0100
0010
1000
0001
0010
0001
0100
0010
1000
0001
0010
0001
,  // measure 72
0100
0010
1000
0100
0010
0001
0100
0010
1000
0001
0010
0001
,  // measure 73
0010
0001
0100
0010
1000
0010
1000
0010
1000
0100
1000
0100
,  // measure 74
1000
0100
1000
0100
0010
0001
0100
0010
1000
0001
0010
0001
,  // measure 75
0100
0010
1000
0010
0001
0010
0100
0010
0100
0010
0001
0010
,  // measure 76
0100
0010
0100
0001
1000
0010
0100
0001
1000
0010
1000
0010
,  // measure 77
0100
0010
1000
0001
0010
0100
1000
0010
0100
0001
0010
0100
,  // measure 78
0010
0001
0010
0100
1000
0001
0100
0010
1000
0001
1000
0010
,  // measure 79
1000
0010
1000
0010
1000
0010
1000
0010
0100
0001
0100
0001
0100
0001
0100
0001
,  // measure 80
1000
0100
1000
0100
1000
0100
1000
0100
0010
0001
0010
0001
0010
0001
0010
0001
,  // measure 81
1000
0010
1000
0010
0100
0001
0100
0001
1000
0100
1000
0100
0010
0001
0010
0001
,  // measure 82
2000
3100
0010
0001
1000
0001
0020
0031
1000
0100
0020
0031
1000
0100
0010
0100
,  // measure 83
1000
0100
0010
0001
1000
0100
0020
0031
0100
0010
1000
0010
0100
0010
2000
3010
,  // measure 84
1000
0100
0010
0001
0100
0010
2000
3001
0010
0001
0100
0010
1000
0002
0013
0002
,  // measure 85
0103
0010
1000
0001
0100
0010
1000
0100
0010
0001
0100
0010
1000
0100
0010
0001
,  // measure 86
1000
0100
0010
0001
0100
0010
0100
0010
1000
0001
0010
0001
0100
0010
1000
0001
,  // measure 87
MM20
M10M
1M0M
MM01
,  // measure 88
1M0M
MM01
M10M
MM01
,  // measure 89
MM31
0000
0100
0000
0010
0000
1000
0000
0000
0001
0000
0000
0000
0000
0000
0100
0000
0000
0010
0000
0000
0100
0000
0000
0001
0000
1000
0000
0001
0000
0010
0000
0100
0000
1000
0000
0100
0000
0000
0000
0000
0000
1000
0000
0000
0000
0000
0000
,  // measure 90
0001
0000
0010
0000
0100
0000
1000
0000
0100
0000
0010
0000
0001
0000
0000
0100
0000
0000
0001
0000
0000
1000
0000
0000
0100
0000
0000
0010
0000
0000
0001
0000
0000
1000
0000
0000
0100
0000
0010
0000
0001
0000
1000
0000
0100
0000
1000
0000
,  // measure 91
0000
2002
0000
0000
,  // measure 92
0000
0000
0000
0000
,  // measure 93
0000
0000
0000
0000
,  // measure 94
0000
0000
0000
0000
,  // measure 95
3003
0000
0000
0000
;

//---------------dance-single - ----------------
#NOTES:
     dance-single:
     :
     Hard:
     9:
     0.689092,0.809860,0.113665,0.134977,0.412034,644.000000,16.000000,19.000000,0.000000,0.000000,0.000000,0.689092,0.809860,0.113665,0.134977,0.412034,644.000000,16.000000,19.000000,0.000000,0.000000,0.000000:
// measure 0
0000
0000
0000
0000
,  // measure 1
2002
0000
0000
0000
,  // measure 2
0000
0000
0000
0000
,  // measure 3
3003
0000
0000
0000
,  // measure 4
0000
0000
0000
0000
,  // measure 5
1000
0001
1000
0001
1000
0000
0000
0000
0000
0000
0000
0000
0000
0000
0000
0000
,  // measure 6
0000
0000
0000
0000
0000
0000
0000
0000
0000
0000
0000
0000
0000
0000
0010
0100
,  // measure 7
0010
0100
0010
0000
0000
0000
0000
0000
0000
0000
0000
0000
0000
0000
0000
0000
,  // measure 8
1000
0100
1000
0100
1000
0000
0000
0000
0000
0000
0000
0000
0000
0000
0000
0000
,  // measure 9
0100
1000
0101
1000
,  // measure 10
0010
0100
0101
1000
,  // measure 11
0100
0010
0011
1000
,  // measure 12
0010
0100
1001
0010
,  // measure 13
1000
0010
0100
0001
1000
0100
0010
0100
,  // measure 14
1000
0001
0100
0001
1000
0100
0010
0001
,  // measure 15
1000
0001
1000
0001
1000
0001
1000
0001
1000
0001
1000
0001
1000
0001
1000
0001
,  // measure 16
2000
0000
0000
0000
0000
0000
0000
3000
,  // measure 17
2002
0000
0000
0000
0000
0000
0000
3003
,  // measure 18
0100
0010
0100
0010
0100
0010
0100
0010
0100
0010
0100
0010
0200
0000
0000
0000
,  // measure 19
0310
1000
0001
0100
0002
0000
0000
1003
,  // measure 20
0001
0010
0100
1000
0000
0100
0010
0000
,  // measure 21
0001
1000
0010
0100
0020
0000
0000
1030
,  // measure 22
0001
0000
0100
0000
0001
0000
2000
0000
0000
0000
3100
0000
1000
0100
1000
0000
,  // measure 23
0100
0010
0001
1000
0020
0000
0000
0130
,  // measure 24
0001
1000
0100
0020
0000
0031
0020
0000
,  // measure 25
0130
0000
1000
0000
0001
0000
0100
0000
0002
0000
0000
0000
0000
0003
1000
0000
,  // measure 26
2002
0000
0000
3003
,  // measure 27
1000
0100
1000
0000
0100
0000
0010
0000
0001
0000
1000
0000
0010
0000
0100
0000
,  // measure 28
0110
0000
0000
1001
0000
0000
0100
0000
0001
0000
1000
0000
0000
0000
0100
0000
,  // measure 29
0010
0001
1000
0001
0100
0100
0001
1000
,  // measure 30
0100
0010
0100
0000
1000
0000
0001
0000
0100
0001
0100
0000
0000
0000
0001
1000
,  // measure 31
0001
0000
0000
0000
0000
0000
0010
0100
0010
0000
0100
0000
0000
1000
0000
0000
,  // measure 32
0010
0100
0001
1000
0001
0010
0100
1000
,  // measure 33
0010
0000
0100
0000
0001
0000
1000
0000
0100
0000
0010
0000
0000
0100
0000
0000
,  // measure 34
1000
0000
0001
0000
0100
0000
0001
0000
1000
0000
0100
0000
0010
0000
0100
1000
,  // measure 35
0100
0000
0010
0000
0001
0000
1000
0000
0001
0000
0100
0000
0001
1000
0001
0000
,  // measure 36
0010
0000
0100
0000
1000
0000
0010
0000
0100
0000
0010
0000
1000
0001
0100
0000
,  // measure 37
0001
0000
1000
0000
0100
0000
0010
0000
0100
0000
1000
0000
0001
0010
0001
0000
,  // measure 38
1000
0000
0010
0000
0100
0000
0010
0000
1000
0000
0001
0000
0100
0001
0100
0001
,  // measure 39
0100
0000
0001
0000
1000
0000
0100
0000
0010
0000
0100
0000
1000
0000
0001
0100
,  // measure 40
0001
1000
0100
0010
0100
1000
0001
0100
,  // measure 41
0001
0000
1000
0001
0000
1000
0001
0000
0000
0000
0010
0000
0100
0000
1000
0000
,  // measure 42
0010
0100
0010
0000
1000
0000
0001
0000
0100
0000
0001
0000
1000
0000
0100
0000
,  // measure 43
0010
0001
0100
0001
1000
0100
0010
0100
,  // measure 44
1000
0010
0100
0001
1000
0001
0010
0100
,  // measure 45
1000
0001
0010
0001
1000
0010
0100
0001
,  // measure 46
1000
0010
0100
0001
1000
0001
0010
0100
,  // measure 47
1000
0100
0010
0001
1000
0001
0100
0001
,  // measure 48
1000
0100
0010
0100
1000
0010
0100
0001
,  // measure 49
1000
0001
0010
0100
1000
0010
0100
0001
,  // measure 50
1000
0001
0010
0100
1000
0001
0100
0001
,  // measure 51
1000
0100
1000
0000
0100
0010
0100
0000
0010
0000
0001
0000
1000
0000
0001
0000
,  // measure 52
0100
0001
0100
0000
0001
1000
0001
0000
1000
0000
0100
0000
0010
0000
0001
0000
,  // measure 53
1000
0010
1000
0000
0010
1000
0010
0000
1000
0000
0001
0000
0100
0000
0001
0000
,  // measure 54
0010
0100
0010
0000
0100
0010
0100
0000
1000
0000
0001
0000
0100
0000
0001
0000
,  // measure 55
1000
0100
1000
0000
0001
0010
0001
0000
1000
0000
0001
0000
0100
0000
0001
0000
,  // measure 56
0010
0100
0010
0000
0100
1000
0100
0000
1000
0000
0010
0000
0100
0000
0001
0000
,  // measure 57
1000
0100
1000
0000
0001
0010
0001
0000
1000
0000
0010
0000
0100
0000
0001
0000
,  // measure 58
1001
0000
0000
0100
0000
0000
0010
0000
1000
0000
0000
0100
0000
0000
0010
0000
,  // measure 59
0001
1000
0010
0101
,  // measure 60
1000
0100
0010
0011
,  // measure 61
0001
1000
0010
0110
,  // measure 62
1000
0001
0100
0101
,  // measure 63
0001
1000
0001
0000
0010
0000
0100
0000
1000
0000
0001
0000
0100
0000
0000
0000
,  // measure 64
0001
0100
0001
0000
1000
0000
0010
0000
0100
0000
0010
0000
1000
0000
0000
0000
,  // measure 65
0100
1000
0100
0000
0010
0000
0001
0000
1000
0000
0001
0000
0100
0000
0000
0000
,  // measure 66
0001
0100
0000
0100
0001
0000
1000
0000
0100
0000
0010
0000
0100
0000
1000
0000
,  // measure 67
0010
0100
0010
0000
1000
0000
0001
0000
0100
0000
0001
0000
1000
0000
0000
0000
,  // measure 68
0100
1000
0100
0000
0010
0000
0001
0000
1000
0000
0010
0000
0100
0000
0000
0000
,  // measure 69
0010
0100
0010
0000
1000
0000
0001
0000
0100
0000
0001
0000
1000
0000
0000
0000
,  // measure 70
0100
1000
0000
1000
0100
0000
0010
0000
0001
0000
1000
0000
0001
0000
0100
0000
,  // measure 71
0010
0000
1000
0010
0000
0100
0001
0000
1000
0001
0000
0010
,  // measure 72
0100
0000
1000
0100
0000
0010
0001
0000
1000
0001
0000
0100
,  // measure 73
0010
0000
1000
0100
0000
0010
0001
0000
1000
0001
0000
0100
,  // measure 74
0010
0000
1000
0100
0000
0010
0001
0000
1000
0001
0000
0100
,  // measure 75
0010
0000
1000
0100
0000
0010
0001
0000
1000
0001
0000
0100
,  // measure 76
0010
0000
1000
0100
0000
0010
0001
0000
1000
0001
0000
0100
,  // measure 77
0010
0000
1000
0010
0000
0100
0001
0000
1000
0001
0000
0010
,  // measure 78
0100
1000
0100
0010
0001
1000
0001
0100
0001
1000
0010
0100
,  // measure 79
0001
0100
0001
1000
0100
0010
0100
1000
,  // measure 80
0010
0100
0001
1000
0001
0010
0100
1000
,  // measure 81
0100
0010
0001
1000
0001
0100
0010
1000
,  // measure 82
0010
0000
0100
0000
0001
0000
1000
0001
0100
0000
0001
1000
0001
0000
0010
0000
,  // measure 83
0100
0000
1000
0000
0100
0000
0010
0001
0010
0000
0001
0000
1000
0000
0010
0100
,  // measure 84
0010
0000
1000
0000
0001
0000
0100
0001
0100
0000
0001
0000
1000
0000
0100
1000
,  // measure 85
0100
0010
0001
0010
0001
1000
0010
0100
,  // measure 86
0010
1000
0010
1000
0010
1000
0010
1000
0010
0000
0100
0000
0001
0000
1000
0000
,  // measure 87
2200
0000
0000
0000
,  // measure 88
0000
0000
0000
3300
,  // measure 89
0100
1000
0100
1000
0000
0000
0100
0000
0010
0000
0001
0000
1000
0000
0001
0000
,  // measure 90
0100
0001
0100
0000
0001
0000
1000
0000
0010
1000
0010
0000
0100
0010
0100
0000
,  // measure 91
0000
2002
0000
0000
,  // measure 92
0000
0000
0000
0000
,  // measure 93
0000
0000
0000
0000
,  // measure 94
0000
0000
0000
0000
,  // measure 95
3003
0000
0000
0000
;

//---------------dance-single - ----------------
#NOTES:
     dance-single:
     :
     Beginner:
     3:
     0.203987,0.226885,0.028416,0.021312,0.000000,194.000000,4.000000,3.000000,0.000000,0.000000,0.000000,0.203987,0.226885,0.028416,0.021312,0.000000,194.000000,4.000000,3.000000,0.000000,0.000000,0.000000:
// measure 0
0000
0000
0000
0000
,  // measure 1
1001
0000
0000
0000
,  // measure 2
0000
0000
0000
0000
,  // measure 3
0000
0000
0000
0000
,  // measure 4
0000
0000
0000
0000
,  // measure 5
0100
0100
0000
0000
,  // measure 6
0000
0000
0000
0000
0000
0000
0000
0010
,  // measure 7
0000
0010
0000
0000
0000
0000
0000
0000
,  // measure 8
1000
1000
0000
0000
,  // measure 9
0001
0000
0100
0000
,  // measure 10
0010
0000
1000
0000
,  // measure 11
0100
0000
0010
0000
,  // measure 12
0001
0000
0100
0000
,  // measure 13
0001
0001
0001
0000
,  // measure 14
0100
0100
0100
0000
,  // measure 15
0010
0010
0010
1000
,  // measure 16
0001
0000
0000
0000
,  // measure 17
2002
0000
0000
0000
,  // measure 18
0000
0000
0000
3003
,  // measure 19
0100
0100
0100
0000
,  // measure 20
0010
0010
0000
0010
,  // measure 21
1000
1000
1000
0000
,  // measure 22
0001
0001
0000
0100
,  // measure 23
0001
0001
0001
0000
,  // measure 24
0010
0010
0000
0001
,  // measure 25
1000
1000
1000
0000
,  // measure 26
1001
0000
0000
0000
,  // measure 27
0100
0000
1000
0000
,  // measure 28
0001
0001
0100
0000
,  // measure 29
0001
0000
0010
0000
,  // measure 30
0100
0000
1000
0000
,  // measure 31
0001
0000
0100
0000
,  // measure 32
0010
0000
1000
0000
,  // measure 33
0001
0000
0100
0100
,  // measure 34
0100
0000
0010
0000
,  // measure 35
1000
0000
0001
0000
,  // measure 36
0100
0000
0001
0000
,  // measure 37
1000
0000
0100
0000
,  // measure 38
0010
0000
0001
0000
,  // measure 39
1000
0000
0001
0000
,  // measure 40
0100
0000
0001
0000
,  // measure 41
1000
0000
1000
0000
,  // measure 42
0001
0100
0010
0010
,  // measure 43
0100
0000
0001
0000
,  // measure 44
1000
0000
0100
0000
,  // measure 45
1000
0000
0001
0000
,  // measure 46
0100
0000
0001
0000
,  // measure 47
0010
0000
0001
0000
,  // measure 48
1000
0000
0100
0000
,  // measure 49
1000
0000
0001
0000
,  // measure 50
0100
0000
0010
0000
,  // measure 51
1000
1000
1000
0000
,  // measure 52
0001
0001
0001
0000
,  // measure 53
0100
0100
0100
0000
,  // measure 54
0010
0010
0010
0000
,  // measure 55
1000
0010
1000
0000
,  // measure 56
0001
0100
0001
0000
,  // measure 57
1000
0100
1000
0000
,  // measure 58
0001
0001
0100
0100
,  // measure 59
0010
0000
0010
0000
,  // measure 60
0100
0000
0100
0000
,  // measure 61
0001
0000
0001
0000
,  // measure 62
1000
0000
1000
0000
,  // measure 63
0100
0000
0010
0000
,  // measure 64
0001
0000
1000
0000
,  // measure 65
0010
0000
0100
0000
,  // measure 66
0010
0000
1000
0000
,  // measure 67
0001
0000
1000
0000
,  // measure 68
0100
0000
1000
0000
,  // measure 69
0001
0000
0100
0000
,  // measure 70
0001
0000
1000
0000
,  // measure 71
0001
0000
0100
0000
,  // measure 72
0010
0000
1000
0000
,  // measure 73
0100
0000
1000
0000
,  // measure 74
0001
0000
0100
0000
,  // measure 75
0001
0000
1000
0000
,  // measure 76
0100
0000
0010
0000
,  // measure 77
0100
0000
1000
0000
,  // measure 78
0001
0001
0001
0001
,  // measure 79
0100
0000
0010
0000
,  // measure 80
1000
0000
0100
0000
,  // measure 81
1000
0000
0001
0000
,  // measure 82
0100
0000
0001
0000
,  // measure 83
0010
0000
0100
0000
,  // measure 84
1000
0000
0001
0000
,  // measure 85
0100
0000
0001
0000
,  // measure 86
1000
1000
0001
0001
,  // measure 87
0200
0000
0000
0000
,  // measure 88
0000
0000
0000
0300
,  // measure 89
0100
0000
0010
0000
,  // measure 90
1000
1000
0001
0001
,  // measure 91
0000
1001
0000
0000
;

//---------------dance-single - ----------------
#NOTES:
     dance-single:
     :
     Easy:
     5:
     0.380574,0.472419,0.092353,0.106561,0.000000,347.000000,13.000000,15.000000,0.000000,0.000000,0.000000,0.380574,0.472419,0.092353,0.106561,0.000000,347.000000,13.000000,15.000000,0.000000,0.000000,0.000000:
// measure 0
0000
0000
0000
0000
,  // measure 1
1001
0000
0000
0000
,  // measure 2
0000
0000
0000
0000
,  // measure 3
0000
0000
0000
0000
,  // measure 4
0000
0000
0000
0000
,  // measure 5
0100
0010
0000
0000
,  // measure 6
0000
0000
0000
0000
0000
0000
0000
0010
,  // measure 7
0000
1000
0000
0000
0000
0000
0000
0000
,  // measure 8
0001
0010
0000
0000
,  // measure 9
0100
0010
0001
0100
,  // measure 10
0010
1000
0100
1000
,  // measure 11
0001
0100
0001
0010
,  // measure 12
0100
1000
0100
0010
,  // measure 13
0001
1000
0010
0100
,  // measure 14
0001
1000
0100
0010
,  // measure 15
0001
0010
0001
0000
1000
0001
1000
0001
,  // measure 16
0200
0000
0000
0300
,  // measure 17
0220
0000
0000
0000
,  // measure 18
0000
0000
0000
0330
,  // measure 19
0010
0000
1000
0001
1000
0000
0000
0000
,  // measure 20
0001
0000
0100
0001
0000
0000
0100
0000
,  // measure 21
0010
0000
1000
0010
1000
0000
0000
0000
,  // measure 22
0010
0000
0100
0001
0000
0000
1000
0000
,  // measure 23
0100
0000
0010
0100
0010
0000
0000
0000
,  // measure 24
0001
0000
0010
0001
0000
0000
0100
0000
,  // measure 25
0010
0000
1000
0010
1000
0000
0000
0000
,  // measure 26
2002
0000
0000
3003
,  // measure 27
0100
0000
0001
0000
1000
0000
0100
0010
,  // measure 28
0100
0000
1000
0000
0001
0100
0001
0000
,  // measure 29
0100
0010
1000
0001
,  // measure 30
0010
0100
1000
0000
0001
0000
0000
0100
,  // measure 31
0001
0000
0000
1000
0100
1000
0000
0000
,  // measure 32
0100
0010
0001
1000
,  // measure 33
0010
0000
0100
0000
0010
0100
0000
0001
,  // measure 34
1000
0000
0100
0000
0010
0000
0001
1000
,  // measure 35
0001
0100
0010
1000
,  // measure 36
0100
0010
0001
0000
1000
0000
0010
0000
,  // measure 37
0100
0010
1000
0000
0001
0000
0100
0000
,  // measure 38
0001
0010
0100
0000
1000
0000
0100
1000
,  // measure 39
0100
0000
0010
0000
0001
0000
1000
0001
,  // measure 40
0100
0000
0001
0000
1000
0000
0100
0010
,  // measure 41
0100
0000
0000
1100
0000
0000
0001
0000
,  // measure 42
0100
0001
0100
0000
0010
0000
1000
0000
,  // measure 43
0100
0010
0001
1000
,  // measure 44
0010
0100
0001
1000
,  // measure 45
0100
1000
0001
0100
,  // measure 46
0001
0010
0100
1000
,  // measure 47
0010
0100
0001
1000
,  // measure 48
0100
1000
0001
0100
,  // measure 49
0001
0010
0100
1000
,  // measure 50
0001
0100
0001
1000
,  // measure 51
0100
0100
0100
1000
,  // measure 52
0010
0010
0010
0100
,  // measure 53
0001
0001
0001
1000
,  // measure 54
0100
0010
0001
1000
,  // measure 55
0010
0100
0010
0000
1000
0000
0001
0000
,  // measure 56
0100
0001
0100
0000
0001
0000
1000
0000
,  // measure 57
0100
0010
0100
0000
1000
0000
0001
0000
,  // measure 58
0101
1010
1100
0011
,  // measure 59
0020
0000
0031
0000
,  // measure 60
0200
0000
0310
0000
,  // measure 61
2000
0000
3100
0000
,  // measure 62
0020
0000
0031
0000
,  // measure 63
0010
0001
0100
0010
,  // measure 64
1000
0100
1000
0001
,  // measure 65
0100
0001
0010
0100
,  // measure 66
1000
1000
0100
0100
,  // measure 67
0010
0001
0010
0000
0001
0000
0100
0000
,  // measure 68
0010
0100
0010
0000
1000
0000
0100
0000
,  // measure 69
1000
0100
1000
0000
0001
0000
0010
0000
,  // measure 70
0100
1000
0100
0000
0010
0000
0001
0000
,  // measure 71
1000
0100
0010
0001
,  // measure 72
1000
0010
0100
0001
,  // measure 73
1000
0100
1000
0001
,  // measure 74
0100
0001
0010
0100
,  // measure 75
1000
0001
0100
0001
,  // measure 76
0010
0100
1000
0100
,  // measure 77
0010
0001
1000
0010
,  // measure 78
0110
1001
1100
0011
,  // measure 79
0010
0100
0010
0000
0001
1000
0001
0000
,  // measure 80
0100
0010
0100
0000
0010
1000
0010
0000
,  // measure 81
0100
0001
0100
0000
0001
1000
0001
0000
,  // measure 82
1000
0100
1000
0000
0100
0010
0100
0000
,  // measure 83
0010
0001
0010
0000
0001
0100
0001
0000
,  // measure 84
1000
0010
0100
0000
0010
1000
0001
0000
,  // measure 85
0100
0001
1000
0000
0100
0010
0100
0000
,  // measure 86
1000
0001
0100
0001
1000
0000
0100
0000
,  // measure 87
0020
0000
0032
0000
,  // measure 88
0203
0000
0320
0000
,  // measure 89
1030
0000
0001
0000
,  // measure 90
0100
0001
1000
0000
0100
0000
1000
0000
,  // measure 91
0000
2002
0000
0000
,  // measure 92
0000
0000
0000
0000
,  // measure 93
0000
0000
0000
0000
,  // measure 94
0000
0000
0000
0000
,  // measure 95
3003
0000
0000
0000
;

//---------------dance-single - ----------------
#NOTES:
     dance-single:
     :
     Medium:
     8:
     0.550056,0.539907,0.134977,0.078144,0.110113,512.000000,19.000000,11.000000,0.000000,0.000000,0.000000,0.550056,0.539907,0.134977,0.078144,0.110113,512.000000,19.000000,11.000000,0.000000,0.000000,0.000000:
// measure 0
0000
0000
0000
0000
,  // measure 1
1100
0000
0000
0000
,  // measure 2
0000
0000
0000
0000
,  // measure 3
0000
0000
0000
0000
,  // measure 4
0000
0000
0000
0000
,  // measure 5
0010
0001
1000
0000
0000
0000
0000
0000
,  // measure 6
0000
0000
0000
0000
0000
0000
0000
0100
,  // measure 7
1000
0001
0000
0000
0000
0000
0000
0000
,  // measure 8
0100
0001
0010
0000
0000
0000
0000
0000
,  // measure 9
0100
1000
0101
0010
,  // measure 10
0100
1000
1001
0100
,  // measure 11
0001
0010
0110
1000
,  // measure 12
0001
0100
0101
1000
,  // measure 13
0100
1000
0100
0000
0010
0001
0010
0000
,  // measure 14
0001
0100
0001
0000
0100
0010
1000
0000
,  // measure 15
0010
1000
0001
0100
0001
0010
0100
1000
,  // measure 16
0002
0000
0000
0000
0000
0000
0000
0003
,  // measure 17
2002
0000
0000
3003
,  // measure 18
0100
0010
1000
0001
0100
0000
0001
0000
,  // measure 19
0100
0001
1000
0100
0010
0000
0000
0100
,  // measure 20
0010
0001
1000
0001
0000
0000
0101
0000
,  // measure 21
0001
1000
0100
0010
0100
0000
0000
1000
,  // measure 22
0100
0010
0001
0100
0000
0000
0101
0000
,  // measure 23
0010
1000
0001
0100
0010
0000
0000
1000
,  // measure 24
0010
0100
0001
1000
0000
0000
1100
0000
,  // measure 25
0100
1000
0001
0100
0001
0000
0000
0010
,  // measure 26
0220
0000
0000
0000
0000
0000
0000
0330
,  // measure 27
0100
1000
0100
0010
0001
1000
0001
0100
,  // measure 28
0010
0000
0000
1000
0000
0000
0001
0000
0100
0000
0001
0000
0000
0000
1000
0000
,  // measure 29
0100
0010
0001
1000
0001
0001
0100
0010
,  // measure 30
1000
0100
0010
0001
1000
1000
0000
0001
,  // measure 31
0100
0000
0000
0000
0000
0000
0001
0000
1000
0000
0100
0000
0000
0010
0000
0000
,  // measure 32
0100
1000
0001
0000
0100
0001
1000
0000
,  // measure 33
0100
0000
0010
0000
0001
0000
1000
0000
0001
0000
0100
0000
0000
0100
0000
0000
,  // measure 34
0010
1000
0001
0100
0001
1000
0100
0010
,  // measure 35
0010
0100
1000
0000
0001
0100
0001
1000
,  // measure 36
0100
0010
0100
1000
0010
0100
0001
1000
,  // measure 37
0100
0100
1000
0001
0100
0001
0010
0100
,  // measure 38
1000
0100
0010
0001
1000
0001
0100
0100
,  // measure 39
0001
1000
0100
0010
0100
1000
0001
0000
,  // measure 40
0100
0001
1000
0100
0010
0100
1000
0010
,  // measure 41
0100
0000
0000
0001
0000
0000
1000
0000
0000
0000
0100
0000
1000
0000
0100
0000
,  // measure 42
0010
0001
1000
0001
0100
0010
1000
0000
,  // measure 43
0001
0000
0100
0001
1000
0000
0100
0000
,  // measure 44
0010
0001
1000
0000
0001
0000
0100
0000
,  // measure 45
0010
1000
0001
0000
0100
0000
0001
1000
,  // measure 46
0100
0000
0010
0000
0001
0000
1000
0001
,  // measure 47
0100
0000
0001
1000
0100
0000
0010
0001
,  // measure 48
0000
1000
0001
0100
0000
0010
0000
1000
,  // measure 49
0010
0000
0100
0001
1000
0000
0100
0000
,  // measure 50
0010
0001
1000
0000
0001
0000
0100
0000
,  // measure 51
0001
0100
0001
0100
0010
1000
0010
1000
,  // measure 52
0100
1000
0100
1000
0001
0100
0001
0100
,  // measure 53
0001
0010
0001
0010
0100
1000
0100
1000
,  // measure 54
0100
0010
0100
0010
0001
1000
0001
1000
,  // measure 55
0001
0100
0010
1000
0100
0010
0001
0100
,  // measure 56
0001
0010
0100
1000
0100
0010
0100
1000
,  // measure 57
0010
0100
0001
1000
0001
0100
0001
0010
,  // measure 58
0100
0000
0000
1000
0000
0000
0100
0000
0010
0000
0000
0001
0000
0000
1000
0000
,  // measure 59
0010
0100
0001
1001
,  // measure 60
0010
0100
1000
1001
,  // measure 61
0100
0001
0010
0110
,  // measure 62
0100
1000
0010
0110
,  // measure 63
0010
0001
0100
0001
0010
0100
1000
0000
,  // measure 64
0100
1000
0010
0100
0001
0010
0001
0000
,  // measure 65
0010
0100
1000
0100
0010
0001
1000
0000
,  // measure 66
0001
0100
0001
1000
0100
0010
0100
0000
,  // measure 67
1000
0100
0010
0100
1000
0001
0100
0000
,  // measure 68
0001
0100
0001
1000
0010
0100
0010
0000
,  // measure 69
1000
0010
0100
0001
1000
0001
0010
0000
,  // measure 70
0100
0000
0000
1000
0000
0000
0100
0000
0010
0000
0000
0001
0000
0000
1000
0000
,  // measure 71
0100
0000
1000
0100
0000
0010
0001
0000
1000
0001
0000
0100
,  // measure 72
0010
0000
1000
0010
0000
0100
0001
0000
1000
0100
0000
0000
,  // measure 73
0010
0000
0100
1000
0000
0001
0100
0000
0001
1000
0000
0000
,  // measure 74
0100
0000
0010
0001
0000
1000
0001
0000
0100
0010
0000
0000
,  // measure 75
1000
0000
0010
0100
0000
0001
1000
0000
0001
0010
0000
0000
,  // measure 76
0100
0000
0010
0100
0000
1000
0001
0000
0100
0001
0000
0000
,  // measure 77
1000
0000
0100
0010
0000
0100
1000
0000
0001
0100
0000
0000
,  // measure 78
0101
1010
1100
0110
,  // measure 79
0010
0001
0100
0001
0010
0000
0100
0000
,  // measure 80
1000
0100
0010
0100
1000
0000
0001
0000
,  // measure 81
0100
0001
1000
0001
0010
0000
0100
0000
,  // measure 82
0010
0100
1000
0001
0100
0000
0001
0000
,  // measure 83
1000
0100
0010
0100
1000
0001
0100
0001
,  // measure 84
1000
0100
0010
0100
0010
0001
1000
0001
,  // measure 85
0100
0010
1000
0010
0100
0001
1000
0001
,  // measure 86
0010
0100
0010
0100
1000
0001
0100
0001
,  // measure 87
2000
0000
3200
0000
,  // measure 88
0320
0000
0032
0000
,  // measure 89
1003
0000
0000
0001
0000
0000
0100
0000
0010
0000
1000
0000
0100
0000
0000
0000
,  // measure 90
0010
0100
1000
0001
0100
0001
1000
0001
,  // measure 91
0000
2002
0000
0000
,  // measure 92
0000
0000
0000
0000
,  // measure 93
0000
0000
0000
0000
,  // measure 94
0000
0000
0000
0000
,  // measure 95
3003
0000
0000
0000
;
