#TITLE:Run&Run;
#SUBTITLE:;
#ARTIST:BIGSTAR;
#TITLETRANSLIT:;
#SUBTITLETRANSLIT:;
#ARTISTTRANSLIT:;
#GENRE:;
#CREDIT:SoulEdge5000;
#BANNER:bn.png;
#BACKGROUND:bg.png;
#LYRICSPATH:;
#CDTITLE:;
#MUSIC:Run&Run.mp3;
#OFFSET:0.000000;
#SAMPLESTART:51.900002;
#SAMPLELENGTH:15.000000;
#SELECTABLE:YES;
#BPMS:0.000000=127.750000
,113.000000=128.399994
;
#STOPS:
;
#BGCHANGES:0.000=Run&Run.avi=1.000=0=0=0=StretchNoLoop====,
99999=-nosongbg-=1.000=0=0=0 // don't automatically add -songbackground-
;
#KEYSOUNDS:;
#ATTACKS:;

//---------------dance-single - ----------------
#NOTES:
     dance-single:
     :
     Easy:
     3:
     0.229550,0.327405,0.116559,0.324700,0.000000,140.000000,14.000000,39.000000,0.000000,0.000000,0.000000,0.229550,0.327405,0.116559,0.324700,0.000000,140.000000,14.000000,39.000000,0.000000,0.000000,0.000000:
0000
0002
0000
0000
,
0003
2000
0000
0000
,
3000
0002
0000
0000
,
0003
1000
0000
0200
,
0300
0002
0000
1000
,
1003
2000
0001
3001
,
0010
0002
0000
0010
,
0013
2000
3000
0002
,
0003
0001
0000
1000
,
1000
0001
0000
0010
,
0010
1001
0000
1000
,
0001
0010
0000
1000
,
0000
0000
0110
0000
,
1001
0000
0110
0000
,
0000
0010
0000
0010
,
0000
0020
0000
0000
,
0030
0001
1000
0000
,
0001
0000
0100
0000
,
0010
0000
1000
0000
,
1000
0010
0000
0010
,
0000
2000
0000
3002
,
0000
0003
0100
1001
,
0110
0200
0000
0320
,
0000
0030
0100
1001
,
1001
1000
0000
1000
,
0001
0010
0000
0010
,
0000
1000
0000
1000
,
0000
2000
0000
3000
,
0000
1000
0000
0010
,
0000
0010
0000
0010
,
0000
1000
0000
1000
,
0000
0220
0000
0000
,
0330
1000
0000
1000
,
0000
0010
0000
0010
,
0000
1000
0000
0001
,
0000
1000
0100
0010
,
0001
2000
0000
0000
,
3000
0002
0000
0000
,
0003
0020
0000
0000
,
0030
0010
0000
0010
,
0000
0020
0000
0000
,
0030
0200
0000
0000
,
0300
2000
0000
0000
,
3000
0020
0000
0000
,
0130
2000
0000
3010
,
0000
1000
0000
0100
,
0000
0002
0000
0013
,
0010
0100
0010
0100
,
0100
0010
0000
0100
,
0000
0001
0000
0100
,
0000
0001
0000
0001
,
0000
1000
0000
1000
,
0000
1001
2000
3001
,
2000
3100
0200
0310
,
0020
0031
0002
1003
,
0002
1003
0200
0320
,
0031
1000
2000
3001
,
1000
0100
2000
3001
,
1000
0001
0210
0010
,
0010
0010
0310
1001
,
0110
2002
3003
0000
;

//---------------dance-single - ----------------
#NOTES:
     dance-single:
     :
     Hard:
     6:
     0.429365,0.377776,0.258095,0.233118,0.000000,302.000000,31.000000,28.000000,0.000000,0.000000,0.000000,0.429365,0.377776,0.258095,0.233118,0.000000,302.000000,31.000000,28.000000,0.000000,0.000000,0.000000:
0000
0000
1000
0001
1000
0000
0001
0000
,
1000
0000
0100
0010
0100
0000
1000
0000
,
0001
0000
0010
0100
0010
0000
0110
0000
,
0110
0000
2002
0000
0000
3003
1000
0001
,
1000
0000
0001
1000
0001
0000
0110
0000
,
0110
0000
0010
0001
0010
0000
0010
0000
,
1001
0000
0010
0100
0010
0000
0010
0000
,
0010
2001
3200
0320
,
1030
0000
1000
0100
0001
0000
1000
0000
,
0001
0000
0010
0001
0010
0000
0100
0000
,
0010
0000
1000
0100
1000
0000
1000
0000
,
0001
0010
1000
0010
,
0001
0010
1001
0010
,
1001
0000
0020
0030
0200
0300
0020
0030
,
0200
0300
1000
0100
0001
0000
1000
0010
,
0001
1020
0001
1000
,
0031
0000
1000
0100
1000
0000
1000
0000
,
0001
0000
0010
0001
0010
0000
0010
0000
,
1001
0000
1000
0100
1000
0000
0001
0000
,
1000
0000
0010
0100
0010
0100
0010
0100
,
0010
0100
1000
0100
0010
0000
0010
0001
,
0010
0000
0010
0100
0010
0000
2002
0000
,
3003
0000
1000
0100
0010
0000
0010
0100
,
0001
0000
0010
0001
0100
0000
0220
0000
,
0330
0000
1000
0100
0001
0000
1000
0010
,
0001
0000
0010
0001
0100
0000
0010
1000
,
0100
0000
1000
0001
0100
0000
1000
0010
,
0100
2002
0000
3003
,
0000
1000
0100
0001
,
0100
1000
0001
0010
,
0001
0000
1000
0010
0100
0000
1000
0001
,
0100
0000
0010
0001
0010
1000
0010
0001
,
0010
1001
0110
1001
,
0110
0000
0010
0001
0100
0000
0010
1000
,
0100
0000
1000
0100
0001
0000
1000
0010
,
0001
1000
0100
0001
,
0100
2100
0100
0100
,
3100
0012
0010
0010
,
0013
0120
0100
0100
,
0130
0000
1000
0100
0001
0000
1000
0010
,
0001
1020
0100
1000
,
0130
0210
0001
0010
,
0301
2000
0100
0010
,
3001
0012
0100
1000
,
0103
0000
0100
0010
0100
0000
0100
0001
,
0100
0000
0100
0010
0100
0000
0100
0010
,
0100
0000
0100
1000
0100
0000
0110
0000
,
1000
1000
1000
1000
,
0101
0000
0001
0010
0001
0000
0001
0100
,
0001
0000
0001
1000
0001
0000
0001
0010
,
0001
0000
0001
0010
0001
0000
0001
0010
,
0001
0000
0100
0010
0100
0000
1000
0001
,
1000
0000
1000
0100
0001
0000
0001
0100
,
1000
0000
1000
0100
0001
0000
0001
0100
,
1000
0000
1000
0010
0001
0000
0001
0010
,
1000
2000
3200
0320
,
0031
0000
1000
0100
0001
0000
0001
0100
,
1000
0000
0100
0010
0100
0000
0001
1000
,
0001
0000
0001
0010
0100
0000
1000
0100
,
0010
1001
0110
1001
,
0110
2002
3003
0000
;

//---------------dance-single - ----------------
#NOTES:
     dance-single:
     :
     Medium:
     5:
     0.329457,0.377776,0.399630,0.016651,0.000000,227.000000,48.000000,2.000000,0.000000,0.000000,0.000000,0.329457,0.377776,0.399630,0.016651,0.000000,227.000000,48.000000,2.000000,0.000000,0.000000,0.000000:
0000
1000
1000
1000
,
1000
0100
0100
0100
,
0100
0010
0010
0010
,
0010
1001
0000
1000
,
1000
0001
0001
0001
,
0001
0010
0010
0010
,
1001
0010
0010
0010
,
0010
1001
1000
0001
,
1000
1001
0001
1000
,
0001
0110
0010
0100
,
0010
1001
0001
1000
,
0001
0010
0100
1000
,
0100
0010
1001
0010
,
1001
0010
0100
0010
,
0100
1001
0001
1000
,
0001
0010
0010
0010
,
0010
1001
0001
1000
,
0001
0010
0100
0010
,
0100
1001
1000
0001
,
1000
0010
0100
0010
,
0100
1000
0100
0010
,
0001
0010
0100
1001
,
1001
1000
0100
0010
,
0001
0010
0100
1001
,
1001
1000
0001
1000
,
0001
0010
0100
0010
,
0100
1000
0100
1000
,
0100
1001
0000
1001
,
0000
1000
0100
0010
,
0001
0010
0001
0010
,
0001
1000
0100
1000
,
0100
0110
0110
0110
,
0110
1000
0001
1000
,
0001
0010
0100
0010
,
0100
1000
0001
1000
,
0001
1000
0100
0010
,
0001
1000
1000
1000
,
1000
0001
0001
0001
,
0001
0010
0010
0010
,
0010
1000
0001
1000
,
0001
0010
0010
0010
,
0010
0100
0100
0100
,
0100
1000
0100
0010
,
0001
0010
0100
1000
,
0100
0101
0000
0110
,
0000
1001
0000
0110
,
0000
1001
0000
0110
,
1000
1000
1000
1000
,
0101
1001
0000
1010
,
0000
1001
0000
0110
,
0000
1001
0000
1001
,
0000
1000
0100
1000
,
0100
1001
1000
0001
,
1000
0110
0010
0100
,
0010
1001
0001
1000
,
0001
1000
0100
0010
,
0001
1001
1000
0001
,
1000
0110
1000
0001
,
1000
0011
1100
0011
,
1100
1001
0110
1001
,
0110
2002
3003
0000
;

//---------------dance-single - ----------------
#NOTES:
     dance-single:
     :
     Beginner:
     2:
     0.098718,0.125405,0.008326,0.000000,0.000000,82.000000,1.000000,0.000000,0.000000,0.000000,0.000000,0.098718,0.125405,0.008326,0.000000,0.000000,82.000000,1.000000,0.000000,0.000000,0.000000,0.000000:
// measure 0
0000
0001
0000
0000
,  // measure 1
0000
1000
0000
0000
,  // measure 2
0000
0001
0000
0000
,  // measure 3
0000
1000
0000
0000
,  // measure 4
0000
0010
0000
0000
,  // measure 5
0000
1000
0000
0000
,  // measure 6
0000
0001
0000
0000
,  // measure 7
0000
1000
0000
0001
,  // measure 8
0000
0100
0000
0000
,  // measure 9
0000
0000
0000
0010
,  // measure 10
0000
1000
0000
1000
,  // measure 11
0000
0010
0000
1000
,  // measure 12
0000
0000
0010
0000
,  // measure 13
0000
0000
0010
0000
,  // measure 14
0000
0010
0000
0000
,  // measure 15
0000
0010
0000
0000
,  // measure 16
0000
0000
1000
0000
,  // measure 17
0000
0000
0100
0000
,  // measure 18
0010
0000
0000
0000
,  // measure 19
1000
0000
0000
0010
,  // measure 20
0000
1000
0000
0001
,  // measure 21
0000
0000
0100
0000
,  // measure 22
0000
0100
0000
0001
,  // measure 23
0000
0000
0100
0000
,  // measure 24
0000
1000
0000
1000
,  // measure 25
0000
0010
0000
0010
,  // measure 26
0000
0000
0000
0010
,  // measure 27
0000
0010
0000
0000
,  // measure 28
0000
1000
0000
0100
,  // measure 29
0000
0100
0000
0100
,  // measure 30
0000
1000
0000
1000
,  // measure 31
0000
0100
0000
0000
,  // measure 32
0000
0000
0000
1000
,  // measure 33
0000
0000
0000
0010
,  // measure 34
0000
0000
0000
0001
,  // measure 35
0000
1000
0000
0000
,  // measure 36
0001
0100
0000
0000
,  // measure 37
0000
0010
0000
0000
,  // measure 38
0000
0100
0000
0000
,  // measure 39
0000
0010
0000
0010
,  // measure 40
0000
0001
0000
0000
,  // measure 41
0000
1000
0000
0000
,  // measure 42
0000
0001
0000
0000
,  // measure 43
0000
0010
0000
0000
,  // measure 44
0100
0000
0000
0010
,  // measure 45
0000
1000
0000
0000
,  // measure 46
0000
1000
0000
0000
,  // measure 47
0010
0000
0000
1000
,  // measure 48
0000
0000
0000
0001
,  // measure 49
0000
0000
0000
1000
,  // measure 50
0000
0001
0000
0000
,  // measure 51
0000
1000
0000
0000
,  // measure 52
0000
1001
0000
0001
,  // measure 53
0000
1000
0000
0001
,  // measure 54
0000
1000
0000
1000
,  // measure 55
0000
1000
0000
0000
,  // measure 56
0001
0000
0100
0000
,  // measure 57
0000
0000
0010
0000
,  // measure 58
1000
0000
0010
0000
,  // measure 59
0000
0000
0000
0010
,  // measure 60
0010
0010
0000
0000
;

//---------------dance-single - ----------------
#NOTES:
     dance-single:
     :
     Challenge:
     8:
     0.588741,0.554071,0.407956,0.208141,0.362165,421.000000,49.000000,25.000000,0.000000,0.000000,0.000000,0.588741,0.554071,0.407956,0.208141,0.362165,421.000000,49.000000,25.000000,0.000000,0.000000,0.000000:
0000
0000
0100
0010
0100
0000
1000
0001
,
1000
0000
0100
0010
0100
0000
1001
0000
,
1001
0000
0010
0100
0010
0000
0110
0000
,
0110
0000
2002
0000
0000
3003
1000
0001
,
1000
0000
0000
0000
0001
0010
0001
0000
1000
0100
1000
0000
0110
0000
0000
0000
,
0110
0000
0000
0000
0010
0001
0010
0000
0010
0100
0010
0000
0010
0100
0010
0000
,
1001
0000
0000
0000
0010
0001
0010
0000
0010
0100
0010
0000
0010
0001
0010
0000
,
0010
0000
2001
0001
3200
0010
0320
0001
,
1030
0000
0000
0000
1000
0010
0100
0000
0001
0010
0001
0000
1000
0000
0000
0000
,
0001
0000
0010
0001
0010
0000
0100
0000
,
0010
0000
0000
0000
1000
0100
0010
0000
0001
0010
0100
0000
1000
0100
0010
0000
,
0001
0001
0010
0010
1000
1000
0010
0010
,
0001
0000
0000
0000
0010
0100
0000
0000
1001
0000
0000
0000
0100
0010
0000
0000
,
1001
0000
0020
0031
0200
0310
0020
0130
,
0200
0000
0300
0000
1000
0100
0000
0000
1001
0000
0000
0000
0010
0100
0000
0000
,
1001
1020
0001
1000
,
0031
0000
0000
0000
1000
0100
0000
0000
1000
0010
0000
0000
1000
0001
0000
0000
,
1001
0000
0010
0001
0010
0100
0010
0100
,
1001
0000
0000
0000
1000
0100
0000
0000
0010
0100
0000
0000
0001
0010
0000
0000
,
1001
0000
0000
0000
0010
0001
0010
0000
0010
0001
0010
0000
0010
0100
0010
0100
,
0010
0000
0000
0000
1000
0100
1000
0000
0010
0000
0000
0000
0010
0001
0010
0000
,
0010
0000
0000
0000
0010
0100
0010
0100
0010
0000
0000
0000
2002
0000
0000
0000
,
3003
0000
0000
0000
1000
0100
0010
0000
0010
0000
0000
0000
0010
0100
1000
0000
,
0001
0000
0000
0000
0010
0001
0010
0001
0010
0000
0000
0000
0220
0000
0000
0000
,
0330
0000
0000
0000
1000
0100
1000
0100
1000
0000
0000
0000
1000
0000
0010
0000
,
0001
0000
0000
0000
0010
0001
0010
0001
0010
0000
0000
0000
0010
0100
0010
0000
,
0100
0000
0000
0000
1000
0001
1000
0000
0001
0000
0000
0000
1000
0010
1000
0000
,
0000
2002
0000
3003
,
0000
0000
0000
0000
1000
0100
0000
0000
0100
0010
0000
0000
0001
0010
0000
0000
,
0100
0010
0000
0000
1000
0100
0000
0000
0001
0010
0000
0000
0010
0001
0000
0000
,
0001
0010
0000
0000
1000
0100
0010
0000
0100
0010
0001
0000
1000
0000
0001
0000
,
0100
0000
0000
0000
0010
0100
0010
0000
0010
0100
0010
0000
0010
0001
0010
0000
,
0010
0100
0010
0000
1001
0000
0000
0000
0110
0000
0000
0000
1001
0000
0000
0000
,
0110
0000
0010
0001
0100
0000
0010
1000
,
0100
0000
0000
0000
1000
0100
0010
0000
0001
0010
0100
0000
1000
0000
0010
0000
,
0001
1001
0110
1001
,
0110
0000
0000
0000
0100
0010
0000
0000
0100
0001
0000
0000
0100
0010
0000
0000
,
0100
1000
0000
0000
0010
0001
0000
0000
0010
0100
0000
0000
0010
1000
0000
0000
,
0110
0000
0000
0000
0100
0010
0000
0000
0100
0001
0000
0000
0100
0010
0000
0000
,
0110
0000
0000
0000
1000
0100
1000
0000
1001
0000
0000
0000
0100
0010
0100
0000
,
0110
1020
0001
1000
,
0031
0210
0001
1000
,
0301
2000
0100
0010
,
3001
0012
0100
1000
,
0103
0000
0000
0000
0100
0010
0100
0000
1001
0000
0000
0000
0100
0010
0100
0000
,
0110
0000
0000
0000
1000
0001
1000
0000
1001
0000
0000
0000
0100
0010
0100
0000
,
0110
0000
0000
0000
1000
0100
1000
0000
1001
0000
0000
0000
0110
0000
0000
0000
,
1000
0000
1000
0001
1000
0001
1000
0000
,
1001
0000
0000
0000
0001
0010
0001
0000
1001
0000
0000
0000
0100
0010
0100
0000
,
0110
0000
0000
0000
0001
0010
0001
0000
1001
0000
0000
0000
1000
0100
1000
0000
,
1001
0000
0000
0000
0100
0010
0100
0000
1001
0000
0000
0000
0100
1000
0100
0000
,
1001
0000
0000
0000
0100
0000
0010
0000
0100
0000
0010
0000
0100
0010
0100
0010
,
0100
0000
1000
0100
0001
0010
1000
0100
,
0001
0010
0001
0100
1000
0010
0001
0100
,
1000
0010
0001
0010
0001
0010
0001
0010
,
1000
2000
3200
0320
,
0031
0000
1000
0100
0001
0010
0001
0100
,
1000
0010
0100
0010
0100
0000
0001
1000
,
0001
0000
0001
0010
0100
1000
1000
0100
,
0010
0000
0001
0000
0001
0010
0001
0010
0001
0000
0000
0000
1000
0100
1000
0100
,
1000
2002
3003
0000
;
