#TITLE:Promenade;
#SUBTITLE:;
#ARTIST:Casiopea;
#TITLETRANSLIT:;
#SUBTITLETRANSLIT:;
#ARTISTTRANSLIT:;
#GENRE:;
#CREDIT:vincentw;
#BANNER:[Qualifier Singles] - Promenade.png;
#BACKGROUND:[Qualifier Singles] - Promenade-bg.png;
#LYRICSPATH:;
#CDTITLE:cdtitle.png;
#MUSIC:[Qualifier Singles] - Promenade.ogg;
#OFFSET:0.015000;
#SAMPLESTART:105.969826;
#SAMPLELENGTH:15.997337;
#SELECTABLE:YES;
#BPMS:0.000000=120.019997
;
#STOPS:
;
#BGCHANGES:0.000=[Qualifier Singles] - Promenade-bg.png=1.000=0=0=1=====,
99999=-nosongbg-=1.000=0=0=0 // don't automatically add -songbackground-
;
#KEYSOUNDS:;
#ATTACKS:;

//---------------dance-single - ----------------
#NOTES:
     dance-single:
     vincentw-BEG:
     Beginner:
     1:
     0.104017,0.098217,0.008001,0.032005,0.000000,86.000000,1.000000,4.000000,0.000000,0.000000,0.000000,0.104017,0.098217,0.008001,0.032005,0.000000,86.000000,1.000000,4.000000,0.000000,0.000000,0.000000:
0000
0000
0000
0000
,
0000
0000
0000
0000
,
0000
0000
0000
0000
,
0000
0000
0000
0000
,
0000
0000
0000
0000
,
1000
0000
0000
0000
,
0001
0000
0000
0000
,
0100
0000
0000
0000
,
0010
0000
0000
0000
,
0110
0000
0000
0000
,
0000
0000
0000
0010
,
0010
0000
0000
0000
,
0100
0000
0100
0000
,
0001
0000
0000
0000
,
0001
0000
0000
0000
,
0010
0000
0000
0000
,
0010
0000
0000
0000
,
0100
0000
0000
0000
,
0100
0000
0000
0000
,
1000
0000
0000
0000
,
1000
0000
0000
0000
,
0010
0000
0010
0000
,
1000
0000
1000
0000
,
0001
0000
0001
0000
,
0100
0000
0100
0000
,
0001
0000
0001
0000
,
0010
0000
0010
0000
,
0100
0000
0100
0000
,
1000
0000
1000
0000
,
0100
0000
0100
0000
,
0010
0000
0001
0000
,
0010
0000
0010
0000
,
0100
0000
1000
0000
,
0010
0000
0010
0000
,
0100
0000
0001
0000
,
0100
0000
0100
0000
,
0001
0000
0010
0000
,
0001
0000
1000
0000
,
0001
0000
1000
0000
,
0010
0000
0100
0000
,
0010
0000
0100
0000
,
0001
0000
0000
0000
,
0100
0000
0010
0000
,
1000
0000
0000
0000
,
0100
0000
0000
0000
,
1000
0000
0000
0000
,
0100
0000
0000
0000
,
0010
0000
0000
0000
,
0001
0000
0000
0000
,
0100
0000
0000
0000
,
0010
0000
0000
0000
,
1000
0000
0001
0000
,
2000
0000
0000
0000
0000
0000
0000
0000
0000
0000
0000
3000
0000
0000
0000
0000
,
1000
0000
0000
0010
,
0010
0000
0000
0100
,
0100
0000
0100
0000
,
0002
0000
0000
0000
0000
0000
0000
0000
0000
0000
0000
0003
0000
0000
0000
0000
,
0001
0000
0000
0010
,
0010
0000
0000
0100
,
0100
0000
0100
0000
,
2000
0000
0000
0000
0000
0000
0000
0000
0000
0000
0000
0000
0000
3000
0000
0000
,
0002
0000
0000
0003
0000
0000
0000
0000
;

//---------------dance-single - ----------------
#NOTES:
     dance-single:
     vincentw-BAS:
     Easy:
     3:
     0.212607,0.196433,0.032005,0.064011,0.024004,174.000000,4.000000,8.000000,0.000000,0.000000,0.000000,0.212607,0.196433,0.032005,0.064011,0.024004,174.000000,4.000000,8.000000,0.000000,0.000000,0.000000:
0000
0000
0000
0000
,
0000
0000
0000
0000
,
0000
0000
0000
0000
,
0000
0000
0000
0000
,
0000
0000
0000
0000
,
0001
0000
0001
0000
,
1000
0000
1000
0000
,
0010
0000
0100
0000
,
0010
0000
0100
0000
,
0110
0000
0010
0010
,
0010
0000
1000
1000
,
1000
0000
0001
0001
,
0001
0000
0100
0100
,
0100
0001
0000
0001
,
0010
0100
0000
0100
,
1000
0010
0000
0010
,
0100
0001
0000
0001
,
1000
0100
0000
0100
,
0010
0001
0000
0001
,
0100
0010
0000
0010
,
1000
0001
0000
0001
,
1001
1000
0000
1000
,
0000
0001
0000
0001
,
0000
0000
0000
0000
0100
0000
0000
0000
0000
0000
0000
0010
0000
0000
0000
0000
,
0010
0000
1000
0000
,
0100
1000
0100
0000
,
0010
0001
0010
0000
,
0001
0100
0001
0000
,
1000
0010
1000
0000
,
0001
0001
1000
1000
,
0001
1000
0001
0000
,
0010
0100
0010
0010
,
0100
0010
0100
0100
,
0000
1000
1000
0010
,
0000
0100
0100
0001
,
0000
0010
0010
0100
,
0100
1000
1000
0000
,
0001
0100
0010
1000
,
0001
0100
0010
1000
,
0001
0010
0100
1000
,
0100
0010
0001
1000
,
1001
0000
0001
0001
,
0200
0000
0320
1000
,
2030
0000
0000
3000
,
0020
0000
0000
0030
0000
0000
0000
0200
0000
0000
0000
0000
0000
0300
0000
0000
,
0001
0001
0001
0000
,
1000
1000
1000
0000
,
0010
0010
0100
0100
,
0200
0000
0320
0000
,
1030
0100
0010
0000
,
0001
0100
0010
0000
,
1000
0001
0010
0000
,
0001
1000
0010
1000
,
0001
1000
0100
0100
,
1000
0001
0100
0100
,
0001
0010
0100
1000
,
0010
0100
0001
0000
,
1000
0010
0100
0010
,
1000
0001
0100
0000
,
0001
1000
0010
1000
,
0002
0000
0000
1000
0000
0000
0000
1000
0000
0000
0000
1000
0000
0003
0000
0000
,
0000
0000
0000
0001
0000
0000
1001
0000
0000
0000
0000
0000
0000
0000
0000
0000
;

//---------------dance-single - ----------------
#NOTES:
     dance-single:
     vincentw-DIF:
     Medium:
     6:
     0.350916,0.343758,0.048008,0.008001,0.476080,300.000000,6.000000,1.000000,0.000000,0.000000,0.000000,0.350916,0.343758,0.048008,0.008001,0.476080,300.000000,6.000000,1.000000,0.000000,0.000000,0.000000:
0000
0000
0000
0000
,
0000
0000
0000
0000
,
0000
0000
0000
0000
,
0000
0000
0000
0000
,
0000
0000
0000
0000
,
1000
0000
0000
0000
0000
0001
0000
0001
0000
0000
0000
0000
0000
0000
0000
0000
,
0100
0000
0000
0000
0000
0010
0000
0010
0000
0000
0000
0000
0000
0000
0000
0000
,
1000
0000
0000
0000
0000
0100
0000
0100
0000
0000
0000
0000
0000
0000
0000
0000
,
0020
0000
0000
0001
0000
0000
0000
0001
0000
0000
0000
0001
0000
0031
0000
0000
,
0011
0000
0010
0000
0100
0000
0010
0100
,
1000
0000
0001
0000
1000
0000
0001
0100
,
0010
0000
1000
0000
0010
0000
1000
0010
,
0100
0000
0001
0000
0100
0000
0010
1000
,
0100
0000
1000
0000
0000
0100
1000
0000
,
0001
0000
0100
0000
0000
0001
0100
0000
,
0010
0000
1000
0000
0000
0010
1000
0000
,
0001
0000
0010
0000
0000
0001
0010
0000
,
0100
0000
1000
0000
0000
0100
0000
0001
0000
0000
0000
0000
0100
0000
1000
0000
,
0010
0000
1000
0000
0000
0010
0000
0001
0000
0000
0010
0000
1000
0000
0000
0000
,
0001
0000
0010
0000
0000
0001
0000
0001
0000
0000
0000
0000
0100
0000
0010
0000
,
1000
0000
0100
0000
0000
1000
0000
1000
0000
0000
0010
0000
0100
0000
0001
0000
,
0010
0000
0100
0000
0010
0100
0010
0000
,
0001
0000
0100
0000
1000
0100
0001
0000
,
1000
0000
0000
0100
0000
0000
0000
0000
0100
0000
0000
0010
0000
0000
0100
0000
,
0010
0000
0001
1000
0010
0100
0001
0000
,
0010
0000
0000
1000
0000
0010
0000
0001
0000
0000
0000
0000
1000
0000
0000
0000
,
0100
0000
0000
0001
0000
0100
0000
1000
0000
0000
0000
0000
0001
0000
0100
0000
,
0010
0000
0000
1000
0000
0010
0000
0100
0000
0000
0000
0000
0010
0000
1000
0000
,
0001
0000
0100
0000
1000
0000
0000
1000
0000
0100
0000
0001
0000
0000
0000
0000
,
1000
0000
0000
0000
0100
0000
0000
1000
0000
0100
0000
1000
0000
0000
0000
0000
,
0001
0000
0000
0010
0000
0001
0000
0010
0000
0000
0000
0000
0010
0000
0000
0000
,
0100
0000
0000
0100
1000
0000
0000
0000
0010
0000
0000
0010
0100
0000
0000
0000
,
0001
0000
0000
0010
0000
0100
0000
1000
0000
0000
0000
0000
0001
0000
0100
0000
,
0010
0000
0000
0000
1000
0000
0000
0001
0000
0000
1000
0001
0000
0000
0000
0000
,
0100
0000
0001
0000
0100
0000
0000
0001
0000
0000
0000
0000
0001
0000
0000
0000
,
1000
0010
0001
0000
0001
0010
1000
0000
,
0001
1000
0010
0100
0010
1000
0001
0000
,
1001
0000
0000
0000
1000
0000
0000
0100
0000
0000
0001
0000
0000
0100
0000
0100
,
0000
0000
0000
0000
1000
0000
0000
0010
0000
0000
0001
0000
0000
0010
0000
0000
,
1000
0000
0000
0100
0000
0000
0001
0000
0000
0100
0000
0000
1000
0000
0000
0010
,
0000
0000
0001
0000
0000
0100
0000
0000
1000
0000
0000
0000
0100
0000
1000
0000
,
0001
0000
0000
0000
1000
0000
0000
0010
0000
0000
0010
0000
1000
0000
0000
0000
,
0010
0000
0000
0000
0100
0000
0000
0000
0010
0000
0000
1000
0000
0000
0001
0000
,
0100
0000
0000
0001
0000
0000
0000
0000
1000
0000
0000
0000
0100
0000
1000
0000
,
0000
0001
0000
0001
0000
0000
0000
1000
0000
0100
0000
0010
0000
0001
0000
0000
,
1001
0000
0000
0000
0001
0000
0000
0000
0000
0010
0000
0000
0010
0000
0000
0000
,
0100
0000
0000
0000
1000
0000
0000
0000
0000
0010
0000
0000
0010
0000
0000
0000
,
1000
0000
0000
0000
0001
0000
0000
0000
0000
0100
0000
0000
0100
0000
0000
0000
,
0001
0000
0000
0000
1000
0000
0000
0000
0000
0100
0000
0100
0000
0000
0000
0000
,
1000
0000
0001
0000
0000
0010
0000
0001
0000
1000
0000
0000
0001
0000
0000
0000
,
0100
0000
0010
0000
0000
1000
0000
0010
0000
1000
0000
0000
0001
0000
0010
0000
,
0100
0000
1000
0000
0000
0010
0000
0100
0000
0001
0000
0010
0000
0000
0000
0000
,
0100
0000
0000
1000
0000
0010
0000
0001
0000
0010
0000
1000
0000
0000
0000
0000
,
1010
0000
1000
0000
0000
0001
0000
0010
0000
0100
0000
0000
0100
0000
0000
0000
,
1000
0000
0001
0000
0000
1000
0000
0010
0000
0100
0000
0000
0100
0000
0000
0000
,
0001
0000
0010
0000
0000
0001
0000
0010
0000
1000
0000
0010
0000
0000
0000
0000
,
0001
0000
0000
0100
0000
0010
0000
0100
0000
0001
0000
0010
0000
0000
0000
0000
,
0011
0000
0000
0001
0000
1000
0000
0100
0000
0010
0000
0000
0010
0000
0000
0000
,
0001
0000
0000
1000
0000
0001
0000
0100
0000
0010
0000
0000
1000
0000
0010
0000
,
1000
0000
0000
0100
0000
1000
0000
0100
0000
0001
0000
0100
0000
0000
0100
0000
,
1000
0000
0000
0010
0000
0100
0000
0010
0000
1000
0000
0001
0000
1000
0000
0000
,
0000
0000
0000
0001
0000
0000
0101
0000
0000
0000
0000
0000
0000
0000
0000
0000
;

//---------------dance-single - ----------------
#NOTES:
     dance-single:
     vincentw-EXP:
     Hard:
     10:
     0.705261,0.662961,0.232039,0.168028,1.000000,567.000000,29.000000,21.000000,0.000000,0.000000,0.000000,0.705261,0.662961,0.232039,0.168028,1.000000,567.000000,29.000000,21.000000,0.000000,0.000000,0.000000:
// measure 0
0000
0000
0000
0000
,  // measure 1
0000
0000
0000
0000
,  // measure 2
0000
0000
0000
0000
,  // measure 3
0000
0000
0000
0000
,  // measure 4
0000
0000
0000
0000
,  // measure 5
1000
0000
0001
0010
0000
0100
0000
1000
0000
0001
0000
0100
0001
0000
0001
0000
,  // measure 6
0100
0000
0010
1000
0000
0001
0000
0010
0000
0001
0000
0000
1000
0010
1000
0010
,  // measure 7
0100
0000
0001
1000
0000
0010
0000
1000
0000
0001
0000
0010
0000
0000
0001
0000
,  // measure 8
1000
0000
1000
0100
0000
0010
0000
0001
0000
1000
0000
0010
1000
0100
0000
0000
,  // measure 9
1100
0000
0100
1000
0000
0010
0000
0100
0000
0010
0000
0001
1000
0000
0100
0000
,  // measure 10
0010
0000
1000
0100
0000
0001
0000
0100
0000
0110
0000
0010
0001
0000
1000
0001
,  // measure 11
0000
1001
0000
1000
0000
0010
0000
1010
0000
1000
0000
0100
0001
0000
0100
1000
,  // measure 12
0100
0000
0010
0100
0000
0001
0100
0000
1000
0010
0100
0001
1000
0100
0010
0001
,  // measure 13
1000
0000
0010
0100
0000
0001
0000
0010
0000
0000
0200
0000
0310
0001
1000
0100
,  // measure 14
1000
0000
1000
0000
0001
0000
0100
0000
0000
0000
0010
0000
0000
0000
1000
0000
0000
0000
0000
0000
0001
0000
0000
0000
0010
0000
0000
0000
0100
0010
0100
0000
,  // measure 15
0010
0000
0001
1000
0000
0010
0000
1000
0000
0001
0020
0000
1030
0010
0001
0100
,  // measure 16
1000
1000
0100
0010
0000
1000
0000
0001
0000
0100
0002
0000
1003
0001
0010
0100
,  // measure 17
0001
0000
0100
0010
0000
0001
0000
2000
0000
0000
0000
3001
0100
1000
0100
0000
,  // measure 18
0010
0000
0000
0000
0000
0000
0000
0000
0000
0000
0000
0000
0010
0000
0000
0000
0000
0000
0000
0000
0000
0000
0000
0000
1000
0000
0000
0000
0000
0000
0000
0000
0000
0000
0000
0000
0100
0000
0000
0000
0000
0000
0000
0000
0000
0000
0000
0000
0000
0000
0000
0000
0000
0000
0000
0000
0000
0000
0000
0000
0010
0000
0000
0000
0000
0000
0000
0000
0000
0000
0000
0000
0000
0000
0000
0000
0000
0000
0000
0000
0000
0000
0000
0000
2000
0000
0000
0000
0000
0000
0000
0000
0000
0000
0000
0000
0000
0000
0000
0000
0000
0000
0000
0000
0000
0000
0000
0000
0000
0000
0000
0000
0000
0000
0000
0000
0000
0000
0000
0000
3020
0000
0000
0000
0000
0000
0000
0000
0000
0000
0000
0000
0000
0000
0000
0000
0000
0000
0000
0000
0000
0000
0000
0000
0031
0000
0000
0000
0000
0000
0000
0000
0000
0000
0000
0000
0000
0000
0000
0000
0000
0000
0000
0000
0000
0000
0000
0000
0010
0000
0000
0000
0000
0000
0000
0001
0000
0000
0000
0000
0000
0000
0010
0000
0000
0000
0000
0000
0000
0001
0000
0000
,  // measure 19
0000
0000
1000
0001
0000
0100
0000
0001
0000
1000
0100
0000
0001
0100
1000
0010
,  // measure 20
0001
0001
0010
0100
0000
0110
0000
2001
3000
0002
1003
0000
0001
1000
0100
0010
,  // measure 21
0100
1000
0000
1000
0000
0001
0100
0001
0000
0001
0010
0000
0010
0100
1000
0000
,  // measure 22
0100
0000
0000
0010
0100
0000
0000
0010
0001
0000
0000
0000
0010
0000
0100
0000
0000
0000
0001
0000
1000
0000
0010
0000
0100
0000
1000
0000
0010
0000
0000
0000
,  // measure 23
0100
0001
0000
0100
0000
0010
1000
0100
1000
0000
0001
0010
0000
0100
0010
0000
,  // measure 24
0100
0000
0100
1000
0000
0001
0000
0010
0000
0001
1000
0000
0020
0000
0130
0000
,  // measure 25
0110
0000
0010
1000
0000
0001
0000
1000
0000
0100
0000
0001
0000
0100
0001
1000
,  // measure 26
0010
0010
0001
0010
0000
0100
0000
0010
0000
0001
0100
0010
1000
0000
0010
0100
,  // measure 27
0010
0000
0001
0010
0000
1000
0000
0010
0000
1000
0000
0001
0010
0100
0001
1000
,  // measure 28
0001
0100
0010
0001
1000
0100
1000
0001
0000
0100
0000
0010
0000
0010
0100
0001
,  // measure 29
0000
0010
0100
1000
0000
0001
0100
1000
0000
0001
0010
1000
0000
0001
0100
0010
,  // measure 30
1000
0000
0001
0010
0000
0001
0000
0100
0000
0100
0000
0100
0000
0001
1000
0010
,  // measure 31
0100
0000
0010
0100
0001
0000
1000
0001
0010
0000
0100
0010
1000
0000
0001
1000
,  // measure 32
0010
0001
0000
1000
0001
0100
0000
1000
0000
0100
0001
0010
1000
0010
0001
0100
,  // measure 33
0000
0010
1000
0100
0001
0100
1000
0010
0000
0100
0001
0010
0000
0011
0000
1100
,  // measure 34
0000
1000
0100
1000
0010
0000
0100
1000
0000
1100
0000
0101
0000
0001
1000
0100
,  // measure 35
0010
0001
0000
0100
0000
0010
0000
0100
0000
0001
0010
0100
1000
0010
0000
0100
,  // measure 36
0000
0001
1000
0100
0010
0001
1000
0010
0000
0010
1000
0100
0000
0010
0001
0100
,  // measure 37
0000
0010
0000
0100
0010
0000
0100
0010
0000
0100
0010
0000
0100
0010
0000
1000
,  // measure 38
0000
0010
0000
1000
0010
0000
1000
0010
0000
1000
0010
0000
1000
0010
0000
1000
,  // measure 39
0100
0100
0000
1000
1000
0000
0010
0010
0000
0001
0001
0000
1000
1000
0000
0100
,  // measure 40
0100
0000
0001
0001
0000
0010
0000
0000
0011
0000
0001
0000
0100
0001
1000
0010
,  // measure 41
1000
0000
0000
0000
0100
0000
0000
0000
0000
0000
0000
0000
0100
0000
0000
0000
0000
0000
0000
0000
2000
0000
0000
0000
0000
0000
0000
0000
3002
0000
0000
0000
0000
0000
0000
0000
0000
0000
0000
0000
1003
0000
0000
0000
0000
0000
0000
0000
1000
0000
0000
0000
0000
0000
0000
0010
0000
0000
1000
0000
0000
0010
0000
0000
,  // measure 42
1000
0000
0000
0000
0000
0000
0001
0000
0000
0000
0000
0000
0010
0000
0000
0100
0000
0000
0000
0000
0010
0000
0100
0000
0010
0000
0000
0000
0000
0000
0000
0000
0000
0001
0000
0000
1000
0000
0000
0000
0000
0000
0001
0000
0000
0000
0000
0000
,  // measure 43
0100
0010
0000
0010
0000
0100
0001
0010
1000
0010
0000
0010
0001
1000
0100
0000
,  // measure 44
1000
0010
0000
2020
0000
3030
0000
1001
0000
0110
0000
1100
0000
0011
0000
0000
,  // measure 45
0101
0000
0001
0100
0000
0001
0000
1000
0000
0100
0000
0000
0100
0000
0000
0000
,  // measure 46
1000
0000
0010
0100
0000
0010
0000
1000
0000
0001
0000
0000
0001
0000
0000
0000
,  // measure 47
0100
0000
0010
1000
0000
0001
0000
0010
0000
1000
0000
0020
0000
0000
0031
0000
,  // measure 48
2000
0000
0000
3100
0000
0010
0000
0001
0000
1000
0000
0010
0000
0000
0000
0000
,  // measure 49
0110
0000
0100
0001
0000
1000
0000
0100
0000
0010
0000
0000
0010
0000
0000
0000
,  // measure 50
0100
0000
1000
0010
0000
0100
0000
0001
0000
0010
0000
0000
0100
0000
1000
0000
,  // measure 51
0100
0000
1000
0010
0000
0100
0000
0001
0000
0010
0000
0001
0000
0000
1000
0000
,  // measure 52
0200
0000
0000
2300
0000
3020
0000
0230
0000
0301
0010
0100
0000
0001
0100
0000
,  // measure 53
0101
0000
0001
0100
0000
0010
0000
0100
0000
1000
0000
0000
1100
0000
0100
0000
,  // measure 54
1000
0000
0010
1000
0000
0001
0010
0100
0000
0001
0100
1000
0010
0000
1000
0000
,  // measure 55
0001
0000
0100
1000
0000
0001
0000
0010
0000
1000
0000
0002
0000
0000
0103
0000
,  // measure 56
0010
0000
0010
1000
0000
0100
0010
0001
0000
0100
0010
0000
1000
0010
0100
0000
,  // measure 57
0110
0000
0010
0100
0000
1000
0000
0001
0000
0010
0000
1000
0010
0000
1000
0000
,  // measure 58
0001
0000
0010
0100
0000
0001
0000
1000
0000
0010
0000
0001
0100
0010
0100
0001
,  // measure 59
1000
0000
0001
0100
0000
0010
0000
0001
0000
1000
0000
0002
0000
0000
0013
0000
,  // measure 60
0100
0000
0000
0110
0000
1001
0000
1100
0000
1010
0000
0101
0000
0011
0000
0000
,  // measure 61
0001
0100
0001
0000
0100
0000
0010
0000
0000
0000
0000
0000
0110
0000
0000
0000
0000
0000
0000
0000
0000
0000
0000
0000
0000
0000
0000
0000
0000
0000
0000
0000
;
