#TITLE:ONE;
#SUBTITLE:;
#ARTIST:SKY FERREIRA;
#TITLETRANSLIT:;
#SUBTITLETRANSLIT:;
#ARTISTTRANSLIT:;
#GENRE:;
#CREDIT:;
#BANNER:[Qualifier Singles] - ONE.png;
#BACKGROUND:[Qualifier Singles] - ONE-bg.png;
#LYRICSPATH:;
#CDTITLE:cdtitle.png;
#MUSIC:ONE.mp3;
#OFFSET:-0.994000;
#SAMPLESTART:35.468155;
#SAMPLELENGTH:13.000000;
#SELECTABLE:YES;
#DISPLAYBPM:125.000000;
#BPMS:0.000000=125
;
#STOPS:
;
#BGCHANGES:;
#KEYSOUNDS:;
#ATTACKS:;

//---------------dance-single - ----------------
#NOTES:
     dance-single:
     :
     Challenge:
     7:
     0.323193,0.360375,0.060062,0.120125,0.000000,208.000000,6.000000,12.000000,0.000000,0.000000,0.000000,0.323193,0.360375,0.060062,0.120125,0.000000,208.000000,6.000000,12.000000,0.000000,0.000000,0.000000:
0000
0000
0000
0000
,
0000
0000
0000
0000
,
0000
0000
0000
0000
,
0000
0000
0100
0100
,
0001
0001
0010
0100
1000
0010
0100
0010
,
1000
0100
0010
0000
0000
0000
0000
0000
,
0001
0001
1000
0001
1000
1000
0010
1000
,
0010
0100
0001
0000
0001
0000
0001
0000
,
0001
0001
0001
0001
,
0001
0000
0001
0000
1000
1000
0100
0000
,
0010
0010
0001
0000
0100
0100
0010
0010
,
0100
0010
0100
0010
1000
1000
0100
1000
,
0001
0001
0100
0001
0010
0100
1000
0000
,
1000
1000
1000
1000
,
1000
1000
1000
1000
,
1000
1000
1000
1000
,
1000
1000
1000
1000
,
1000
0100
0010
0001
,
1100
0000
0000
1001
0000
0000
0100
0001
,
0000
0010
0100
0000
1000
1000
0001
0001
,
0100
0000
0001
0010
0100
0010
0100
1000
,
0100
0010
0100
0000
0100
0000
0100
0000
,
0100
0100
0100
0100
,
0100
0100
0100
0100
,
1010
0000
0000
1001
0000
0000
0101
0101
,
0000
0001
0010
1000
0010
0001
0100
0100
,
0010
1000
0100
0100
1000
1000
0001
0100
,
0001
1000
0010
0000
0010
0000
0010
0000
,
0010
0010
0010
0010
,
0000
1000
0010
0100
0001
0100
0010
1000
,
0001
0001
0001
0001
,
0001
0001
0001
0001
,
0001
0001
0001
0001
,
0001
0001
0001
0001
,
0001
0001
0001
0001
,
0001
0001
0001
0001
,
0001
0001
0001
0001
,
0001
0001
0001
0001
,
0001
0001
0001
0001
,
0001
0001
0001
0001
,
0001
0001
0001
0001
,
0001
0001
0001
0001
,
1000
0000
0000
0010
0000
0000
1000
0010
,
0000
0000
0000
0000
0000
0100
0001
0000
,
2000
3020
0230
0000
,
0302
0000
0023
0000
,
0230
2300
0000
3002
,
2003
3200
0320
0032
,
0003
0000
0000
0000
;

//---------------dance-single - ----------------
#NOTES:
     dance-single:
     :
     Hard:
     8:
     0.424727,0.383399,0.060062,0.000000,0.000000,291.000000,6.000000,0.000000,0.000000,0.000000,0.000000,0.424727,0.383399,0.060062,0.000000,0.000000,291.000000,6.000000,0.000000,0.000000,0.000000,0.000000:
0000
0000
0000
0000
,
0000
0000
0000
0000
,
0000
0000
0000
0000
,
0000
0000
0001
0001
,
1000
0100
1000
0100
1000
0001
1000
0001
,
0100
0010
1000
0010
1000
0010
1000
0000
,
0001
0010
0001
0010
0100
0010
0100
0010
,
0001
0010
0100
1000
0100
1000
0100
1000
,
0100
1000
0100
1000
0100
0010
0100
0010
,
0100
1000
0100
1000
0001
0001
0000
0000
,
1000
1000
0000
0000
0100
0100
0010
0001
,
0010
0001
0010
0001
1000
1000
0000
0000
,
0010
0010
0000
0000
0100
0100
0001
1000
,
0001
0100
0001
0100
0001
0100
0001
0100
,
0001
0010
0001
0010
0001
1000
0001
1000
,
0001
0100
0001
0100
0001
0100
0001
0100
,
0001
0010
0001
0010
0001
1000
0001
1000
,
0001
0100
0010
1000
,
0101
0000
0000
1100
0000
0000
1001
0100
,
0000
0010
0001
0000
1000
0000
0010
0000
,
0100
0001
0010
0100
0010
0100
1000
0100
,
1000
0001
0010
0000
0010
0000
0010
0000
,
0010
0010
0010
0010
,
0010
0010
0010
0010
,
1100
0000
0000
1001
0000
0000
0101
0010
,
0000
1000
0100
1000
0010
0100
0001
0010
,
0100
0000
1000
0000
0001
0100
0001
0100
,
0010
0100
0010
0000
0010
0000
0010
0000
,
0010
0010
0010
0010
,
0000
1000
0100
1000
0001
0010
0100
1000
,
0001
0000
0001
0010
0001
0000
0001
0100
,
0001
0000
0001
1000
0001
1000
0001
0010
,
0001
0100
0001
0100
0001
0100
0001
0100
,
0001
1000
0001
1000
0001
1000
0001
1000
,
0001
0010
0001
0100
0001
0010
0001
0100
,
0001
0010
0001
0100
0001
0010
0001
0100
,
0001
0000
0001
1000
0001
0000
0001
0100
,
0001
0000
0001
0010
0001
0010
0001
1000
,
0001
0100
0001
0100
0001
0100
0001
0100
,
0001
0010
0001
0010
0001
0010
0001
0010
,
0001
0100
0001
0010
0001
0100
0001
0010
,
0001
0100
0001
0010
0001
0100
0001
0010
,
0001
0000
0000
0010
0000
0000
0100
1000
,
0000
0000
0000
0000
0000
0001
0100
0000
,
0001
0100
0001
0100
0001
0100
0010
1000
,
0100
1000
0100
1000
0001
0100
0001
0100
,
0010
1000
0100
1000
0100
1000
0001
0100
,
0010
0100
0010
1000
0001
1000
0001
0010
;

//---------------dance-single - ----------------
#NOTES:
     dance-single:
     :
     Medium:
     5:
     0.277431,0.310698,0.060062,0.030031,0.000000,185.000000,6.000000,3.000000,0.000000,0.000000,0.000000,0.277431,0.310698,0.060062,0.030031,0.000000,185.000000,6.000000,3.000000,0.000000,0.000000,0.000000:
0000
0000
0000
0000
,
0000
0000
0000
0000
,
0000
0000
0000
0000
,
0000
0000
0001
0001
,
1000
0100
1000
0000
0001
0100
0001
0000
,
1000
1001
0000
0000
,
0001
0010
0001
0000
1000
0010
1000
0000
,
0100
1000
0010
0000
0010
0000
0010
0000
,
0010
0010
0010
0010
,
0010
0000
0010
0000
1000
0010
1000
0000
,
0001
0010
0001
0000
1000
0001
1000
0000
,
1001
0000
1001
0000
0010
0001
0010
0000
,
0001
0010
0001
0000
1000
0100
1000
0000
,
1000
1000
1000
1000
,
1000
1000
1000
1000
,
1000
1000
1000
1000
,
1000
1000
1000
1000
,
1000
0100
0010
0001
,
2010
0000
0000
0000
3100
0000
1000
0100
,
1000
0010
1000
0001
,
0100
0001
0100
0000
0010
1000
0010
0000
,
1000
0001
0001
0001
,
0001
0001
0001
0001
,
0001
0001
0001
0001
,
0012
0000
0000
0000
0103
0000
0001
0100
,
0001
0010
0100
1000
,
0100
1000
0100
0000
0001
0010
0001
0000
,
1000
0010
0010
0010
,
0010
0010
0010
0010
,
2010
0000
3001
0000
,
1000
1000
1000
1000
,
1000
1000
1000
1000
,
1000
1000
1000
1000
,
1000
1000
1000
1000
,
1000
1000
1000
1000
,
1000
1000
1000
1000
,
1000
1000
1000
1000
,
1000
1000
1000
1000
,
1000
1000
1000
1000
,
1000
1000
1000
1000
,
1000
1000
1000
1000
,
1000
1000
1000
1000
,
0001
0000
0000
0100
0000
0000
0010
0000
,
0000
0000
0000
0010
,
1000
1000
0100
0100
,
1000
1000
1000
0010
,
0100
0001
0001
0010
,
0100
1000
0001
0100
;

//---------------dance-single - ----------------
#NOTES:
     dance-single:
     :
     Easy:
     3:
     0.234530,0.215099,0.020021,0.020021,0.000000,160.000000,2.000000,2.000000,0.000000,0.000000,0.000000,0.234530,0.215099,0.020021,0.020021,0.000000,160.000000,2.000000,2.000000,0.000000,0.000000,0.000000:
0000
0000
0000
0000
,
0000
0000
0000
0000
,
0000
0000
0000
0000
,
0000
0000
1000
1000
,
0001
0001
0010
0010
,
0001
0100
0000
0000
,
0010
0010
1000
1000
,
0010
1000
1000
1000
,
1000
1000
1000
1000
,
1000
1000
0000
0001
,
0001
0000
1000
0001
,
0001
0001
1000
0000
,
0100
0000
1000
1000
,
1000
1000
1000
1000
,
1000
1000
1000
1000
,
1000
1000
1000
1000
,
1000
1000
1000
1000
,
1000
0100
0010
0001
,
0012
0000
0103
0010
,
0010
0000
0000
0000
,
1000
0100
1000
1000
,
0001
0100
0100
0100
,
0100
0100
0100
0100
,
0100
0100
0100
0100
,
0102
0000
0013
0100
,
1000
1000
0100
0100
,
1000
0000
0001
0000
,
0100
0010
0010
0010
,
0010
0010
0010
0010
,
0000
1000
0100
1000
,
1000
1000
1000
1000
,
1000
1000
1000
1000
,
1000
1000
1000
1000
,
1000
1000
1000
1000
,
1000
1000
1000
1000
,
1000
1000
1000
1000
,
1000
1000
1000
1000
,
1000
1000
1000
1000
,
1000
1000
1000
1000
,
1000
1000
1000
1000
,
1000
1000
1000
1000
,
1000
1000
1000
1000
,
0010
0000
0001
0000
,
0100
0000
0100
0000
,
0001
0001
1000
1000
,
0001
0001
0001
1000
,
0001
0001
1000
1000
,
0001
1000
0001
0001
;

//---------------dance-single - ----------------
#NOTES:
     dance-single:
     :
     Beginner:
     1:
     0.102964,0.143399,0.050052,0.000000,0.000000,67.000000,5.000000,0.000000,0.000000,0.000000,0.000000,0.102964,0.143399,0.050052,0.000000,0.000000,67.000000,5.000000,0.000000,0.000000,0.000000,0.000000:
// measure 0
0000
0000
0000
0000
,  // measure 1
0000
0000
0000
0000
,  // measure 2
0000
0000
0000
0000
,  // measure 3
0000
0000
0000
0000
,  // measure 4
0100
0000
0100
0000
,  // measure 5
0100
0000
0000
0000
,  // measure 6
0010
0000
0010
0000
,  // measure 7
0010
0010
0010
0000
,  // measure 8
0010
0000
0010
0000
,  // measure 9
0010
0000
0000
0000
,  // measure 10
0100
0000
1000
0000
,  // measure 11
0000
0000
0001
0000
,  // measure 12
1000
0000
0000
0001
,  // measure 13
0001
0001
0001
0001
,  // measure 14
0000
0001
0000
0001
,  // measure 15
0000
0001
0001
0001
,  // measure 16
0000
0001
0000
0001
,  // measure 17
0000
0000
0000
0000
,  // measure 18
1000
0000
0001
0000
,  // measure 19
1000
0000
0000
0000
,  // measure 20
0010
0000
0010
0000
,  // measure 21
0010
0010
0010
0000
,  // measure 22
0010
0000
0010
0000
,  // measure 23
0010
0000
0010
0000
,  // measure 24
0000
0000
1000
0000
,  // measure 25
0001
0000
0000
0000
,  // measure 26
1000
0000
1000
0000
,  // measure 27
1000
1000
1000
0000
,  // measure 28
1000
0000
1000
0000
,  // measure 29
0000
0000
0000
0000
,  // measure 30
1001
0000
0000
0000
,  // measure 31
0010
0000
0000
0000
,  // measure 32
0100
0000
0000
0000
,  // measure 33
0010
0000
0000
0000
,  // measure 34
1000
0000
0000
0000
,  // measure 35
0001
0000
0000
0000
,  // measure 36
1001
0000
0000
0000
,  // measure 37
1000
0000
0000
0000
,  // measure 38
0100
0000
0000
0000
,  // measure 39
0010
0000
0000
0000
,  // measure 40
0001
0000
0000
0000
,  // measure 41
0100
0000
0000
0000
,  // measure 42
1001
0000
0000
0000
,  // measure 43
0000
0000
0000
0000
,  // measure 44
0010
0000
0000
0000
,  // measure 45
0100
0000
0100
0000
,  // measure 46
0100
0000
0000
0000
,  // measure 47
1001
0000
0000
1001
;
