#TITLE:Music;
#SUBTITLE:;
#ARTIST:Madonna;
#TITLETRANSLIT:;
#SUBTITLETRANSLIT:;
#ARTISTTRANSLIT:;
#GENRE:;
#CREDIT:;
#BANNER:;
#BACKGROUND:;
#LYRICSPATH:;
#CDTITLE:;
#MUSIC:Music.ogg;
#OFFSET:-6.006779;
#SAMPLESTART:63.969604;
#SAMPLELENGTH:12.000000;
#SELECTABLE:YES;
#BPMS:0.000000=119.879997
,100.000000=59.939999
,108.000000=119.879997
;
#STOPS:
;
#BGCHANGES:;
#KEYSOUNDS:;
#ATTACKS:;

//---------------dance-single - ----------------
#NOTES:
     dance-single:
     :
     Beginner:
     1:
     0.099603,0.089426,0.007579,0.000000,0.000000,91.000000,1.000000,0.000000,0.000000,0.000000,0.000000,0.099603,0.089426,0.007579,0.000000,0.000000,91.000000,1.000000,0.000000,0.000000,0.000000,0.000000:
0000
0000
0000
0000
,
1000
0000
1000
0000
,
0001
0000
0001
0000
,
0100
0000
0100
0000
,
0010
0000
0010
0000
,
1000
0000
0000
0000
,
0000
0000
0100
0000
,
0010
0000
0000
0000
,
0000
0000
0001
0000
,
0100
0000
0000
0000
,
0000
0000
0010
0000
,
1000
0000
0000
0000
,
0000
0000
0001
0000
,
1000
0000
0000
0000
,
0001
0000
0000
0000
,
0100
0000
0000
0000
,
0010
0000
0000
0000
,
1000
0000
1000
0000
,
0100
0000
0100
0000
,
0010
0000
0010
0000
,
0001
0000
0000
0000
,
0100
0000
0100
0000
,
0010
0000
0010
0000
,
1000
0000
1000
0000
,
0001
0000
0000
0000
,
1000
0000
0001
0000
,
0100
0000
0010
0000
,
1000
0000
1000
0000
,
0100
0000
0100
0000
,
0010
0000
0000
0000
,
0010
0000
0000
0000
,
0001
0000
0001
0000
,
0100
0000
0100
0000
,
0010
0000
0000
0000
,
0010
0000
0000
0000
,
1000
0000
1000
0000
,
0001
0000
0001
0000
,
0100
0000
0100
0000
,
0010
0000
0010
0000
,
1000
0000
1000
0000
,
0100
0000
0100
0000
,
0010
0000
0010
0000
,
0001
0000
0001
0000
,
1000
0000
0000
0000
,
0010
0000
0000
0000
,
0100
0000
0000
0000
,
0001
0000
0000
0000
,
0010
0000
0000
0000
,
0100
0000
0000
0000
,
1000
0000
0000
0000
,
0001
0000
0000
0000
,
1000
0000
1000
0000
,
0001
0000
0001
0000
,
0100
0000
0100
0000
,
0010
0000
0010
0000
,
1000
0000
1000
0000
,
0100
0000
0100
0000
,
0010
0000
0010
0000
,
0001
0000
0001
0000
,
1001
0000
0000
0000
;

//---------------dance-single - ----------------
#NOTES:
     dance-single:
     :
     Easy:
     4:
     0.227355,0.223566,0.068207,0.090942,0.000000,189.000000,9.000000,12.000000,0.000000,0.000000,0.000000,0.227355,0.223566,0.068207,0.090942,0.000000,189.000000,9.000000,12.000000,0.000000,0.000000,0.000000:
0000
0000
0000
0000
,
1000
1000
1000
0000
,
0001
0001
0001
0000
,
0100
0100
0100
0000
,
0010
0010
0010
0000
,
1000
0100
1000
0000
,
0001
0000
0100
0100
,
0010
0100
0010
0000
,
0100
0000
0001
0001
,
0010
0001
0100
0000
,
0001
0000
1000
1000
,
0100
0010
0100
0000
,
1000
0000
1000
0000
,
0001
0001
1000
0000
,
1000
1000
0001
0000
,
0100
0100
0010
0000
,
0010
0010
0100
0000
,
0001
0010
0001
0010
,
0100
0100
1000
1000
,
0010
1000
0010
0000
,
0100
0000
0100
0000
,
0001
0001
1000
0000
,
0001
1000
0100
0010
,
0100
0100
1000
0000
,
0001
0001
1000
0000
,
0002
0000
2003
0000
,
3200
0000
0320
0000
,
0031
0001
1001
0000
,
1000
1000
1001
0000
,
0100
0100
1001
0000
,
0010
0010
1001
0000
,
1000
1000
1100
1000
,
0001
0001
0101
0001
,
0010
0010
0011
0010
,
0100
0100
1100
0000
,
1000
0010
2000
3000
,
0001
0100
0002
0003
,
1000
0100
2000
3000
,
0001
0010
0002
0003
,
0100
0010
0200
0300
,
0010
0100
0020
0030
,
1000
0001
2000
3000
,
0001
1000
0002
0003
,
1000
0100
1000
1000
,
0001
0100
0001
0001
,
1000
0010
1000
1000
,
0000
0001
0001
0001
,
0010
0001
0100
0000
,
0010
0010
0010
0010
,
1000
0100
1000
0000
,
0000
0001
0000
0001
0000
0001
0000
0000
,
1000
0100
1000
1000
,
0001
0100
0001
0001
,
1000
0010
1000
1000
,
0001
0010
0001
0001
,
1000
0100
0010
0010
,
0001
0100
0010
0010
,
0100
0001
0010
0010
,
0100
1000
0010
0010
,
1001
0000
0000
0000
;

//---------------dance-single - ----------------
#NOTES:
     dance-single:
     :
     Medium:
     6:
     0.328041,0.335349,0.151570,0.030314,0.000000,279.000000,20.000000,4.000000,0.000000,0.000000,0.000000,0.328041,0.335349,0.151570,0.030314,0.000000,279.000000,20.000000,4.000000,0.000000,0.000000,0.000000:
0000
0000
0000
0000
,
1000
0100
1000
0000
1000
0000
0000
0000
,
0001
0100
0001
0000
0001
0000
0000
0000
,
1000
0010
1000
0000
1000
0000
0000
0000
,
0001
0010
0000
0010
0001
0000
0000
0000
,
1000
0001
1000
0000
1000
0000
0000
0000
,
0001
1000
0001
0000
0001
0000
0000
0000
,
0100
0010
0100
0000
0100
0000
0000
0000
,
0010
0100
0000
0100
0010
0000
0000
0000
,
1000
0100
1000
0000
0001
0000
0000
0000
,
1000
0010
1000
0000
0001
0000
0000
0000
,
0001
0100
0001
0000
1000
0000
0000
0000
,
0001
0010
0000
0010
0001
0000
0000
0000
,
1000
0010
0100
0000
0101
0000
0000
0000
,
0001
0010
0100
0000
1100
0000
0000
0000
,
1000
0001
0100
0000
0101
0000
0000
0000
,
0001
1000
0000
1000
1100
0000
0000
0000
,
1000
0000
0001
0100
0010
0000
0010
0000
,
0100
0000
0001
0010
0100
1000
0100
0000
,
1000
0000
0001
0100
0010
0000
0010
0000
,
0000
0000
0100
0000
0100
0000
0100
0001
,
0010
0000
0100
0100
0000
0000
0000
1000
,
0001
0000
0001
0000
1000
0010
0100
0010
,
0100
0100
0001
0001
,
0010
0100
0100
0100
,
2000
0001
3001
0000
0002
1000
1003
0000
,
2000
0010
3010
0000
0020
0100
0130
0000
,
0001
0100
0010
0000
1001
0000
1000
0100
,
0010
0100
1000
0000
1001
0000
1000
0010
,
0100
0010
0100
0000
1001
0000
0001
0000
,
0010
0010
0100
0100
,
1100
0000
1001
0000
0001
0000
0100
0010
,
0100
0000
0101
0000
0011
0000
0001
0010
,
0100
0000
1001
0000
1000
1000
0010
0010
,
0000
0100
0000
0100
0000
0001
0010
0000
,
0100
1000
0010
0000
1001
0000
0000
0000
,
0100
0001
0010
0000
1001
0000
0000
0000
,
0010
1000
0100
0000
1001
0000
0000
0000
,
0010
0001
0000
0001
1001
0000
0000
0000
,
1000
0001
0100
0010
0100
0000
0000
0000
,
0001
0010
0100
1000
0100
0000
0000
0000
,
1000
0001
0100
0010
0100
0000
0000
0000
,
0001
0100
0010
1000
0001
0000
0000
0000
,
1000
0100
0010
0100
1000
0000
1000
0000
,
0001
0000
1000
0010
0100
0001
0010
0000
,
0100
0100
0010
0010
,
0000
0000
0001
0000
0001
0000
1000
0010
,
0100
0000
0001
0001
0000
0000
0000
1000
,
0100
0010
0100
1000
0001
0000
1000
0010
,
0100
0100
0001
0001
,
0000
1100
0000
1001
0000
0101
0000
0001
,
1000
0100
1000
0000
0001
0100
0001
0000
,
1000
0010
1000
0000
0001
0010
0001
0000
,
0100
0010
0100
0000
0001
1000
0001
0000
,
1000
0100
0010
0000
0001
0100
0010
0000
,
1000
1000
1000
0000
0100
0010
0001
0000
,
0100
0100
0100
0000
0010
0100
0001
0000
,
0010
0010
0010
0000
0100
1000
0001
0000
,
0010
0010
0010
0000
0001
0100
0010
0000
,
1001
0000
0000
0000
;

//---------------dance-single - ----------------
#NOTES:
     dance-single:
     :
     Hard:
     8:
     0.500182,0.435575,0.250091,0.106099,0.102310,415.000000,33.000000,14.000000,0.000000,0.000000,0.000000,0.500182,0.435575,0.250091,0.106099,0.102310,415.000000,33.000000,14.000000,0.000000,0.000000,0.000000:
// measure 0
0000
0000
0000
0000
,  // measure 1
1000
0100
1000
0001
1010
0000
1000
0100
,  // measure 2
0010
0001
0100
0010
0101
0000
0001
0010
,  // measure 3
0100
1000
0010
0100
1001
0000
1000
0100
,  // measure 4
0001
0000
0100
0000
1000
0001
0000
0000
1010
0000
0000
0000
0010
0000
0000
0000
,  // measure 5
0100
0001
0010
0100
1000
0001
1000
0000
,  // measure 6
0001
0001
1000
0000
0100
1000
0010
0100
,  // measure 7
0001
0010
0100
0001
0100
1000
0001
0000
,  // measure 8
0100
0100
0010
0000
0100
0001
0010
0100
,  // measure 9
1000
0010
0001
0010
1000
0001
1000
0000
,  // measure 10
0001
0001
0010
0000
0001
0100
0010
0100
,  // measure 11
0001
0010
0100
0001
0100
1000
0001
0000
,  // measure 12
1000
1000
0001
0000
1000
0010
0100
0001
,  // measure 13
0010
0100
1000
0001
1100
0000
0001
0100
,  // measure 14
0010
0100
0001
1000
0101
0000
0001
0010
,  // measure 15
0100
1000
0010
0100
1001
0000
1000
0100
,  // measure 16
0010
0000
0001
0000
0100
0010
0000
0000
0101
0000
0000
0000
0001
0000
0000
0000
,  // measure 17
1000
0000
0100
2000
0010
0000
3010
0000
,  // measure 18
0100
0000
0000
0001
0010
0000
0100
0000
0001
0000
0100
0000
1000
0000
0001
0000
,  // measure 19
0100
0000
0010
0100
0001
0000
0010
0100
,  // measure 20
0000
2000
0000
0000
0000
0001
0000
0000
3001
0000
1000
0000
0010
0000
0100
0000
,  // measure 21
0001
0000
0010
0100
1000
0000
0001
0100
,  // measure 22
1000
0100
0001
0010
0100
1000
0001
1000
,  // measure 23
0010
0000
0100
0000
0001
0000
0010
0100
,  // measure 24
0100
0000
1000
0000
0000
0001
0000
0000
0100
0000
0010
0000
0100
0000
0001
0010
,  // measure 25
0200
1000
0000
0000
2300
0000
0000
0000
3020
0100
0000
0000
0230
0000
0000
0000
,  // measure 26
0302
0000
0010
0000
0000
0000
0000
0000
0023
0000
0000
0000
0000
0000
0000
0000
0230
0000
0001
0000
0000
1000
0000
0000
2300
0000
0000
0000
0000
0000
0000
0000
,  // measure 27
3001
1000
0010
0100
0101
0000
0001
0010
,  // measure 28
1000
0001
0100
1000
0011
0000
1000
0010
,  // measure 29
0001
1000
0100
0001
1010
0000
0001
0010
,  // measure 30
0100
0000
1000
0000
0010
1000
0000
0000
0101
0000
0000
0000
0001
0000
0001
0000
,  // measure 31
1000
0000
0100
0010
0100
0000
1000
0000
0001
0000
0100
0010
0100
0000
0001
0010
,  // measure 32
0100
0000
0001
0000
0100
0000
1000
0000
0001
0000
0100
1000
0100
0000
0001
1000
,  // measure 33
0001
0100
0010
0100
0001
0010
0001
1100
,  // measure 34
0000
1010
0000
0000
0000
0101
0000
0000
0011
0000
0001
0000
0100
0000
0010
0000
,  // measure 35
0101
0001
0010
0100
1100
0000
1000
0010
,  // measure 36
0110
0010
0100
0001
0011
0000
0001
0010
,  // measure 37
0110
0010
0100
1000
1100
0000
1000
0010
,  // measure 38
0110
0000
0100
0000
0001
0010
0000
0000
0110
0000
0000
0000
0010
0000
0000
0000
,  // measure 39
0100
1000
0010
0100
1000
0100
0001
0000
,  // measure 40
1000
0100
0001
0100
1000
0001
0100
1000
,  // measure 41
0100
0001
0010
0100
0001
0100
1000
0001
,  // measure 42
1000
0000
0010
0000
0100
0001
0000
0000
0011
0000
0000
0000
1100
0000
0001
0000
,  // measure 43
1000
0100
0010
0200
1000
0000
1300
0000
,  // measure 44
0001
0000
0000
0000
0000
0000
0000
0000
0000
0100
0000
0000
0010
0000
0000
0000
0000
0000
0200
0000
0000
0000
0000
0000
0001
0000
0000
0000
0000
0000
0301
0000
0000
0000
0000
0000
0010
0000
0000
0000
0010
0000
0100
0000
0000
0000
0000
0000
,  // measure 45
1000
0100
0001
0100
1000
0000
0001
1000
,  // measure 46
0000
0000
1010
0000
0000
0101
0000
0000
0011
0000
0001
0000
0100
0000
0010
0000
,  // measure 47
0100
0000
0001
0010
0100
0000
0001
0100
,  // measure 48
1000
0000
0000
1000
0000
0000
1000
0000
0000
1000
0000
0000
0010
0000
0100
0001
0000
0000
0010
0000
0000
0100
0000
0000
,  // measure 49
0001
0100
1000
0001
0100
0000
0010
0100
,  // measure 50
0000
0000
0101
0000
0000
0000
0101
0000
0000
0000
0101
0000
0000
0001
0010
0000
,  // measure 51
0100
0001
0100
1000
0001
0100
1000
0100
,  // measure 52
0001
0010
0100
1000
0100
0001
0100
1000
,  // measure 53
0001
0100
0010
0100
0001
0010
0100
0010
,  // measure 54
0001
0010
1000
0010
0001
0100
0010
0010
,  // measure 55
1000
0100
0010
0100
1000
0001
0100
0010
,  // measure 56
0100
0001
0010
0100
1000
0100
0001
0100
,  // measure 57
1000
1000
0001
0100
1000
1000
0100
0001
,  // measure 58
0010
0010
0100
0010
0001
0100
0010
0010
,  // measure 59
2002
0000
0000
0000
,  // measure 60
0000
0000
3003
0000
;
