#TITLE:Insane Techniquess;
#SUBTITLE:;
#ARTIST:kors k;
#TITLETRANSLIT:;
#SUBTITLETRANSLIT:;
#ARTISTTRANSLIT:;
#GENRE:Hi-TECH FULL ON;
#CREDIT:Mew151;
#BANNER:insane_techniques_banner.png;
#BACKGROUND:insane_techniques.png;
#LYRICSPATH:;
#CDTITLE:;
#MUSIC:1-30 Insane Techniques.mp3;
#OFFSET:-0.556984;
#SAMPLESTART:26.858000;
#SAMPLELENGTH:9.863000;
#SELECTABLE:YES;
#DISPLAYBPM:146.000000;
#BPMS:0.000000=146.001999
,1.000000=145.994003
,2.000000=146.001999
,4.000000=145.994003
,5.000000=146.001999
,7.000000=145.994003
,8.000000=146.001999
,11.000000=145.994003
,12.000000=146.001999
,15.000000=145.994003
,16.000000=146.001999
,18.000000=145.994003
,19.000000=146.001999
,22.000000=145.994003
,23.000000=146.001999
,25.000000=145.994003
,26.000000=146.001999
,29.000000=145.994003
,30.000000=146.001999
,32.000000=145.994003
,33.000000=146.001999
,35.000000=145.994003
,36.000000=146.001999
,38.000000=145.994003
,39.000000=146.001999
,41.000000=145.994003
,42.000000=146.001999
,45.000000=145.994003
,46.000000=146.001999
,48.000000=145.994003
,49.000000=146.001999
,51.000000=145.994003
,52.000000=146.001999
,54.000000=145.994003
,55.000000=146.001999
,58.000000=145.994003
,59.000000=146.001999
,62.000000=145.994003
,63.000000=146.001999
,66.000000=145.994003
,67.000000=146.001999
,70.000000=145.994003
,71.000000=146.001999
,74.000000=145.994003
,75.000000=146.001999
,78.000000=145.994003
,79.000000=146.001999
,82.000000=145.994003
,83.000000=146.001999
,86.000000=145.994003
,87.000000=146.001999
,90.000000=145.994003
,91.000000=146.001999
,94.000000=145.994003
,95.000000=146.001999
,98.000000=145.994003
,99.000000=146.001999
,102.000000=145.994003
,103.000000=146.001999
,106.000000=145.994003
,107.000000=146.001999
,110.000000=145.994003
,111.000000=146.001999
,114.000000=145.994003
,115.000000=146.001999
,117.000000=145.994003
,118.000000=146.001999
,121.000000=145.994003
,122.000000=146.001999
,125.000000=145.994003
,126.000000=146.001999
,129.000000=145.994003
,130.000000=146.001999
,133.000000=145.994003
,134.000000=146.001999
,137.000000=145.994003
,138.000000=146.001999
,141.000000=145.994003
,142.000000=146.001999
,145.000000=145.994003
,146.000000=146.001999
,149.000000=145.994003
,150.000000=146.001999
,153.000000=145.994003
,154.000000=146.001999
,157.000000=145.994003
,158.000000=146.001999
,161.000000=145.994003
,162.000000=146.001999
,165.000000=145.994003
,166.000000=146.001999
,169.000000=145.994003
,170.000000=146.001999
,173.000000=145.994003
,174.000000=146.001999
,177.000000=145.994003
,178.000000=146.001999
,181.000000=145.994003
,182.000000=146.001999
,185.000000=145.994003
,186.000000=146.001999
,189.000000=145.994003
,190.000000=146.001999
,193.000000=145.994003
,194.000000=146.001999
,197.000000=145.994003
,198.000000=146.001999
,201.000000=145.994003
,202.000000=146.001999
,205.000000=145.994003
,206.000000=146.001999
,209.000000=145.994003
,210.000000=146.001999
,213.000000=145.994003
,214.000000=146.001999
,217.000000=145.994003
,218.000000=146.001999
,221.000000=145.994003
,222.000000=146.001999
,225.000000=145.994003
,226.000000=146.001999
,229.000000=145.994003
,230.000000=146.001999
,231.000000=145.994003
,232.000000=146.001999
,233.000000=145.994003
,234.000000=146.001999
,235.000000=145.994003
,236.000000=146.001999
,237.000000=145.994003
,238.000000=146.001999
,239.000000=145.994003
,240.000000=146.001999
,241.000000=145.994003
,242.000000=146.001999
,243.000000=145.994003
,244.000000=146.001999
,245.000000=145.994003
,246.000000=146.001999
,247.000000=145.994003
,248.000000=146.001999
,249.000000=145.994003
,250.000000=146.001999
,251.000000=145.994003
,252.000000=146.001999
,253.000000=145.994003
,254.000000=146.001999
,255.000000=145.994003
,256.000000=146.001999
,257.000000=145.994003
,258.000000=146.001999
,259.000000=145.994003
,260.000000=146.001999
,261.000000=145.994003
,262.000000=146.001999
,263.000000=145.994003
,264.000000=146.001999
,265.000000=145.994003
,266.000000=146.001999
,267.000000=145.994003
,268.000000=146.001999
,269.000000=145.994003
,270.000000=146.001999
,271.000000=145.994003
,272.000000=146.001999
,273.000000=145.994003
,274.000000=146.001999
,275.000000=145.994003
,276.000000=146.001999
,277.000000=145.994003
,278.000000=146.001999
,279.000000=145.994003
,280.000000=146.001999
,281.000000=145.994003
,282.000000=146.001999
,283.000000=145.994003
,284.000000=146.001999
,285.000000=145.994003
,286.000000=146.001999
,287.000000=145.994003
,288.000000=146.001999
,289.000000=145.994003
,290.000000=146.001999
,291.000000=145.994003
,292.000000=146.001999
,293.000000=145.994003
,294.000000=146.001999
,295.000000=145.994003
,296.000000=146.001999
,297.000000=145.994003
,298.000000=146.001999
,299.000000=145.994003
,300.000000=146.001999
,301.000000=145.994003
,302.000000=146.001999
,303.000000=145.994003
,304.000000=146.001999
,305.000000=145.994003
;
#STOPS:
;
#BGCHANGES:;
#KEYSOUNDS:;

//---------------dance-single - ----------------
#NOTES:
     dance-single:
     :
     Beginner:
     1:
     0.190916,0.238814,0.031631,0.086985,0.000000,154.000000,4.000000,11.000000,0.000000,0.000000,0.000000,0.190916,0.238814,0.031631,0.086985,0.000000,154.000000,4.000000,11.000000,0.000000,0.000000,0.000000:
0100
0000
0000
0000
,
0010
0000
0000
0000
,
1000
0000
0000
0000
,
0001
0000
0000
0000
,
1000
0000
0000
0000
,
0100
0000
0000
0000
,
0010
0000
0000
0000
,
0001
1000
0020
0000
,
0130
0000
0100
0000
,
0010
0000
0010
0000
,
1000
0000
1000
0000
,
0001
0000
0100
0000
,
0010
0000
1000
0000
,
0100
0000
0010
0000
,
0002
0003
1000
1000
,
0000
0000
0220
0330
0000
0000
0000
0000
,
1000
0001
1000
0000
,
0100
0010
0100
0000
,
0001
0100
0001
0000
,
1000
0100
1000
0000
,
0010
0100
0010
0000
,
1000
0100
0010
0000
,
0001
0000
1000
0000
,
0020
0000
0000
0030
,
0100
0100
0100
0000
,
0001
1000
0010
0000
,
0100
0001
0100
0000
,
0010
1000
0100
0000
,
1000
0010
0100
0000
,
0001
1000
0001
0000
,
0220
0000
0000
0000
,
0000
0000
0000
0000
,
0330
0000
0000
0000
,
0001
0000
0000
0000
,
0010
0000
0000
0000
,
0100
0000
0000
0000
,
1000
0000
0000
0000
,
0010
0000
0000
0000
,
0100
0000
0000
0000
,
0001
0000
0000
0010
,
0100
0000
0000
0000
,
0010
0000
0000
0000
,
0001
0000
0000
0000
,
1000
0000
0000
0100
,
0010
0000
0000
0000
,
0001
0000
0000
0000
,
0100
0000
0000
0000
,
0010
1000
0010
0100
,
0001
0000
0000
0000
,
1000
0000
0000
0000
,
0001
0000
0000
0000
,
1000
0000
0000
0001
,
0001
0000
1000
0001
,
0001
0000
1000
0001
,
0220
0000
0000
0000
,
0000
0000
0000
0000
,
0330
0000
0000
0000
,
0000
0000
0000
0000
,
0001
0100
0010
0000
,
1000
0010
0100
0000
,
0010
1000
0100
0000
,
0010
0001
0100
0000
,
1000
0100
0001
0000
,
0001
0100
1000
0000
,
0010
0100
0010
0000
,
0100
0010
0100
0010
,
0100
0001
0001
1000
,
0000
0010
1000
0100
,
0000
1000
0001
0100
,
0010
0010
0010
0010
,
1000
0100
0010
0001
,
1000
0100
0010
0001
,
0100
0010
1000
0100
,
0010
0001
1000
0001
,
0220
0000
0000
0000
,
0000
0000
0330
0000
,
0000
0000
0000
0000
;

//---------------dance-single - ----------------
#NOTES:
     dance-single:
     :
     Easy:
     3:
     0.248530,0.328370,0.055354,0.150248,0.000000,194.000000,7.000000,19.000000,0.000000,0.000000,0.000000,0.248530,0.328370,0.055354,0.150248,0.000000,194.000000,7.000000,19.000000,0.000000,0.000000,0.000000:
// measure 0
0020
0000
0000
0030
,  // measure 1
0200
0000
0000
0300
,  // measure 2
0002
0000
0000
0003
,  // measure 3
2000
0000
0000
3000
,  // measure 4
0002
0000
0000
0003
,  // measure 5
0020
0000
0000
0030
,  // measure 6
0200
0000
0000
0300
,  // measure 7
1000
0001
0010
0010
,  // measure 8
0100
1000
0100
0000
,  // measure 9
0010
0001
0010
0000
,  // measure 10
1000
0001
1000
0000
,  // measure 11
0001
1000
0100
0000
,  // measure 12
0010
0100
0010
0000
,  // measure 13
0100
0010
0001
2000
,  // measure 14
3002
0003
0110
1001
,  // measure 15
0000
0000
0220
0330
0000
0000
0000
0000
,  // measure 16
1000
0001
1000
0010
,  // measure 17
0100
0010
1000
0100
,  // measure 18
0001
0100
1000
0010
,  // measure 19
1000
0100
1000
0001
,  // measure 20
0010
0100
0010
0001
,  // measure 21
1000
0100
0010
0100
,  // measure 22
1000
1000
1000
1000
,  // measure 23
0020
0000
0000
0030
,  // measure 24
0100
0100
0100
0100
,  // measure 25
0001
1000
0010
0100
,  // measure 26
0010
1000
0100
0010
,  // measure 27
0100
1000
0001
0010
,  // measure 28
1000
0010
0100
1000
,  // measure 29
0001
1000
0001
0100
,  // measure 30
0220
0000
0000
0000
,  // measure 31
0000
0000
0000
0000
,  // measure 32
0330
0000
0000
0000
,  // measure 33
0001
0000
0000
0000
,  // measure 34
0010
0000
0000
0000
,  // measure 35
0100
0000
0000
0000
,  // measure 36
1000
0000
0000
0000
,  // measure 37
0010
0000
0000
0000
,  // measure 38
0100
0000
0000
0000
,  // measure 39
0001
0000
0000
0010
,  // measure 40
0100
0000
0000
0000
,  // measure 41
0010
0000
0000
0000
,  // measure 42
0001
0000
0000
0000
,  // measure 43
1000
0000
0000
0100
,  // measure 44
0010
0000
0000
0000
,  // measure 45
0001
0000
0000
0000
,  // measure 46
0100
0000
0000
0000
,  // measure 47
0010
1000
0010
0100
,  // measure 48
0001
0000
0001
0000
,  // measure 49
1000
0000
1000
0000
,  // measure 50
0001
0000
0001
0000
,  // measure 51
1000
0000
0000
0000
1000
0000
0001
0001
,  // measure 52
0000
0000
0000
0000
1000
0000
0001
0001
,  // measure 53
0000
0000
0000
0000
1000
0001
1000
0000
,  // measure 54
0220
0000
0000
0000
,  // measure 55
0000
0000
0000
0000
,  // measure 56
0330
0000
0000
0000
,  // measure 57
0000
0000
0000
0000
,  // measure 58
0001
0100
0010
0001
,  // measure 59
1000
0100
0001
0010
,  // measure 60
0100
1000
0100
1000
,  // measure 61
0010
1000
0100
0010
,  // measure 62
0001
0100
0001
1000
,  // measure 63
0001
0100
1000
0100
,  // measure 64
0010
0100
0010
0001
,  // measure 65
0010
0100
0010
0100
,  // measure 66
0010
0100
0001
1000
,  // measure 67
0001
0010
1000
0010
,  // measure 68
0001
1000
0001
0100
,  // measure 69
0210
0010
0010
0310
,  // measure 70
1000
0000
0100
0000
0010
0001
0010
0000
,  // measure 71
0001
0100
0010
0001
,  // measure 72
0010
0000
1000
0000
0001
0000
0100
0010
,  // measure 73
0100
0000
0001
1000
0001
1000
0001
0000
,  // measure 74
0220
0000
0000
0000
,  // measure 75
0000
0000
0330
0000
;

//---------------dance-single - ----------------
#NOTES:
     dance-single:
     :
     Medium:
     6:
     0.459780,0.537333,0.134432,0.189786,0.019769,366.000000,17.000000,24.000000,0.000000,0.000000,0.000000,0.459780,0.537333,0.134432,0.189786,0.019769,366.000000,17.000000,24.000000,0.000000,0.000000,0.000000:
2000
0000
0000
3000
,
0200
0000
0000
0300
,
0020
0000
0000
0030
,
0002
0000
0000
0003
,
0100
0000
0010
0000
,
0100
0000
0001
0000
,
1000
0000
0100
0000
0010
0000
0001
1000
,
0001
0000
0100
0000
0010
0000
0100
0000
0020
0030
0000
0000
0020
0030
0000
0000
,
0100
1000
0100
0000
0001
0010
0001
0000
,
0010
1000
0010
0000
0001
0100
1000
0000
,
0010
0100
0001
0000
1000
0100
0001
0000
,
0100
0010
0100
0010
0100
0000
0100
0000
,
1000
0001
0100
0000
0010
0100
0010
0000
,
1000
0001
0100
0010
0100
0010
0100
0000
,
0002
1003
1100
0101
,
1000
0100
0020
0031
0100
0000
0010
0000
,
1000
0100
1000
0010
1000
0000
0100
0000
,
0010
0001
1000
0001
0100
0010
0100
0000
,
0001
0100
0010
0100
0010
0000
1000
0000
,
0010
0100
1000
0100
0010
0001
0010
0000
,
1000
0100
0010
0001
0100
0000
0010
0000
,
0100
1000
0100
0010
0100
0001
0100
0000
,
0001
0000
0000
1000
0000
0000
0001
0000
0000
0100
0000
0000
0010
0000
0100
0000
,
0020
0100
0100
0130
,
1000
0100
1000
0100
0010
0100
0001
0000
,
0100
1000
0010
0001
0010
1000
0100
0000
,
0010
0001
0010
0100
0010
0001
1000
0000
,
0010
0100
0001
0010
0100
1000
0100
0010
,
0100
0000
0100
0001
0100
1000
0010
0100
,
0010
0100
1000
0100
0001
0010
0200
0300
,
1000
0001
1000
0001
,
1000
0001
1000
0001
0220
0000
0000
0330
,
1001
0000
0000
0000
,
0010
0000
0000
0000
,
0100
0000
0000
0000
,
0010
0000
0000
0000
,
0001
0000
0000
0000
,
1000
0000
0000
0000
,
0010
0000
0000
0000
,
0100
0000
0000
0000
,
0001
0000
1000
0000
,
0001
0000
1000
0000
,
0001
0000
1000
0000
,
0001
0000
1000
0000
,
0001
0010
0100
1000
,
0010
0100
0001
0100
,
1000
0100
0001
0010
,
0220
0000
0000
0000
0000
0000
0000
0330
,
1001
0100
0100
0100
,
0001
1000
0100
0001
0100
1000
0100
0000
,
0010
0001
0010
1000
0010
0001
0010
0000
,
0100
1000
0100
0001
0100
1000
0101
1001
,
0000
0000
0010
0100
0010
0001
0110
1001
,
0000
0000
0010
1000
0001
1100
0101
0000
,
0010
0000
0000
0010
0000
0000
0010
0000
0000
0010
0000
0000
0010
0000
0000
0010
,
0000
0010
0100
0010
0001
0010
1000
0100
,
0020
0000
0000
0000
,
0000
0000
0030
0000
,
0001
0010
0001
0100
0010
0100
0010
1000
,
0100
0010
0100
0010
0001
0010
0100
0000
,
1000
0100
1000
0100
0001
0100
1000
0010
,
0001
0010
1000
0100
0010
0001
0100
0000
,
0010
0100
1000
0100
0001
0100
1000
0001
,
0010
1000
0100
0010
0100
1000
0001
0000
,
0100
0010
0100
0001
0100
1000
0100
0001
,
1100
0101
0000
0011
2010
0000
3010
0000
,
1000
0100
0002
0103
0010
0001
0100
0010
,
1000
0100
0020
1030
0010
0001
0200
0000
,
0310
0100
0001
1000
0100
0001
0100
1000
,
0200
0000
0000
0000
0310
0001
0200
0001
,
0310
1000
0020
0130
1000
0001
0100
0010
,
1000
0010
0001
1000
0100
0001
0010
0100
,
1000
0100
1000
0100
1000
0100
1000
0001
,
1000
0001
0100
0010
0100
0010
0100
0010
,
2002
0000
0000
0000
,
0000
0000
3003
0000
;

//---------------dance-single - ----------------
#NOTES:
     dance-single:
     :
     Hard:
     9:
     0.565970,0.746295,0.126524,0.166063,0.466558,464.000000,16.000000,21.000000,0.000000,0.000000,0.000000,0.565970,0.746295,0.126524,0.166063,0.466558,464.000000,16.000000,21.000000,0.000000,0.000000,0.000000:
2000
0000
0000
3000
,
0200
0000
0000
0300
,
0020
0000
0000
0030
,
0002
0000
0000
0003
,
0100
0000
0010
0000
,
0100
0000
0001
0000
,
1000
0000
0100
0000
0010
0000
0001
1000
,
0001
0000
0100
0000
0010
0000
0100
0000
0020
0030
0000
0020
0030
0000
0020
0030
,
1000
0100
0010
0100
0010
0000
0001
0000
,
0100
0001
0010
1000
0010
0000
0001
0000
,
0100
0010
1000
0010
1000
0000
0100
0000
,
0001
0100
1000
0100
0010
0000
0001
0000
,
0100
0010
1000
0010
0100
0001
0100
0010
,
0100
0000
0010
0000
1000
0001
1000
0100
,
0020
0000
0031
0001
2200
3300
0202
0303
,
1000
0100
0020
0031
0100
0010
1000
0000
,
0100
0000
0010
0000
0100
0010
0000
0001
0000
1000
0000
0001
1000
0000
0010
0000
,
0100
0000
0010
0000
1000
0100
0000
0010
0000
0001
0000
0010
0100
0000
1000
0000
,
0100
0000
0001
0000
0100
0010
0000
0001
0000
0010
0000
0001
1000
0000
0010
0000
,
0100
0000
0010
0000
1000
0100
0000
1000
0000
0001
0000
1000
0010
0000
0100
0000
,
0010
0000
1000
0000
0100
0010
0000
0100
0000
0010
0000
0100
0010
0000
0001
0000
,
0010
0000
0100
0000
1000
0001
0000
0100
0000
0010
0000
1000
0200
0000
0000
0000
,
0310
0000
0000
0100
0000
0000
0010
0000
0000
0100
0000
0000
0010
0000
1000
0000
,
0002
0000
0000
0000
0000
1000
1003
0000
,
0010
0000
1000
0000
0010
1000
0000
0010
0000
1000
0000
0010
0100
0000
0001
0000
,
0100
0000
0001
0000
0100
0010
0000
1000
0000
0100
0000
0001
0100
0000
1000
0000
,
0100
0000
0010
0000
0100
0010
0000
0001
0000
0010
0000
0100
1000
0000
0001
0000
,
1000
0000
0010
0000
0100
1000
0000
0100
0000
0001
0000
0010
1000
0000
0010
0000
,
0100
0000
0001
0000
0100
0010
0000
1000
0000
0100
0000
0010
0001
0000
0100
0000
,
0010
0000
1000
0000
0100
0001
0000
1000
0000
0010
0000
0001
0100
0000
0000
0000
,
0010
1000
0001
0100
,
0001
0000
0100
0000
1000
0000
0100
0000
0001
0010
0100
1000
0100
0010
0001
0010
,
0100
0000
0000
0000
,
0010
0000
0000
0000
,
0001
0000
0000
0000
,
0100
0000
0000
0000
,
1000
0100
0000
0100
0010
0000
0010
0001
,
0000
0001
0100
0000
0100
1000
0000
1000
,
0100
0000
0100
0001
0000
0001
0100
0000
,
0100
0010
0000
0010
0100
0010
0100
1000
,
0001
0000
0000
0000
,
1000
0000
0000
0000
,
0010
0000
0000
0000
,
0100
0000
0000
0000
,
0010
0100
0000
0100
0001
0000
0001
1000
,
0000
1000
0100
0000
0100
0010
0000
0010
,
0001
0000
0001
0010
0100
1000
0100
0010
,
0001
0000
0000
0000
,
0010
0000
0000
0001
0000
0000
0100
0000
0010
1000
0010
1000
0010
0000
0100
0000
,
0010
0000
0000
1000
0000
0000
0100
0000
0010
0001
0100
0010
1000
0000
0100
0000
,
0010
0000
0000
0100
0000
0000
0010
0000
0100
0010
0100
0001
0100
0000
0010
0000
,
1000
0000
0000
0100
0000
0000
0010
0000
0100
1000
0001
0000
0110
0000
1001
0000
,
0100
0000
0000
0001
0000
0000
0100
0000
0010
1000
0010
0000
1010
0000
0101
0000
,
0010
0100
0010
0000
0220
0000
0000
0000
0330
0000
1001
0000
0110
0000
0000
0000
,
0001
0000
0000
0100
0000
0000
0010
0000
0000
1000
0000
0000
0100
0000
0010
0000
,
0001
0100
0001
0100
0010
0100
0010
1000
0100
0010
0100
0010
0001
0010
0100
1000
,
0200
0000
0000
0000
,
0000
0000
0000
0000
0310
0010
0010
0010
,
1000
0000
0000
0100
0000
0000
0010
0000
0001
0100
0010
1000
0100
0000
0001
0000
,
0100
0000
0000
0010
0000
0000
0001
0000
0100
0010
1000
0010
0100
0000
0001
0000
,
0100
0000
0000
1000
0000
0000
0100
0000
0001
0010
0100
0001
0100
0000
1000
0000
,
0010
0000
0000
0100
0000
0000
0010
0000
1000
0001
1000
0001
1000
0000
0100
0000
,
0010
0000
0000
0001
0000
0000
0100
0000
0010
0001
0010
1000
0100
0000
0001
0000
,
0100
0000
0000
1000
0000
0000
0010
0000
0100
0001
0100
0010
0100
0000
0001
0000
,
0100
0000
0000
0010
0000
0000
1000
0000
0001
1000
0100
0010
0100
0000
1000
0000
,
0110
0000
0110
0000
1001
0000
1001
0000
1100
0000
0101
0000
0100
0001
0100
0001
,
0100
0000
0000
0010
0000
0000
0100
0000
1000
0100
1000
0100
1000
0000
0100
0000
,
0001
0000
0000
0010
0000
0000
0001
0000
0010
0100
0010
0100
0010
0000
0100
0000
,
1000
0000
0000
0010
0000
0000
0100
0000
0001
0100
1000
0100
0001
0000
1000
0000
,
0002
0000
0003
0000
,
1000
0000
0000
0001
0000
0000
0010
0000
0100
1000
0001
0010
1000
0000
0010
0000
,
0001
0000
0000
1000
0000
0000
0001
0100
0001
0100
0001
0100
0001
0000
0100
0000
,
0010
1000
0100
0001
0100
1000
0010
0001
,
0010
1000
0001
0100
1000
0100
0010
0001
,
0220
0000
0000
0000
,
0000
0000
0330
0000
;
