#TITLE:I Took A Little Something;
#SUBTITLE:;
#ARTIST:Florrie;
#TITLETRANSLIT:;
#SUBTITLETRANSLIT:;
#ARTISTTRANSLIT:;
#GENRE:Electro-Pop;
#CREDIT:;
#BANNER:Do What U Want (feat. R. Kelly).png;
#BACKGROUND:Do What U Want (feat. R. Kelly)-bg.png;
#LYRICSPATH:;
#CDTITLE:;
#MUSIC:I Took a Little Something.mp3;
#OFFSET:-0.058000;
#SAMPLESTART:54.960041;
#SAMPLELENGTH:15.000000;
#SELECTABLE:YES;
#BPMS:0.000000=122.000000
;
#STOPS:
;
#BGCHANGES:-0.500=Do What U Want (feat. R. Kelly).avi=1.000=0=0=0=StretchNoLoop====,
0.000=[Qualifier Singles] - I Took A Little Something.avi=1.000=0=0=1=====,
99999=-nosongbg-=1.000=0=0=0 // don't automatically add -songbackground-
;
#KEYSOUNDS:;
#ATTACKS:;

//---------------dance-single - ----------------
#NOTES:
     dance-single:
     :
     Hard:
     8:
     0.444361,0.402340,0.042263,0.253575,0.152145,333.000000,5.000000,30.000000,0.000000,0.000000,0.000000,0.444361,0.402340,0.042263,0.253575,0.152145,333.000000,5.000000,30.000000,0.000000,0.000000,0.000000:
// measure 0
0000
0000
0000
0000
,  // measure 1
0000
0000
0000
0000
,  // measure 2
0000
0000
0000
0000
,  // measure 3
0000
0000
0000
0000
,  // measure 4
1000
0000
0001
0100
0000
0000
0001
0000
0100
0000
0000
0000
0001
0000
0100
0000
,  // measure 5
0010
0000
0000
0100
0000
0010
0000
0000
1000
0000
0100
1000
0100
1000
0001
0000
,  // measure 6
1000
0000
0001
1000
0000
0000
0001
0000
0010
0000
0000
0000
0001
0000
0100
0000
,  // measure 7
0010
0000
0000
0100
0000
0001
0000
0000
1000
0000
0100
0010
0100
0010
0001
0000
,  // measure 8
1000
0000
0001
0010
0000
0000
0100
0000
1000
0000
0000
0000
1000
0000
0100
0000
,  // measure 9
0100
0000
0000
0010
0000
0100
0000
0000
1000
0000
0001
0010
0001
0010
0100
0000
,  // measure 10
0010
0000
0100
1000
0000
0000
0001
0000
0100
0000
0000
0000
0100
0000
0001
0000
,  // measure 11
0001
0000
0000
0010
0000
0001
0000
0000
1000
0000
0001
1000
0001
1000
0100
0000
,  // measure 12
2000
0010
0100
3001
,  // measure 13
0002
1000
0100
0013
,  // measure 14
0020
1000
0100
0031
,  // measure 15
0002
0100
0100
0013
,  // measure 16
0200
0001
0010
0310
,  // measure 17
2000
0001
0100
3010
,  // measure 18
0020
1000
0100
0031
,  // measure 19
1000
2002
0000
3003
,  // measure 20
0010
1000
0200
0000
1300
0000
0001
0001
,  // measure 21
0100
1000
0100
0010
1000
0000
0010
1000
,  // measure 22
0010
0100
0002
0000
1003
0000
1000
1000
,  // measure 23
0010
0001
0010
0100
0001
0000
0100
0010
,  // measure 24
1000
0001
0200
0000
0310
0000
1000
1000
,  // measure 25
0010
0001
0010
0100
0001
0000
1000
0100
,  // measure 26
0010
0100
2000
0000
3001
0000
0010
0001
,  // measure 27
0010
0100
1000
0002
0000
0000
0000
0000
,  // measure 28
2003
0000
3100
0001
0100
1000
0010
0100
,  // measure 29
0002
0000
0103
0100
0001
0010
1000
0020
,  // measure 30
0000
0000
0130
0010
0010
0001
1000
0001
,  // measure 31
0200
0000
0301
1000
0100
0001
0100
0020
,  // measure 32
0000
0000
0031
0100
0100
0010
1000
0010
,  // measure 33
0002
0000
0013
1000
0001
0100
1000
0200
,  // measure 34
0000
0000
0301
0010
0010
1000
0010
0001
,  // measure 35
2000
0000
3100
0100
1000
0010
0001
0020
,  // measure 36
0000
0000
1030
0010
0001
1000
0100
0001
,  // measure 37
2000
0000
3100
0100
1000
0010
0100
0002
,  // measure 38
0000
0000
1003
0100
0001
1000
0010
0001
,  // measure 39
2000
0000
3100
0010
0001
0100
0010
2000
,  // measure 40
0000
0000
3001
0010
1000
0001
0100
1000
,  // measure 41
0002
0000
1003
0001
1000
0010
0010
0200
,  // measure 42
0000
0000
0301
0100
1000
0001
0010
1000
,  // measure 43
0020
0000
0000
0000
0000
0000
0000
0000
0100
0000
0000
0100
0000
0000
0130
0000
,  // measure 44
0001
0000
0101
0000
1010
0000
0010
1000
,  // measure 45
1000
0010
1000
0001
1000
0100
0010
0100
,  // measure 46
1000
0000
0001
0100
0000
0000
0001
0000
0100
0000
0000
0000
0010
0000
1000
0000
,  // measure 47
0010
0000
0000
1000
0000
0100
0000
0000
0010
0000
0001
1000
0001
1000
0010
0000
,  // measure 48
0100
0000
0001
0000
1000
0000
0001
0010
,  // measure 49
0100
1000
0010
0100
0001
1000
0010
0100
,  // measure 50
0010
0000
1000
0100
0000
0000
0010
0000
0100
0000
0000
0000
0010
0000
0001
0000
,  // measure 51
1000
0000
0000
0010
0000
0100
0000
0000
0100
0000
0001
0100
0001
0100
0010
0000
,  // measure 52
1000
0000
1010
0000
1100
0000
0001
1000
,  // measure 53
0001
0010
0001
0001
0010
0100
0010
0001
,  // measure 54
1000
0000
0100
1000
0000
0000
0100
0000
0010
0000
0000
0000
0001
0000
0100
0000
,  // measure 55
0010
0000
0000
1000
0000
0001
0000
0000
1000
0000
0100
1000
0100
1000
0010
0000
,  // measure 56
0100
0000
0000
0000
;

//---------------dance-single - ----------------
#NOTES:
     dance-single:
     :
     Medium:
     6:
     0.304291,0.284004,0.109883,0.211313,0.000000,214.000000,13.000000,25.000000,0.000000,0.000000,0.000000,0.304291,0.284004,0.109883,0.211313,0.000000,214.000000,13.000000,25.000000,0.000000,0.000000,0.000000:
0000
0000
0000
0000
,
0000
0000
0000
0000
,
0000
0000
0000
0000
,
0000
0000
0000
0000
,
1000
0010
0100
0000
0001
0000
0100
0010
,
0100
0000
0001
0000
1000
0100
0010
0001
,
2000
0000
3100
0000
1000
0000
0001
0010
,
0001
0000
0100
0000
0010
1000
0010
0100
,
0020
0000
1030
0000
0100
0000
1000
0100
,
0010
0000
0001
0000
1000
0001
1000
0100
,
2000
0000
3010
0000
0100
0000
0001
1000
,
0100
0100
1000
0100
,
0020
0000
0000
0031
,
0200
0000
0000
0310
,
2000
0000
0000
3001
,
0020
0000
0000
0130
,
2000
0000
0000
3001
,
0200
0000
0000
0310
,
2000
0000
0000
3100
,
0020
0000
0002
0033
,
1001
1000
0100
1000
,
0010
0010
0100
0000
0001
0000
0100
0000
,
0100
0000
0001
0000
1000
0000
0010
0010
,
1000
0010
0100
0001
,
0001
0000
0100
0000
0010
0000
1000
1000
,
0001
0100
0010
1000
,
0001
0000
0010
0000
1000
0000
0010
0010
,
0002
0000
2000
0000
,
3003
1000
0100
0001
,
0100
0000
1000
0000
0001
0010
0100
1000
,
0000
1010
1000
0100
,
0001
0000
0100
0000
1000
0010
0100
0001
,
0000
0101
0001
0010
,
1000
0000
0010
0000
0001
0010
0001
1000
,
0000
1100
1000
0100
,
0001
0000
0100
0000
1000
0010
0100
0001
,
0000
0101
0001
0100
,
1000
0000
0001
0000
0010
1000
0100
0010
,
0000
0110
1000
0100
,
0001
0000
1000
0000
0010
0001
0010
0100
,
0000
1100
0001
0100
,
1000
0000
0001
0000
0010
1000
0010
0100
,
0000
0110
1000
0001
,
2000
0000
0002
0000
,
3003
0101
0022
0033
,
0001
0100
0010
1000
,
0200
0000
0310
0000
0100
0000
1000
0010
,
0100
0000
0001
0000
0001
0100
0010
0000
,
0220
0330
0010
1000
,
0001
1000
0100
0010
,
0002
0000
1003
0000
0010
0000
0100
0001
,
0100
0000
0010
0000
1000
0100
0010
0001
,
1000
0101
2020
3030
,
1000
0010
0001
0010
,
2000
0000
3100
0000
0010
0000
0001
0001
,
0010
0000
0100
0000
0010
0100
0010
0001
,
0010
0000
0000
0000
;

//---------------dance-single - ----------------
#NOTES:
     dance-single:
     :
     Easy:
     3:
     0.210105,0.236670,0.025358,0.329648,0.000000,132.000000,3.000000,39.000000,0.000000,0.000000,0.000000,0.210105,0.236670,0.025358,0.329648,0.000000,132.000000,3.000000,39.000000,0.000000,0.000000,0.000000:
0000
0000
0000
0000
,
0000
0000
0000
0000
,
0000
0000
0000
0000
,
0000
0000
0000
0000
,
2000
3001
0100
0010
,
0200
0300
0020
0030
,
2000
3001
1000
0100
,
0020
0030
0002
0003
,
0200
0310
0010
0100
,
0020
0030
2000
3000
,
0100
0100
1000
0001
,
0020
0030
0002
0003
,
2000
0000
0000
3000
,
0002
0000
0000
0003
,
0200
0000
0000
0300
,
0020
0000
0000
0030
,
2000
0000
0000
3000
,
0200
0000
0000
0300
,
0020
0000
0000
0030
,
0002
0000
0000
0003
,
0001
0001
0000
1000
,
0100
0010
0000
0010
,
0010
0010
0000
0001
,
1000
0001
0000
0100
,
0100
0100
0000
0010
,
1000
0010
0000
0100
,
0100
0100
0000
0001
,
0200
0000
0000
0300
,
0010
0000
0100
0100
,
0100
0100
0001
1000
,
0000
0000
0010
0010
,
0010
0010
0100
0001
,
0000
0000
0001
0001
,
0001
0001
1000
0100
,
0000
0000
0010
0010
,
0010
0010
0001
1000
,
0000
0000
0001
0010
,
0100
1000
0002
0000
,
1003
0000
0010
1000
,
0010
1000
0002
0000
,
0103
0000
0001
0010
,
0001
0010
0200
0000
,
0310
0000
0100
1000
,
0200
0000
0000
0000
,
0300
1000
2002
3003
,
0001
0000
1000
0000
,
0020
1030
1000
0001
,
2000
3000
0200
0310
,
0220
0330
0000
0010
,
0000
0001
0000
1000
,
0020
1030
1000
0001
,
0200
0300
0002
0003
,
0000
1000
2200
3300
,
0100
0000
0010
0000
,
0002
1003
1000
0010
,
0200
0300
0002
0003
,
1000
0000
0000
0000
;
