#TITLE:Fubuki;
#SUBTITLE:;
#ARTIST:Nishizawa Shiena;
#TITLETRANSLIT:;
#SUBTITLETRANSLIT:;
#ARTISTTRANSLIT:;
#GENRE:;
#CREDIT:Loodee;
#BANNER:fubuki-bn.png;
#BACKGROUND:fubuki-bg.png;
#LYRICSPATH:;
#CDTITLE:loodeecdtitle.png;
#MUSIC:Fubuki.ogg;
#OFFSET:-0.712;
#SAMPLESTART:58.602;
#SAMPLELENGTH:17.548;
#SELECTABLE:YES;
#BPMS:0.000=180.000,136.000=90.000,144.000=180.000;
#STOPS:;
#BGCHANGES:;
#KEYSOUNDS:;

//---------------dance-single - Loodee----------------
#NOTES:
     dance-single:
     Loodee:
     Challenge:
     11:
     0.781,1.000,0.114,0.652,0.475:
0000
0000
0000
0000
,
0000
0000
0000
0000
,
0000
0000
0000
0000
,
0000
0000
0000
0000
,
0000
0000
0000
0000
,
0000
0000
0000
0000
,
0000
0000
0000
0000
,
0000
0000
0000
0000
,
0000
0000
0000
0000
,
0001
1000
0001
0010
0100
1000
0100
1000
0010
0100
0001
1000
0010
1000
0001
0010
,
0100
0000
1000
0000
0001
0000
1000
0000
0010
0000
0100
0000
0010
0000
1000
0100
,
0010
0001
0010
0001
0100
0100
2000
0000
,
3100
0000
0010
0000
0100
0000
0001
0100
0010
0000
0100
0000
0001
0000
0010
0100
,
1000
0001
1000
0001
0010
0010
2000
0000
,
3001
0000
0100
0000
0010
0000
0001
0000
1000
0000
0010
0000
0100
0000
0010
1000
,
0001
1000
0010
1000
0100
0100
0002
0000
,
0103
0000
0010
0000
0001
0000
1000
0100
1000
0000
0001
0000
0100
0000
0001
1000
,
0002
0000
0000
0000
0023
0000
0000
0000
0230
0000
0310
0001
1000
0001
0100
0010
,
1000
0000
0200
0000
2300
0000
3200
0320
,
0032
0000
2003
3020
0230
0001
0302
0000
,
0103
0020
2030
3200
,
0302
0000
0203
0000
2300
0001
3001
0100
,
0010
0000
0000
0000
0010
0000
0100
0000
0010
0000
1000
0000
0100
0000
0010
0001
,
0010
0001
1000
0010
0100
0100
0002
0000
,
1003
0000
0000
0000
1000
0000
0100
0000
1000
0000
0010
0000
1000
0000
0100
0010
,
0001
0000
1000
0000
0001
0000
0010
0000
0100
0000
0100
0000
0020
0000
0031
1000
,
0001
0000
0200
0000
0302
0000
0023
0032
,
2003
0000
3020
2030
3002
0103
0200
0000
,
0301
0020
0230
0302
,
2003
0000
3020
0000
0230
1000
1300
0100
,
0010
0000
0000
0000
0010
0000
0100
0000
0010
0000
0001
0000
0010
0000
0001
1000
,
0010
1000
0001
0100
0010
0010
0002
0000
,
0013
0000
0000
0000
0010
0000
0100
0000
0010
0000
1000
0000
0001
0000
1000
0100
,
0020
0000
0000
0000
0130
0010
0001
1000
0010
0000
0100
0000
0010
0000
1000
0000
,
1002
0000
0000
0000
0000
0000
0000
0000
0000
0000
0000
0000
0000
0000
0000
0000
0013
0000
0000
0000
0000
0000
0010
0000
0000
0000
0000
0000
0000
0000
0001
1000
,
0001
0000
0000
0000
0000
0000
0001
0000
1000
0000
0000
0000
0000
0000
0100
0010
0002
0000
0000
0000
0023
0000
0000
0000
0130
0000
1000
0000
0010
0000
0000
0000
,
0110
0000
0000
0000
0101
0000
0000
0001
1000
0000
0100
0000
1100
0000
0000
1000
,
0001
0000
0101
0000
0110
0010
1010
0000
,
1000
0001
0001
0100
0001
0001
0010
0100
,
1000
0100
0100
0010
0100
0100
1000
0001
,
0100
1000
0100
0001
1000
0100
0001
0100
,
1000
0000
0001
0000
0100
0000
0000
0000
0002
0000
0000
0000
0000
0000
0000
0003
,
1100
0100
0010
0001
0100
0010
1000
0010
,
0100
0001
1000
0100
0010
0100
1000
0010
,
0002
0000
0000
0013
0200
0000
0000
0000
,
0301
0010
0100
1000
0010
1000
0001
0010
,
0001
1000
0010
0100
1000
0100
0010
0100
0000
0001
1000
0100
,
1000
0000
0000
0100
0000
0010
0001
0000
0001
0100
0000
0000
,
0010
0001
0010
0100
0000
0001
1000
0000
0001
0010
0000
0100
,
2000
0000
0000
0000
0010
0000
0000
0000
3001
0100
0010
1000
0100
0010
0001
0010
,
0100
1000
0010
1000
0001
0100
0001
0010
,
0100
0010
0001
1000
0020
0000
0000
0130
,
2000
0000
0000
3100
0002
0000
0000
0013
,
2000
0000
0000
3020
,
0130
1000
0001
1000
0010
0100
1000
0000
0000
1100
0000
0100
,
0010
1000
0001
0010
0100
0010
1000
0000
0000
1010
0000
0010
,
0002
0000
0000
1003
0000
1000
0010
0000
0010
0200
0000
0000
,
0302
0000
0000
0000
2003
0000
0000
0000
3100
0010
0001
1000
0001
0100
0001
1000
,
0100
0010
0001
0100
0001
1000
0010
1000
,
1000
0001
0010
0100
1000
0010
0100
0001
,
1000
0100
0010
0001
1000
0001
0100
0010
1000
0001
0010
0100
0010
0100
1000
0010
,
0100
0001
1000
0010
0100
0010
1000
0100
0010
0001
0100
0010
1000
0001
0100
0001
,
2000
0000
0000
0000
,
3000
0000
0000
0000
;

//---------------dance-single - 16ths ending----------------
#NOTES:
     dance-single:
     16ths ending:
     Edit:
     11:
     -1.000,-1.000,-1.000,-1.000,-1.000:
0000
0000
0000
0000
,
0000
0000
0000
0000
,
0000
0000
0000
0000
,
0000
0000
0000
0000
,
0000
0000
0000
0000
,
0000
0000
0000
0000
,
0000
0000
0000
0000
,
0000
0000
0000
0000
,
0000
0000
0000
0000
,
0001
1000
0001
0010
0100
1000
0100
1000
0010
0100
0001
1000
0010
1000
0001
0010
,
0100
0000
1000
0000
0001
0000
1000
0000
0010
0000
0100
0000
0010
0000
1000
0100
,
0010
0001
0010
0001
0100
0100
2000
0000
,
3100
0000
0010
0000
0100
0000
0001
0100
0010
0000
0100
0000
0001
0000
0010
0100
,
1000
0001
1000
0001
0010
0010
2000
0000
,
3001
0000
0100
0000
0010
0000
0001
0000
1000
0000
0010
0000
0100
0000
0010
1000
,
0001
1000
0010
1000
0100
0100
0002
0000
,
0103
0000
0010
0000
0001
0000
1000
0100
1000
0000
0001
0000
0100
0000
0001
1000
,
0002
0000
0000
0000
0023
0000
0000
0000
0230
0000
0310
0001
1000
0001
0100
0010
,
1000
0000
0200
0000
2300
0000
3200
0320
,
0032
0000
2003
3020
0230
0001
0302
0000
,
0103
0020
2030
3200
,
0302
0000
0203
0000
2300
0001
3001
0100
,
0010
0000
0000
0000
0010
0000
0100
0000
0010
0000
1000
0000
0100
0000
0010
0001
,
0010
0001
1000
0010
0100
0100
0002
0000
,
1003
0000
0000
0000
1000
0000
0100
0000
1000
0000
0010
0000
1000
0000
0100
0010
,
0001
0000
1000
0000
0001
0000
0010
0000
0100
0000
0100
0000
0020
0000
0031
1000
,
0001
0000
0200
0000
0302
0000
0023
0032
,
2003
0000
3020
2030
3002
0103
0200
0000
,
0301
0020
0230
0302
,
2003
0000
3020
0000
0230
1000
1300
0100
,
0010
0000
0000
0000
0010
0000
0100
0000
0010
0000
0001
0000
0010
0000
0001
1000
,
0010
1000
0001
0100
0010
0010
0002
0000
,
0013
0000
0000
0000
0010
0000
0100
0000
0010
0000
1000
0000
0001
0000
1000
0100
,
0020
0000
0000
0000
0130
0010
0001
1000
0010
0000
0100
0000
0010
0000
1000
0000
,
1002
0000
0000
0000
0000
0000
0000
0000
0000
0000
0000
0000
0000
0000
0000
0000
0013
0000
0000
0000
0000
0000
0010
0000
0000
0000
0000
0000
0000
0000
0001
1000
,
0001
0000
0000
0000
0000
0000
0001
0000
1000
0000
0000
0000
0000
0000
0100
0010
0002
0000
0000
0000
0023
0000
0000
0000
0130
0000
1000
0000
0010
0000
0000
0000
,
0110
0000
0000
0000
0101
0000
0000
0001
1000
0000
0100
0000
1100
0000
0000
1000
,
0001
0000
0101
0000
0110
0010
1010
0000
,
1000
0001
0001
0100
0001
0001
0010
0100
,
1000
0100
0100
0010
0100
0100
1000
0001
,
0100
1000
0100
0001
1000
0100
0001
0100
,
1000
0000
0001
0000
0100
0000
0000
0000
0002
0000
0000
0000
0000
0000
0000
0003
,
1100
0100
0010
0001
0100
0010
1000
0010
,
0100
0001
1000
0100
0010
0100
1000
0010
,
0002
0000
0000
0013
0200
0000
0000
0000
,
0301
0010
0100
1000
0010
1000
0001
0010
,
0001
1000
0010
0100
1000
0100
0010
0100
0000
0001
1000
0100
,
1000
0000
0000
0100
0000
0010
0001
0000
0001
0100
0000
0000
,
0010
0001
0010
0100
0000
0001
1000
0000
0001
0010
0000
0100
,
2000
0000
0000
0000
0010
0000
0000
0000
3001
0100
0010
1000
0100
0010
0001
0010
,
0100
1000
0010
1000
0001
0100
0001
0010
,
0100
0010
0001
1000
0020
0000
0000
0130
,
2000
0000
0000
3100
0002
0000
0000
0013
,
2000
0000
0000
3020
,
0031
1000
0100
0010
0001
1000
0100
0010
0001
0000
0000
0000
0110
0000
0000
0000
,
0001
0000
0000
1000
0000
0000
0010
0000
0000
0100
0000
0000
0001
0000
0000
1000
0000
0000
0010
0000
0000
0100
0000
0000
0001
0000
0000
0000
0000
0000
0000
0000
0000
0000
0000
0000
1010
0000
0000
0000
0000
0000
0000
0000
1000
0000
0000
0000
,
0002
0000
0000
1003
0000
1000
0100
0000
0100
0020
0000
0000
,
0032
0000
0000
0000
2003
0000
0000
0000
3100
0010
0001
1000
0001
0100
0001
1000
,
0100
0010
0001
0100
0001
1000
0010
1000
,
1000
0001
0010
0100
1000
0010
0100
0001
,
1000
0100
0010
0001
1000
0001
0100
0010
1000
0001
0010
0100
0010
0100
1000
0010
,
0100
0001
1000
0010
0100
0010
1000
0100
0010
0001
0100
0010
1000
0001
0100
0001
,
2000
0000
0000
0000
,
3000
0000
0000
0000
;

//---------------dance-single - Loodee----------------
#NOTES:
     dance-single:
     Loodee:
     Hard:
     8:
     0.574,0.648,0.092,0.790,0.097:
0000
0000
0000
0000
,
0000
0000
0000
0000
,
0000
0000
0000
0000
,
0000
0000
0000
0000
,
0000
0000
0000
0000
,
0000
0000
0000
0000
,
0000
0000
0000
0000
,
0000
0000
0000
0000
0002
0000
0000
0023
,
0230
0000
0000
0000
,
4000
0000
0000
0000
0000
0000
0000
3300
,
1000
0001
0100
0001
0010
0000
0001
1000
,
0010
0000
1000
0100
0010
0001
2000
0000
,
3001
0010
0100
1000
0010
0000
1000
0001
,
0010
0000
0001
0010
0001
1000
0020
0000
,
0130
0001
0100
0010
1000
0000
0100
0010
,
0001
0000
0100
0001
0010
0100
2000
0000
,
3010
1000
0001
0010
0001
0000
0100
0000
,
0020
0230
2300
3200
,
0310
0000
2000
0000
3002
0000
0013
0100
,
0020
0000
0031
1000
0001
0000
0200
0000
,
0301
0020
0230
0302
,
0203
0000
2300
0000
3002
0000
0103
0010
,
1000
0000
1000
0100
0010
0000
0010
0100
,
1000
0000
0001
0100
0010
0100
0002
0000
,
0013
0000
0010
0001
1000
0000
1000
0001
,
0100
0000
0010
1000
0100
0010
0002
0000
,
0103
0000
0002
0000
0023
0000
0031
1000
,
0200
0000
1300
0001
1000
0000
0020
0000
,
0130
0002
0023
2030
,
3020
0000
0032
0000
2003
0000
3001
0010
,
0100
0000
0100
1000
0010
0000
0010
1000
,
0100
0000
1000
0010
0100
0001
2000
0000
,
3001
0000
0001
0010
0100
0000
0100
1000
,
0002
0000
0203
0000
0310
1000
0001
1000
,
0200
0000
0000
0000
0000
0000
0000
0000
0310
0000
0000
0010
0000
0000
0000
0000
,
0002
0000
0000
1000
1003
0000
0000
0000
0020
0000
0230
0000
0302
0000
1003
0000
,
0001
0000
1001
0000
0001
1000
0010
0000
,
0100
0000
0101
0000
0001
1000
0100
0000
,
1000
0010
1000
0100
1000
0010
0100
0001
,
0010
0001
0100
0001
0010
0100
1000
0010
,
0100
0001
0010
0100
1000
0100
0010
0001
,
0100
0010
1000
0000
2000
0000
0000
0000
,
3002
0000
0103
0000
0020
0000
0000
0130
,
0002
0000
0013
0000
0200
0000
0000
1300
,
0020
0000
0000
1030
0200
0000
0000
0310
,
0002
1000
0100
1003
,
0100
1000
0100
1000
0000
0000
0001
0000
0000
0100
0000
0000
,
0011
0000
0000
0010
0000
0001
1000
0000
0000
0010
0000
0000
,
1000
0001
1000
0001
0000
0000
0101
0000
0000
0100
0000
0000
,
0020
0000
1030
0000
0200
0000
0000
0310
,
0002
0000
0103
0000
0020
0000
0000
1030
,
0002
0000
0013
0000
0200
0000
0000
1300
,
0020
0000
0000
0130
0002
0000
0000
0013
,
0200
0000
0000
0000
0000
0300
2000
0000
,
3001
1000
0001
1000
0100
0010
0001
0000
0000
1001
0000
0000
,
0001
1000
0001
1000
0010
0100
0001
0000
0000
0110
0000
0000
,
0002
0000
0000
0013
0000
0100
1000
0000
0000
0020
0000
0000
,
0230
2300
3200
0320
,
2030
0001
0100
3001
,
0012
0000
1000
0000
0203
0000
0000
0310
,
4000
0004
0000
0000
0000
0000
0000
0000
0000
0000
0000
0000
0000
0000
0000
0000
,
0000
0000
0000
0000
0000
0000
0000
3003
,
2002
0000
0000
0000
0000
0000
0000
3003
;

//---------------dance-single - Loodee----------------
#NOTES:
     dance-single:
     Loodee:
     Medium:
     6:
     0.502,0.568,0.183,0.824,0.000:
0000
0000
0000
0000
,
0000
0000
0000
0000
,
0000
0000
0000
0000
,
0000
0000
0000
0000
,
0000
0000
0000
0000
,
0000
0000
0000
0000
,
0000
0000
0000
0000
,
0000
0000
0000
0000
,
0000
0000
0000
0000
,
0001
1000
0001
1000
0001
1000
0001
1000
,
0010
0000
1000
0001
0100
0000
0010
0000
,
1000
0000
0001
0000
1000
0100
2000
0000
,
3001
0000
0010
0100
0010
0000
0001
0000
,
1000
0000
0010
0000
0100
0001
2000
0000
,
3100
0000
0010
0001
0010
0000
0001
0000
,
0100
0000
0001
0000
1000
0010
0200
0000
,
0301
0000
1000
0100
0010
0000
0001
0000
,
0020
0230
2300
3020
,
0130
0000
0002
0000
0023
0000
0031
1000
,
0001
0100
0010
2000
,
3100
0020
0032
2003
,
3002
0203
0320
2030
,
3100
0000
1000
0100
0010
0000
0001
0000
,
1000
0000
0001
0100
0001
0100
0002
0000
,
0013
0000
0100
1000
0100
0000
1000
0000
,
0010
0000
0100
0001
1000
0001
2000
0000
,
3010
0000
2000
0000
3200
0000
1300
0001
,
0010
0001
0100
0002
,
0013
0200
2300
3020
,
0230
0302
0023
0230
,
1300
0000
0001
0010
0100
0000
1000
0000
,
0001
0000
1000
0010
1000
0010
0200
0000
,
0301
0000
0010
0001
0010
0000
0001
0000
,
0200
0302
2003
3200
,
0320
0031
2000
3010
,
0102
0000
1003
0000
0020
0230
0320
0030
,
1000
1001
0001
1001
,
2000
3200
0320
0032
,
1003
0001
1000
0001
1000
0001
0010
0000
,
0001
0100
0010
0100
0010
0100
0010
0000
,
2000
0000
0000
0000
0000
0000
0000
3100
,
0020
0031
0000
0000
,
1002
0000
0000
0000
0023
0000
0000
0130
,
2000
0000
0000
3000
0020
0000
0000
0130
,
0002
0000
0000
0013
0002
0000
0000
1003
,
0200
0000
0000
0000
0000
0300
1000
0000
,
1010
0010
0100
0001
,
0011
0010
0100
0010
,
1001
0010
1001
0100
,
1001
0000
1000
0000
0200
0000
0000
0310
,
0002
0000
0000
0003
0200
0000
0000
0310
,
2000
0000
0000
3000
0200
0000
0000
0310
,
0002
0000
0000
0013
0200
0000
0000
1300
,
0020
0000
0000
0000
0000
0030
0010
0000
,
1010
1100
1001
0000
,
0011
0110
1100
0000
,
2000
3020
0230
0302
,
0023
0230
2300
3020
,
0230
0000
0000
0000
,
0301
0000
1000
0000
0200
0000
0000
0310
,
0002
0000
0000
0000
,
0000
0000
0000
0000
0000
0000
0000
0003
,
1001
0000
0000
0000
;

//---------------dance-single - Loodee----------------
#NOTES:
     dance-single:
     Loodee:
     Easy:
     3:
     0.389,0.568,0.183,0.675,0.000:
0000
0000
0000
0000
,
0000
0000
0000
0000
,
0000
0000
0000
0000
,
0000
0000
0000
0000
,
0000
0000
0000
0000
,
0000
0000
0000
0000
,
0000
0000
0000
0000
,
0000
0000
0000
0000
,
2000
0000
0000
0000
,
0001
0001
0001
0001
,
3001
0010
0001
0100
,
0001
1000
0010
0020
,
0130
0001
0100
0010
,
0100
0001
1000
2000
,
3100
0010
0100
1000
,
0100
0010
0001
0002
,
1003
0001
1000
0001
,
0200
0320
2030
3002
,
1003
0100
0010
0000
,
0001
1000
0001
0100
,
0000
0002
2003
3002
,
0023
0230
2300
3200
,
1300
0000
1010
0000
,
0101
0000
0001
0002
,
0013
0000
0110
0000
,
1100
0000
1000
2000
,
3001
0010
0001
0000
,
1000
0001
0100
0001
,
0000
2000
3020
2030
,
3002
0203
0302
2003
,
3001
0000
0011
0000
,
0110
0000
0100
0200
,
1300
0000
1001
0000
,
0102
2003
3002
2003
,
3100
0000
0010
0000
,
0011
0000
0001
1000
,
1002
0000
0013
0001
,
0002
0203
0320
2030
,
3001
0001
0001
0001
,
0010
0010
0010
0010
,
0100
0100
1000
1000
,
0001
1000
0001
0000
0000
0000
0000
0000
,
2001
0000
3200
0000
,
0320
0030
0002
0000
,
0203
0000
0320
0000
,
0230
0000
0300
0001
,
1001
1000
1000
0000
,
1010
0010
0010
0000
,
0100
0001
1000
0100
,
0010
0001
0010
0100
,
2000
0000
3002
0000
,
0203
0300
0020
0000
,
2030
0000
3200
0000
,
0020
0000
0000
0330
,
0001
0001
0011
0000
,
1000
1000
1010
0000
,
0002
0023
0230
2300
,
3020
0230
0320
2030
,
3002
0000
0010
0000
,
1003
0010
0200
0000
,
0020
0000
0000
0000
,
0000
0000
0000
0330
,
1001
0000
0000
0000
;
