#TITLE:DIAVOLO;
#SUBTITLE:;
#ARTIST:度胸兄弟;
#TITLETRANSLIT:;
#SUBTITLETRANSLIT:;
#ARTISTTRANSLIT:;
#CREDIT:;
#BANNER:;
#BACKGROUND:;
#LYRICSPATH:;
#CDTITLE:;
#MUSIC:DIAVOLO.mp3;
#OFFSET:-6.040;
#SAMPLESTART:12.000;
#SAMPLELENGTH:12.000;
#SELECTABLE:YES;
#BPMS:0.000=160.000;
#STOPS:;
#BGCHANGES:;

//---------------dance-single - ----------------
#NOTES:
     dance-single:
     :
     Challenge:
     9:
     0.713,0.646,0.368,0.202,0.425: // measure 1
1001
0100
2002
3003
,  // measure 2
1001
0010
2002
3003
,  // measure 3
1100
0101
1010
0011
,  // measure 4
0001
0100
0010
1000
2002
0000
3003
0000
,  // measure 5
0001
0010
0100
1000
0001
0100
1000
1000
,  // measure 6
1000
0100
0010
1000
0001
1000
1100
0000
,  // measure 7
0010
0001
1000
0001
0100
0010
0001
0001
,  // measure 8
0001
0010
1000
0100
1000
0001
1001
0000
,  // measure 9
0101
0000
0000
0000
0010
0000
1000
0001
1000
0000
0000
0000
0010
0000
0000
0000
,  // measure 10
1001
0000
0000
0000
0100
0000
0010
0001
0010
0000
0000
0000
1001
0000
0000
0000
,  // measure 11
0100
0000
0000
0001
1000
0000
0001
0000
0100
0000
0000
0001
1000
0000
0001
0000
,  // measure 12
0010
0000
0000
0001
0010
0100
1000
0002
2000
0000
0000
0000
3003
0000
0000
0000
,  // measure 13
1000
0020
0001
0000
0100
0000
1030
0000
,  // measure 14
1000
0200
0001
0000
0010
0000
1300
0000
,  // measure 15
1000
0100
0010
0000
0001
0100
0010
0000
,  // measure 16
1000
0010
0001
0010
1000
0100
0010
0100
,  // measure 17
2002
0000
0000
0000
,  // measure 18
0000
0000
0000
3003
,  // measure 19
0001
0000
1000
0001
1000
0000
0001
0000
0100
0000
0010
0000
1000
0000
0000
0000
,  // measure 20
0100
0000
0010
0001
0010
0000
0001
0000
1000
0001
1000
0001
0200
0000
0000
0000
,  // measure 21
0310
0000
1000
0001
0010
0000
0100
0000
0010
0000
0001
0000
0100
0000
0010
0000
,  // measure 22
1000
0000
0001
0100
0010
0000
1000
0000
0010
0000
0100
0000
0001
0000
0010
0000
,  // measure 23
0100
0000
0010
0001
0100
0000
0001
0000
0100
0000
0010
1000
0100
0000
1000
0000
,  // measure 24
0001
0100
0010
1000
2002
0000
3003
0000
,  // measure 25
0001
0010
0001
1000
0000
0000
1000
0010
1000
0001
0000
0000
,  // measure 26
0001
0100
0010
1000
0000
0000
2002
0000
0000
3003
0000
0000
,  // measure 27
1000
0100
1000
0100
0000
0100
0010
0001
0010
0001
0000
0001
,  // measure 28
0100
0010
1000
0001
0010
0200
0010
0000
0010
0000
0310
0000
,  // measure 29
0001
1000
0001
0100
0010
0100
0010
0000
0000
1001
0000
0000
,  // measure 30
1000
0001
1000
0100
0010
0100
0010
0000
0000
1001
0000
0000
,  // measure 31
0001
0100
0010
1000
0100
0010
0001
0100
0010
1000
0100
0010
,  // measure 32
0001
0010
0100
1000
0100
0010
0002
0000
0000
0003
0000
0000
,  // measure 33
1000
0000
0001
0100
0001
0000
1000
0000
0001
0000
1000
0100
1000
0000
0001
0010
,  // measure 34
0001
0000
1000
0100
1000
0000
0001
1000
0001
0000
0000
0001
0100
0000
0000
0100
,  // measure 35
0010
0000
0000
0000
1000
0100
1000
0100
1000
0000
0000
0000
0001
0100
0001
0100
,  // measure 36
0001
0000
1000
0100
0010
0001
0100
0010
,  // measure 37
1000
0001
1000
0000
0001
0000
0100
0000
0010
0000
1000
0000
0100
0000
0000
0000
,  // measure 38
0010
0001
0010
0000
0001
0000
0100
0000
0001
0000
1000
0000
0100
0000
0010
0000
,  // measure 39
0001
0100
0010
0000
1000
0000
0000
0000
0001
0010
0100
0000
1000
0000
0000
0000
,  // measure 40
0001
0100
0001
0000
1000
0000
0010
1000
0010
0000
1000
0000
0100
0000
0010
0000
,  // measure 41
0011
0000
0001
0100
1000
0100
0001
0010
,  // measure 42
1100
0000
1000
0100
0001
0100
1000
0001
,  // measure 43
1001
0000
0001
0100
1000
0100
0001
0010
,  // measure 44
1000
0010
0100
0010
0011
0000
1100
0000
,  // measure 45
1001
0000
0000
0000
0001
0000
0100
0001
1000
0000
0100
0000
0010
0000
0001
0000
,  // measure 46
1001
0000
0000
0000
0001
0000
0010
0001
1000
0000
0010
0000
0100
0000
0001
0000
,  // measure 47
0101
0000
0001
1000
1100
0000
0010
0100
,  // measure 48
0001
1000
0100
0010
0011
0000
1001
0001
,  // measure 49
0100
1000
0100
0001
0010
1000
0010
0001
,  // measure 50
0100
0010
0001
0010
1000
1000
0100
0100
,  // measure 51
0001
0001
0010
0010
1000
1000
0100
0100
,  // measure 52
0010
0000
0001
0000
1000
0000
0001
0000
1000
0000
0001
0100
0001
0000
1000
0100
,  // measure 53
1000
0000
0001
0000
0010
0000
0000
0000
0001
0000
1000
0010
1000
0000
0001
0100
,  // measure 54
0001
0000
0000
0000
1100
0000
0000
0000
0001
0000
1000
0100
0010
0000
0001
0100
,  // measure 55
0010
0000
1000
0000
0001
0000
0100
0000
0010
0000
1000
0010
0100
0000
0001
0010
,  // measure 56
0100
0010
1001
0000
0001
0100
1100
0100
,  // measure 57
0101
0000
1000
0010
1000
0010
0011
0010
,  // measure 58
0110
0000
0100
0001
1000
0100
0001
0100
,  // measure 59
1000
0010
0001
0010
1000
0100
0010
0001
,  // measure 60
2002
0000
0000
0000
3003
0000
0000
0000
1000
0000
0100
1000
0100
0000
1000
0000
,  // measure 61
0001
0000
0100
0001
0100
0000
0010
0000
1000
0000
0010
1000
0010
0000
1000
0000
,  // measure 62
1010
0000
0000
0000
0101
0000
0000
0000
0010
0000
0001
1000
0001
0000
0100
0000
,  // measure 63
0010
0000
1000
0001
1000
0000
0100
0000
0010
0000
0001
1000
0001
0000
0100
0000
,  // measure 64
0101
0000
0000
0000
1010
0000
0000
0000
1000
0000
0100
0001
0100
0000
1000
0000
,  // measure 65
0001
0000
0100
1000
0100
0000
0001
0000
1000
0000
0100
0001
0100
0000
1000
0000
,  // measure 66
0001
0000
0000
0000
1000
0000
0000
0000
0010
0100
0010
0100
0010
0100
0010
0100
,  // measure 67
0010
1000
0010
1000
0010
1000
0010
1000
0001
0000
0000
0000
2002
0000
0000
0000
,  // measure 68
3003
0000
0000
0000
;

//---------------dance-single - ----------------
#NOTES:
     dance-single:
     :
     Hard:
     8:
     0.615,0.585,0.438,0.272,0.149: // measure 1
1100
0010
0202
0303
,  // measure 2
0011
0100
2020
3030
,  // measure 3
1100
1010
0101
0011
,  // measure 4
1000
0001
0100
0010
2002
0000
3003
0000
,  // measure 5
0001
1000
0100
0010
0100
1000
0001
0001
,  // measure 6
0001
1000
0010
0100
0001
0100
0101
0000
,  // measure 7
1000
0001
0100
0001
0010
0100
1000
1000
,  // measure 8
1000
0001
0100
0010
1000
0001
1001
0000
,  // measure 9
0110
0000
0000
0000
0010
0000
0000
1000
0001
0000
0000
0000
1100
0000
0000
0000
,  // measure 10
0001
0000
0000
0000
1000
0000
0000
0001
0100
0000
0000
0000
0101
0000
0000
0000
,  // measure 11
0010
0000
0000
1000
0100
0000
0000
0000
1000
0000
0000
0001
0100
0000
0000
0000
,  // measure 12
0010
0000
0000
1000
0001
0000
1000
0000
2002
0000
0000
0000
3003
0000
0000
0000
,  // measure 13
1000
0200
0001
0000
1000
0000
0001
0000
,  // measure 14
1000
0001
1300
1001
,  // measure 15
0001
0200
1000
0000
0001
0000
1000
0000
,  // measure 16
0001
0000
1000
0000
0301
0001
1001
0000
,  // measure 17
0220
0000
0000
0000
,  // measure 18
0000
0000
0000
0330
,  // measure 19
1000
0001
1000
0001
0100
0010
0100
0000
,  // measure 20
0001
1000
0001
1000
0100
0010
0200
0000
,  // measure 21
1300
0000
1001
0000
0001
0100
1000
0100
,  // measure 22
0001
0000
1001
0000
0001
0010
1000
0010
,  // measure 23
0001
1001
0100
1010
,  // measure 24
0001
0100
0001
1000
2002
0000
3003
0000
,  // measure 25
0002
0000
0000
0103
0000
0100
0020
0000
0000
1030
0000
1000
,  // measure 26
0200
0000
0000
0310
0000
0010
0002
0000
0000
0003
0000
0000
,  // measure 27
0201
0000
0000
0310
0000
1000
0002
0000
0000
0013
0000
0100
,  // measure 28
0010
0100
0010
0001
1000
0001
2000
0000
0001
0000
3001
0000
,  // measure 29
0001
0000
0100
0010
0000
0010
1000
0000
0000
1001
0000
0000
,  // measure 30
1000
0000
0100
0010
0000
0010
0001
0000
0000
1010
0000
0000
,  // measure 31
1000
0010
1000
0001
0000
0000
0001
0010
0001
1000
0000
0000
,  // measure 32
1000
0100
1000
0001
0100
0002
2000
0000
0000
3003
0000
0000
,  // measure 33
1000
0100
1000
0100
0010
0001
0010
0001
,  // measure 34
1000
0000
0010
0000
0001
0000
0010
0000
1000
0000
0000
1000
0001
0000
0000
0001
,  // measure 35
1000
0000
0001
0001
0001
0000
1000
1000
,  // measure 36
1000
0000
0010
0010
0100
0001
0010
0100
,  // measure 37
0020
0000
0031
0100
0001
0100
0010
1000
,  // measure 38
0200
0000
0310
0100
1000
0100
0010
0001
,  // measure 39
2000
0000
3001
0100
0002
0000
1003
0010
,  // measure 40
0200
0000
0310
0100
0001
1000
0001
1000
,  // measure 41
0110
0000
0100
0001
0010
0100
1000
0100
,  // measure 42
1100
0000
0100
1000
0010
0100
0001
0010
,  // measure 43
0011
0000
0001
0100
1000
0100
0001
0010
,  // measure 44
0100
0001
0100
1000
1100
0000
0011
0000
,  // measure 45
1001
0000
0001
0100
0010
1000
0100
0010
,  // measure 46
0011
0000
0001
0100
0010
1000
0010
1000
,  // measure 47
1100
0000
0010
0001
0101
0000
0010
1000
,  // measure 48
0100
0010
0001
0010
1100
0000
0011
0010
,  // measure 49
0001
0100
1000
0100
0001
0010
1000
0010
,  // measure 50
0001
1000
0100
0010
0001
0001
1000
1000
,  // measure 51
0010
0010
0100
0100
0010
1000
0100
0010
,  // measure 52
0001
0000
0100
0000
0010
0000
1000
0000
0001
0000
0100
0001
0100
0000
0000
0000
,  // measure 53
1010
0000
0000
0000
1001
0000
0000
0000
1000
0000
0001
0010
0001
0000
0000
0000
,  // measure 54
1000
0000
0100
0000
0010
0000
0001
0000
0100
0000
0001
0100
0001
0000
0000
0000
,  // measure 55
0110
0000
0000
0000
1001
0000
0000
0000
1000
0000
0100
1000
0100
0000
0000
0000
,  // measure 56
1000
0100
0010
0001
0100
0000
0110
0010
,  // measure 57
1000
0000
0100
0010
0001
0000
1001
1000
,  // measure 58
0010
0000
0100
0001
0010
0100
1000
0100
,  // measure 59
0010
0100
1000
0100
0010
0001
0100
0010
,  // measure 60
0110
0000
1001
0000
1000
0010
0100
0001
,  // measure 61
1000
0100
0010
0001
1000
0010
0100
0001
,  // measure 62
0011
0000
1100
0000
0010
0001
0100
1000
,  // measure 63
0100
0001
0010
1000
0010
0001
1000
0010
,  // measure 64
0101
0000
1010
0000
1000
0100
1000
0100
,  // measure 65
0001
0100
0001
0100
1000
0010
0001
0010
,  // measure 66
1000
0001
2000
0000
,  // measure 67
0002
0000
3003
1001
;

//---------------dance-single - ----------------
#NOTES:
     dance-single:
     :
     Medium:
     6:
     0.514,0.468,0.465,0.368,0.035: // measure 1
2002
3003
0110
0000
,  // measure 2
0220
0330
1001
0000
,  // measure 3
1010
0101
0011
1100
,  // measure 4
1000
0001
1000
0001
0200
0000
0300
0000
,  // measure 5
0001
0000
0100
0000
0001
0000
1000
0100
,  // measure 6
0010
0000
0100
0000
1000
0001
1000
0000
,  // measure 7
0001
0000
0100
0000
0010
0000
1000
0010
,  // measure 8
0100
0000
0001
0000
0100
0010
0100
0000
,  // measure 9
0020
0000
1000
1000
1000
0000
0130
0000
,  // measure 10
2000
0000
0001
0001
0001
0000
3100
0000
,  // measure 11
0001
0100
0001
0000
1000
0100
1000
0000
,  // measure 12
0001
0000
0000
0001
1000
0000
0000
2000
0002
0000
0000
0000
3003
0000
0000
0000
,  // measure 13
2001
0010
0001
0010
,  // measure 14
0100
0010
0100
3010
,  // measure 15
1002
0010
1000
0010
,  // measure 16
0100
0010
0100
0013
,  // measure 17
0220
0000
0000
0000
,  // measure 18
0000
0000
0000
0330
,  // measure 19
2000
0000
0000
3001
1000
0100
1000
0000
,  // measure 20
0002
0000
0000
1003
0010
0100
0001
0000
,  // measure 21
0110
0000
1001
0000
0100
0001
1000
0100
,  // measure 22
0010
0000
1001
0000
0001
0100
0010
1000
,  // measure 23
0001
0000
0100
0001
1000
0000
0010
1000
,  // measure 24
0010
1000
0001
0200
0010
0000
0310
0000
,  // measure 25
1001
0100
1010
0100
,  // measure 26
0011
0110
2002
3003
,  // measure 27
1001
0010
0101
0010
,  // measure 28
1100
0011
2002
3003
,  // measure 29
0001
0000
0100
0001
0000
0200
0002
0000
0000
0303
0000
0000
,  // measure 30
1000
0000
0100
1000
0000
0200
2000
0000
0000
3300
0000
0000
,  // measure 31
0001
0000
0001
1000
0000
0000
1000
0000
1000
0001
0000
0000
,  // measure 32
0011
1100
2002
3003
,  // measure 33
0001
0100
0001
0000
1000
0100
1000
0000
,  // measure 34
0001
0010
0100
0010
0002
0000
0010
0000
,  // measure 35
1003
0000
0001
1000
0010
0000
0100
0010
,  // measure 36
1000
0000
0001
0010
0100
0010
0001
0000
,  // measure 37
1000
0010
0200
0000
1000
0000
0301
0000
,  // measure 38
0001
0010
0200
0000
0001
0000
1300
0000
,  // measure 39
0001
1000
0002
0000
0100
0100
0103
0000
,  // measure 40
0010
0000
1001
0000
1000
0100
0010
0000
,  // measure 41
2001
0000
0010
0000
3001
1000
0010
0100
,  // measure 42
0002
0000
0010
0000
1003
0001
0010
0100
,  // measure 43
0020
1000
0100
0031
,  // measure 44
0001
0100
0010
0000
0101
0000
1010
0000
,  // measure 45
1001
0000
0001
1000
0200
0000
0310
0000
,  // measure 46
1001
0000
0001
1000
0020
0000
0130
0000
,  // measure 47
1001
0000
0001
1000
0100
0000
1000
0100
,  // measure 48
0110
0011
1002
0100
,  // measure 49
0010
0010
0100
0100
,  // measure 50
1000
0000
1003
0000
0001
0100
0001
0000
,  // measure 51
1000
0010
1000
0000
0001
0010
0001
0000
,  // measure 52
1000
0100
1000
0000
1001
0000
0100
0000
,  // measure 53
0001
0010
0100
0010
0001
0000
1000
0000
,  // measure 54
0010
0100
0002
0000
1003
0000
0010
0000
,  // measure 55
0100
0001
0100
0001
1000
0000
0001
0000
,  // measure 56
0010
0001
2000
0000
3010
0000
1001
0000
,  // measure 57
0100
0001
0010
1100
,  // measure 58
0010
0000
0001
0000
0010
0001
0100
0000
,  // measure 59
0010
1000
0001
0000
1010
0000
0101
0000
,  // measure 60
0220
0000
0330
0000
0010
1000
0100
0000
,  // measure 61
0010
0001
0100
0000
0001
1000
0001
1000
,  // measure 62
0001
0000
1001
0000
1000
0100
1000
0000
,  // measure 63
0001
0010
0001
0000
1000
0100
0010
0001
,  // measure 64
0100
0110
1010
1010
,  // measure 65
1100
1010
0101
0011
,  // measure 66
1001
0000
2000
0000
,  // measure 67
0002
0000
3003
1001
;

//---------------dance-single - ----------------
#NOTES:
     dance-single:
     :
     Easy:
     4:
     0.370,0.439,0.386,0.316,0.000: // measure 1
1001
0000
1001
0000
,  // measure 2
0110
0000
0110
0000
,  // measure 3
0010
0010
0100
0100
,  // measure 4
1000
0001
2002
3003
,  // measure 5
0001
1000
0100
0100
,  // measure 6
0100
1000
0001
0000
,  // measure 7
0100
0010
1000
1000
,  // measure 8
1000
0001
0010
0000
,  // measure 9
0001
0100
0001
0000
,  // measure 10
1000
0100
1000
0000
,  // measure 11
0001
0100
0010
1000
,  // measure 12
0100
0010
0100
0000
,  // measure 13
2001
0001
0001
0001
,  // measure 14
0010
0010
0010
3010
,  // measure 15
0120
0100
0100
0100
,  // measure 16
1000
1000
1000
1030
,  // measure 17
2002
0000
0000
0000
,  // measure 18
3003
0000
0000
0000
,  // measure 19
2000
0000
3010
0000
,  // measure 20
0002
0000
0013
0000
,  // measure 21
0001
1000
0010
0100
,  // measure 22
0010
1000
0100
0010
,  // measure 23
0100
0010
0001
1000
,  // measure 24
0010
0100
2002
3003
,  // measure 25
1001
0001
0100
0010
,  // measure 26
0110
0100
0220
0330
,  // measure 27
0110
0010
1000
0001
,  // measure 28
1001
1000
2002
3003
,  // measure 29
1001
0001
0010
0100
,  // measure 30
0110
0010
0001
1000
,  // measure 31
1001
0001
1001
1000
,  // measure 32
1001
0110
2002
3003
,  // measure 33
1000
1000
0001
0001
,  // measure 34
0100
0100
0010
0010
,  // measure 35
2000
0000
3002
0000
,  // measure 36
0203
0000
0310
0100
,  // measure 37
0010
0100
0001
0000
,  // measure 38
1000
0100
0010
0000
,  // measure 39
0100
0010
0100
0010
,  // measure 40
0001
1000
0001
1000
,  // measure 41
2002
3003
0001
0100
,  // measure 42
0010
0000
0100
0010
,  // measure 43
0110
0000
1000
0001
,  // measure 44
1000
0100
0010
0001
,  // measure 45
2002
3003
1000
0001
,  // measure 46
1001
0000
0001
0100
,  // measure 47
0110
0000
0010
1000
,  // measure 48
0001
0010
0220
0000
,  // measure 49
0000
0000
0000
0000
,  // measure 50
0000
0330
0010
0100
,  // measure 51
0010
0100
1000
0001
,  // measure 52
1000
0001
2002
3003
,  // measure 53
0001
0100
0220
0330
,  // measure 54
0010
1000
2002
3003
,  // measure 55
0001
0010
0220
0330
,  // measure 56
0100
0010
0001
1001
,  // measure 57
1000
0000
0100
0110
,  // measure 58
0010
0000
0001
0100
,  // measure 59
0010
1000
1002
1000
,  // measure 60
1000
1003
1001
0100
,  // measure 61
0001
0100
0010
1000
,  // measure 62
1001
1001
1001
0010
,  // measure 63
0001
1000
0100
0010
,  // measure 64
1001
1001
1001
0001
,  // measure 65
0100
1000
0100
0001
,  // measure 66
1001
0000
0002
0000
,  // measure 67
2000
0000
3003
1001
;

//---------------dance-single - ----------------
#NOTES:
     dance-single:
     :
     Beginner:
     2:
     0.195,0.293,0.193,0.070,0.000: // measure 1
1000
0000
1000
0000
,  // measure 2
0001
0000
0001
0000
,  // measure 3
0100
0100
0100
0000
,  // measure 4
0010
0010
0010
0000
,  // measure 5
1000
0000
0100
0100
,  // measure 6
0100
0000
1000
0000
,  // measure 7
0001
0000
0100
0100
,  // measure 8
0100
0000
0001
0000
,  // measure 9
1001
0000
0001
0000
,  // measure 10
1000
0000
0001
0000
,  // measure 11
0100
0000
0010
0000
,  // measure 12
0100
0100
0100
0000
,  // measure 13
0010
0000
0010
0000
,  // measure 14
1000
0000
1000
0000
,  // measure 15
0001
0000
0001
0000
,  // measure 16
0010
0000
0010
0000
,  // measure 17
0220
0000
0000
0000
,  // measure 18
0330
0000
0000
0000
,  // measure 19
1000
0000
0000
0000
,  // measure 20
0001
0000
0000
0000
,  // measure 21
1000
0000
1000
0000
,  // measure 22
0001
0000
0001
0000
,  // measure 23
0100
0000
0010
0000
,  // measure 24
0100
0000
0110
0000
,  // measure 25
1001
0000
1001
0000
,  // measure 26
2002
0000
3003
0000
,  // measure 27
0110
0000
0110
0000
,  // measure 28
0220
0000
0330
0000
,  // measure 29
0010
0000
1000
0000
,  // measure 30
0001
0000
0010
0000
,  // measure 31
0100
0000
0010
0000
,  // measure 32
0220
0000
0330
0000
,  // measure 33
0001
0000
1000
0000
,  // measure 34
0001
0000
0100
0000
,  // measure 35
0010
0000
0010
0000
,  // measure 36
0100
0000
0100
0000
,  // measure 37
0001
0000
1000
0000
,  // measure 38
0001
0000
1000
0000
,  // measure 39
0100
0000
0100
0000
,  // measure 40
0010
0000
0010
0000
,  // measure 41
1001
0000
0000
0000
,  // measure 42
0110
0000
0000
0000
,  // measure 43
0001
0000
1000
0000
,  // measure 44
0001
0000
1000
0000
,  // measure 45
1001
0000
0000
0000
,  // measure 46
0110
0000
0000
0000
,  // measure 47
0010
0000
0100
0000
,  // measure 48
0001
0000
1001
0000
,  // measure 49
0000
0000
0000
0000
,  // measure 50
0000
0000
1000
0000
,  // measure 51
1000
0000
1000
0000
,  // measure 52
1000
0000
1001
0000
,  // measure 53
0000
0000
0110
0000
,  // measure 54
0010
0000
0110
0000
,  // measure 55
0000
0000
1001
0000
,  // measure 56
1000
0000
0001
0001
,  // measure 57
0001
0000
1000
1000
,  // measure 58
1000
0000
0010
0000
,  // measure 59
0100
0000
0010
0010
,  // measure 60
0010
0010
0010
0000
,  // measure 61
0100
0000
0001
0000
,  // measure 62
1000
0000
1001
0000
,  // measure 63
0001
0000
0010
0000
,  // measure 64
0100
0000
0110
0000
,  // measure 65
0010
0000
0001
0000
,  // measure 66
1000
0000
0001
0000
,  // measure 67
1000
0000
0000
1001
;
