#TITLE:Chronoxia;
#SUBTITLE:;
#ARTIST:DJ Totoriott;
#TITLETRANSLIT:;
#SUBTITLETRANSLIT:;
#ARTISTTRANSLIT:;
#GENRE:;
#CREDIT:TaroNuke;
#BANNER:chronoxia-bn.png;
#BACKGROUND:chronoxia-bg.png;
#LYRICSPATH:;
#CDTITLE:;
#MUSIC:chronoxia.ogg;
#OFFSET:-0.768;
#SAMPLESTART:27.447;
#SAMPLELENGTH:12.000;
#SELECTABLE:YES;
#BPMS:0.000=180.000,192.000=90.000,208.000=180.000;
#STOPS:;
#BGCHANGES:;
#KEYSOUNDS:;

//---------------dance-single - TaroNuke----------------
#NOTES:
     dance-single:
     TaroNuke:
     Hard:
     10:
     0.757,0.830,0.087,0.338,0.572:
0000
0000
0000
0000
,
0000
0000
0000
0000
,
0000
0000
0000
0000
,
0000
0000
0000
0000
,
0000
0000
0000
0000
,
0000
0000
0000
0000
,
0000
0000
0000
0000
,
0000
0000
0000
0000
,
1000
0000
0000
0001
0100
0001
0100
0000
0000
0010
1000
0010
,
1000
0000
0000
0001
0010
0100
1000
0010
1000
0001
0100
0001
,
1000
0000
0000
0001
0010
0001
0010
0000
0000
0100
1000
0100
,
1000
0000
0000
0001
0100
0010
1000
0100
0010
0001
1000
0010
,
1010
0110
0101
1001
,
1100
0110
0011
1001
,
1000
0000
0010
0100
0000
0001
1000
0010
0100
0001
0100
0010
,
1000
0000
0000
0000
0100
0000
0010
0000
0001
1000
0001
0000
0010
0000
0100
0000
,
1000
1000
0000
0000
0010
0010
0000
0000
,
0100
0100
0000
0000
0002
0000
2003
0000
,
3001
0001
0000
0000
0010
0010
0000
0000
,
0100
0100
0000
0000
2000
0000
3002
0000
,
1003
0000
0001
0100
0001
0000
1000
0000
0100
0000
0001
0000
0100
0000
1000
0000
,
0001
0000
1000
0100
1000
0000
0001
0000
0100
0000
1000
0000
0100
0000
0001
0000
,
1000
0000
0001
0100
0010
0000
1000
0100
0010
0000
0001
0100
0010
0000
1000
0000
,
0001
0000
0010
0000
0100
0000
1000
0000
0010
0100
0010
0100
0010
0000
1000
0000
,
0001
0000
1000
0100
0010
0000
0001
0000
1000
0000
0010
0000
0100
0000
1000
0000
,
0200
0010
0001
0310
,
1000
0000
0001
0100
0010
0000
1000
0000
0001
0000
0010
0000
0100
0000
0001
0000
,
0200
0010
1000
0310
,
0001
0000
1000
0100
0010
0000
0100
0000
0001
0000
0100
0000
0010
0000
0001
0000
,
0200
0010
0001
0310
,
0001
0000
1000
0100
0010
0000
0001
0100
0010
0000
1000
0100
0010
0000
0001
0100
,
0020
2030
3002
0023
0130
0100
0200
0000
,
1300
0000
0001
0100
1000
0000
0100
0000
0010
0000
1000
0000
0001
0000
0010
0000
,
0200
0001
0010
1300
,
0001
0000
1000
0100
0001
0000
0100
0000
0010
0000
0001
0000
1000
0000
0010
0000
,
0200
0000
1000
0000
0010
0000
0301
1000
,
0001
0000
0001
0000
1000
0100
1000
0100
0010
0000
0010
0000
0001
0000
0100
0000
,
0001
1000
0001
0010
0010
0001
1000
0010
,
0100
0000
0001
0010
0100
0000
1000
0010
0100
0000
0001
0010
0100
0000
1000
0100
,
0010
0010
0002
0000
0103
0100
0020
0000
,
1030
0100
1000
0100
0000
0010
0001
0000
1000
0001
0000
0010
,
0001
0100
0001
0100
0010
1000
0001
1000
0100
0010
0000
0000
,
0001
0100
0001
0100
0000
0010
1000
0000
0001
1000
0000
0010
,
1000
0100
1000
0100
0010
0001
1000
0001
0100
0010
0000
0010
,
1000
0010
1000
0010
0000
0100
0001
0000
1000
0001
0000
0100
,
0001
0010
0100
1000
0010
0100
0001
0010
0100
1000
0000
0000
,
0101
0000
0000
1010
0000
0000
1000
0100
0010
0001
0000
1000
,
0001
0100
0010
1000
0010
0100
0001
0010
0100
1000
0100
0010
,
0002
0000
0203
0000
,
0320
0000
0230
0302
2003
3200
0320
0032
,
2003
0000
3002
0203
,
0320
0000
2030
0000
,
3002
0100
0100
0100
,
0100
0000
0100
0000
0103
0000
0100
0010
,
2000
0100
0100
0100
,
0100
0100
3100
0000
,
1000
0100
0010
0001
1000
0010
0100
0001
,
1000
0100
1000
0100
1000
0001
1000
0001
0200
0000
0000
0000
0310
0000
1000
0000
,
0001
0000
0010
0000
0100
0000
1000
0001
1000
0000
0100
0000
0010
0000
0001
0000
,
0100
0000
1000
0000
0100
0000
0001
0000
0100
0000
0010
1000
0010
0000
0100
0000
,
0001
0010
0100
1000
0001
0100
0010
1000
,
0001
0100
0001
0100
0001
1000
0001
1000
0200
0000
0000
0000
0310
0000
0001
0000
,
2000
0000
0001
0000
0100
0000
3010
0100
,
0002
0000
1000
0000
0010
0010
0013
0000
,
1000
0100
0010
0100
1000
0010
0100
0010
,
1000
0100
0010
0001
1000
0100
0010
0001
0200
0000
0000
0000
0310
0000
1000
0000
,
0001
0000
0000
0000
0010
0000
0001
1000
0001
0000
0100
0000
0010
0000
0100
0000
,
0001
0000
0010
0000
1000
0000
0010
0000
0001
0000
0100
0001
0010
0000
0100
0000
,
1000
0010
0100
0010
1000
0100
0010
0100
,
1000
0010
0100
0001
1000
0010
0100
0001
0020
0000
0000
0000
0130
0000
1000
0000
,
0001
0000
0010
0000
0001
0000
1000
0000
0010
0100
0001
1000
0010
0100
0001
1000
,
0200
0000
0000
0000
0310
0001
1000
0000
0010
0000
0100
0000
0001
0000
0010
0000
,
0001
0000
1000
0010
1000
0000
0001
0000
1000
0000
0100
0000
0001
0000
0100
0000
,
1000
0000
0001
0010
0001
0000
1000
0000
0001
0000
0100
0000
1000
0000
0100
0000
,
0001
0000
1000
0010
0100
0000
0001
0000
0010
0000
1000
0000
0010
0000
0001
0000
,
1000
0000
0001
0010
0100
0000
1000
0000
0010
0000
0001
0000
0010
0000
1000
0000
,
0001
0000
1000
0100
0001
0000
0100
0010
0001
0000
1000
0000
0001
0000
0001
0000
,
1000
0000
0001
0100
1000
0000
0100
0010
1000
0000
0001
0000
1000
0000
1000
0000
,
0001
1000
0001
1000
0100
0010
0100
0010
,
0001
0100
0010
1000
0001
0100
0010
1000
0001
0000
1000
0001
0010
0000
0010
0000
;

//---------------dance-single - TaroNuke----------------
#NOTES:
     dance-single:
     TaroNuke:
     Beginner:
     2:
     0.193,0.207,0.000,0.078,0.000:
0000
0000
0000
0000
,
0000
0000
0000
0000
,
0000
0000
0000
0000
,
0000
0000
0000
0000
,
1000
0000
0000
0000
,
0000
0000
0000
0000
,
1000
0000
0000
0000
,
1000
0000
0000
0000
,
0001
0000
0001
0000
,
0001
0000
0001
0000
,
1000
0000
1000
0000
,
1000
0000
1000
0000
,
0010
0000
0010
0000
,
0010
0000
0010
0000
,
0100
0000
0100
0000
,
0100
0000
0000
0000
,
0001
0000
0010
0000
,
0100
0000
1000
0010
,
1000
0000
0100
0000
,
0010
0000
0001
1000
,
0001
0000
0001
0000
,
1000
0000
1000
0000
,
0010
0000
0010
0000
,
0010
0000
0000
0000
,
1000
1000
1000
0000
,
0002
0000
0003
0000
,
0100
0100
0100
0000
,
0020
0000
0030
0000
,
1000
1000
1000
0000
,
0002
0000
0003
0000
,
0100
0000
0100
0000
,
0010
0000
1000
0000
,
0001
0001
0001
0000
,
2000
0000
3000
0000
,
0100
0100
0100
0000
,
0020
0000
0030
0000
,
0001
0000
1000
0000
,
0100
0000
0010
0000
,
0001
0000
0001
0000
,
1000
0000
1000
0000
,
0100
0000
0000
0000
,
0100
0000
0000
0000
,
0010
0000
0000
0000
,
0010
0000
0000
0000
,
0001
0000
0000
0000
,
0001
0000
0000
0000
,
1000
0000
0000
0000
,
1000
0000
0000
0000
,
0001
0000
0001
0000
,
0001
0001
0001
0000
,
1000
0000
1000
0000
,
1000
0000
0010
0000
,
0001
0000
0000
0000
,
0000
0000
0000
0000
,
0000
0000
0000
0000
,
0000
0000
0000
0000
,
1000
1000
1000
0000
,
0020
0000
1030
0000
,
0100
0100
0100
0000
,
1000
0001
1000
0000
,
0001
0001
0001
0000
,
0020
0000
0031
0000
,
0100
0100
0100
0000
,
0001
1000
0001
0000
,
1000
1000
1000
0000
,
0200
0000
0310
0000
,
0001
0001
0001
0000
,
1000
0001
1000
0000
,
0001
0001
0001
0000
,
0200
0000
0310
0000
,
1000
0001
1000
0001
,
1000
0000
0000
0000
,
0001
0000
0010
0000
,
0100
0000
1000
0010
,
1000
0000
0100
0000
,
0010
0000
0001
1000
,
0001
0000
0001
0000
,
1000
0000
1000
0000
,
0010
0000
0010
0000
,
0010
0010
0010
0000
;

//---------------dance-single - TaroNuke----------------
#NOTES:
     dance-single:
     TaroNuke:
     Easy:
     5:
     0.360,0.415,0.043,0.095,0.017:
0000
0000
0000
0000
,
0000
0000
0000
0000
,
0000
0000
0000
0000
,
0000
0000
0000
0000
,
1000
0000
0001
0000
,
1000
0000
0010
1000
,
0010
0000
0100
0000
,
0010
0000
0100
0001
,
1000
0000
1000
0000
,
1000
0000
1000
0001
,
0010
0000
0010
0000
,
0010
0000
0001
0000
,
0100
0000
0100
0000
,
0100
0000
0100
0000
,
0001
0001
0001
0001
,
0001
0000
1000
0001
,
1000
0000
1000
0000
,
0010
0000
0010
0000
,
0100
0000
0100
0000
,
0001
0000
0001
1000
,
0001
0010
0001
0010
,
0100
1000
0100
1000
,
0001
0100
0001
0100
,
0010
1000
0010
1000
,
0001
0001
1000
1000
,
0200
0010
0010
0310
,
1000
1000
0001
0001
,
0200
0010
0010
0310
,
0001
0001
1000
1000
,
0200
0010
0010
0310
,
1000
0100
0010
0001
,
1000
0010
0100
0001
,
1000
0000
1000
0000
0001
1000
0001
1000
,
0200
0010
0010
0310
,
0001
0000
0001
0000
1000
0001
1000
0001
,
0200
0010
0010
0310
,
1000
0100
0010
0010
,
0001
0100
0010
0010
,
1000
0100
0010
0001
,
1000
0001
1000
0000
0010
0100
0010
0000
,
1000
0000
1000
0000
,
0001
0000
0000
0001
0000
0000
0001
0000
1000
0001
0000
0000
,
0100
0000
0100
0000
,
0010
0000
0000
0010
0000
0000
0010
0000
1000
0010
0000
0000
,
1000
0100
0010
0000
,
0001
0100
0010
0000
,
1000
0001
1000
0001
,
0100
0000
0000
0010
0000
0000
1000
0000
0000
0001
1000
0001
,
2000
0000
3010
0000
,
0002
0000
0013
0000
,
2000
0000
3100
0000
,
0002
0000
2003
0000
,
3020
0000
0100
0000
,
0100
0000
0100
0100
,
0100
0000
0100
0000
,
0100
0000
1030
0000
,
1000
0100
0010
0001
,
1000
0001
1000
0001
0100
0000
0010
0000
,
1000
0010
0100
0001
,
1000
0100
0010
0010
,
0001
0100
0010
1000
,
0001
1000
0001
1000
0100
0000
0010
0000
,
0001
0010
0100
1000
,
0001
0100
0010
0010
,
1000
0001
0100
0010
,
1000
0100
1000
0100
0010
0000
0001
0000
,
1000
0010
0100
0001
,
0100
0010
1000
1000
,
0001
1000
0100
0010
,
0001
0100
0001
0100
0010
0000
1000
0000
,
0001
0010
0100
1000
,
0001
0100
0010
1000
,
0001
0100
0001
0100
,
0010
1000
0010
1000
,
0001
0010
0001
0010
,
0100
1000
0100
1000
,
0001
0001
0001
0001
,
1000
1000
1000
1000
,
1100
0000
0101
0000
,
1100
0000
0101
0000
1100
0000
0010
0010
;

//---------------dance-single - Ama-Tan----------------
#NOTES:
     dance-single:
     Ama-Tan:
     Challenge:
     12:
     0.895,0.994,0.069,0.372,0.966:
0000
0000
0000
0000
,
0000
0000
0000
0000
,
0000
0000
0000
0000
,
0000
0000
0000
0000
,
0000
0000
0000
0000
,
0000
0000
0000
0000
,
0000
0000
0000
0000
,
0000
0000
0000
0000
,
1100
0000
0000
0001
0100
0001
0100
0000
0000
1000
0100
1000
,
0100
0000
0000
0001
0100
0001
1000
0001
0010
0001
0100
0010
,
1000
0000
0000
0001
0010
0001
0010
0000
0000
1000
0010
1000
,
0010
0000
0000
0001
0010
0001
1000
0001
0100
0001
0010
0100
,
1000
0011
1100
0011
,
1010
0101
1010
0101
,
1000
0000
0001
1000
0000
0001
0100
0010
1000
0100
0010
0001
,
1000
0000
0001
0000
0100
0000
0010
0000
1000
0001
1000
0001
0010
0000
0100
0000
,
1000
1000
0000
0000
0001
0001
0000
0000
,
0100
0100
0000
0000
0020
0000
2030
0000
,
3001
0001
0000
0000
0010
0010
0000
0000
,
0100
0100
0000
0000
2000
0000
3002
0000
,
1003
0000
0000
0000
0000
0000
0001
0000
0000
0100
0000
0000
0001
0000
0000
0000
0000
0000
1000
0000
0000
0100
0000
0000
1000
0000
0000
0000
0000
0000
0010
0000
0000
0000
0000
0000
0100
0000
0001
0000
0100
0000
0001
0000
0000
0000
0000
0000
,
1000
0000
0000
0000
0000
0000
0001
0000
0000
0010
0000
0000
0001
0000
0000
0000
0000
0000
1000
0000
0000
0010
0000
0000
1000
0000
0000
0000
0000
0000
0100
0000
0000
0000
0000
0000
0010
0000
0001
0000
0010
0000
0001
0000
0000
0000
0000
0000
,
1000
0100
0010
0001
1000
0000
0001
1000
0100
0000
1000
0001
0100
0000
0001
1000
,
0010
0000
1000
0000
0010
0000
1000
0000
0001
1000
0001
1000
0100
0000
0010
0000
,
0001
0000
0000
0100
0000
0000
0010
0000
0000
1000
0000
0000
0100
0000
0000
0000
0000
0000
0010
0000
0000
0001
0000
0000
1000
0000
0000
0000
0000
0000
0010
0000
0000
0000
0000
0000
1000
0000
0100
0000
0010
0000
0001
0000
0000
0000
0000
0000
,
0200
1000
0001
0310
,
1000
0100
0010
0001
0100
0000
0010
1000
0001
0000
0200
0000
0302
0000
2003
0000
,
3200
0000
0000
0000
0001
0000
0000
0000
1300
0000
0001
1000
0010
1000
0100
0010
,
0001
0000
0000
0100
0000
0000
0010
0000
0000
1000
0000
0000
0100
0000
0000
0000
0000
0000
0010
0000
0000
0100
0000
0000
1000
0000
0000
0000
0000
0000
0001
0000
0000
0000
0000
0000
1000
0000
0010
0000
0100
0000
0001
0000
0000
0000
0000
0000
,
0200
1000
0001
0310
,
1000
0000
0001
0100
0010
0000
1000
0100
0010
0000
0001
0100
0010
0000
1000
0100
,
0020
0000
0000
0032
0000
0000
2003
0000
0000
3020
0000
0000
0130
0000
0000
0001
0000
0000
0100
0001
0100
0001
0100
0001
,
1000
0000
0000
0001
0000
0000
0100
0000
0000
0001
0000
0000
1000
0000
0000
0000
0000
0000
0001
0000
0000
0010
0000
0000
0100
0000
0000
0000
0000
0000
1000
0000
0000
0000
0000
0000
0001
0000
0100
0000
0010
0000
1000
0000
0000
0000
0000
0000
,
0200
0001
1000
0310
,
0001
1000
0100
1000
0001
0000
0100
0010
1000
0000
0001
0000
1000
0000
0100
0000
,
0020
0001
1000
0031
,
1000
0000
1000
0000
0001
0100
0010
1000
0100
0000
0100
0000
0010
0000
0001
0000
,
2000
0000
3010
0100
0200
0000
0301
0010
,
0001
0000
1000
0100
1000
0000
0001
0100
0001
0000
1000
0100
1000
0010
0100
0001
,
1000
1000
0020
0000
0130
0100
0002
0000
,
1003
0100
0010
0001
0100
0010
0001
0010
0100
0001
0010
0100
,
1000
0010
0100
1000
0100
0010
1000
0100
0010
0001
0000
0000
,
1000
0010
0100
0001
0010
0100
0001
0100
0010
0001
0100
0010
,
1000
0100
0010
1000
0010
0100
1000
0010
0100
0001
0000
1000
,
0001
0010
0100
1000
0010
0100
1000
0100
0010
0100
0010
0001
,
0010
0100
0001
0010
1000
0010
0001
0100
0010
1000
0000
0000
,
0001
0100
0010
1000
0100
0010
1000
0010
0100
1000
0010
0100
,
0001
0010
1000
0010
0001
0100
0010
0001
0010
0100
0001
0010
,
0200
0000
2300
0000
,
3020
0000
0230
0302
0023
0230
2300
3002
,
0203
0000
0320
2030
,
3002
0000
0023
0000
,
0230
1000
1000
1000
,
1000
0000
1000
0000
1000
0000
1300
0001
,
0010
0000
0001
0100
0001
0000
1000
0100
1000
0000
0001
0100
0001
1000
0001
0100
,
0001
0000
0000
1000
0000
0000
0001
0000
0000
1000
0000
0000
0001
0000
0000
1000
0000
0000
0001
0000
0000
1000
0000
0000
0010
0000
0000
0000
0000
0000
1000
0000
0100
0000
1000
0000
0100
0000
0000
0000
0000
0000
0010
0000
0000
0000
0000
0000
,
0001
0000
0001
0000
1000
0010
0100
0001
1000
0000
1000
0000
0001
0010
0100
1000
,
0010
0100
0001
0100
0010
1000
0010
0100
0001
0000
0001
0000
1000
0000
0100
0000
,
0010
0000
0001
0000
0010
0000
0001
1000
0001
0000
0100
0000
0010
0000
1000
0000
,
0100
0000
0001
0000
0100
0000
1000
0000
0001
0000
0100
0010
1000
0000
0010
0000
,
0100
0000
0100
0000
0001
0010
0100
1000
0010
0000
0010
0000
1000
0010
0100
0001
,
0010
0100
1000
0100
0010
0001
0010
0100
1000
0000
1000
0000
0010
0000
0100
0000
,
0002
0000
0010
0000
1003
0001
1000
0100
,
0002
0000
0000
0000
0103
0010
0100
0000
1000
0000
0010
0000
0100
0000
0001
0000
,
1000
0000
1000
0000
0001
0100
0010
1000
0001
0000
0001
0000
1000
0100
0010
0001
,
0100
0010
1000
0010
0100
0001
0100
0010
1000
0000
1000
0000
0100
0000
0010
0000
,
0001
0000
0001
0000
1000
0000
0010
0100
0010
0000
1000
0000
0001
0000
0010
0000
,
0100
0000
0001
0000
0100
0000
0010
0000
0001
0000
1000
0010
1000
0000
0001
0000
,
0100
0000
0100
0000
0001
0010
0100
1000
0010
0000
0010
0000
1000
0010
0100
0001
,
0010
0100
1000
0100
0010
0001
0010
0100
1000
0000
1000
0000
0001
0000
0100
0000
,
0001
0000
0010
0000
0100
0000
1000
0000
0001
0100
0001
0100
0010
1000
0010
1000
,
0002
0000
0000
0000
0013
0100
0010
0100
2000
0000
3020
0000
0230
0000
0302
0000
,
1003
0000
0000
0000
0000
0000
0001
0000
0000
0100
0000
0000
0001
0000
0000
0000
0000
0000
1000
0000
0000
0100
0000
0000
0010
0000
0000
0000
0000
0000
0001
0000
0000
0000
0000
0000
0100
0000
0010
0000
0100
0000
0010
0000
0000
0000
0000
0000
,
1000
0000
0000
0000
0000
0000
0001
0000
0000
0010
0000
0000
0001
0000
0000
0000
0000
0000
1000
0000
0000
0010
0000
0000
0100
0000
0000
0000
0000
0000
0001
0000
0000
0000
0000
0000
0010
0000
0100
0000
0010
0000
0100
0000
0000
0000
0000
0000
,
1000
0000
0000
0000
0000
0000
0001
0000
0000
0010
0000
0000
0100
0000
0000
0000
0000
0000
1000
0000
0000
0001
0000
0000
0100
0000
0000
0000
0000
0000
0010
0000
0000
0000
0000
0000
1000
0000
0100
0000
0010
0000
0001
0000
0000
0000
0000
0000
,
1000
0000
0001
0100
0010
0000
1000
0001
0010
0000
0100
0000
1000
0000
0001
1000
,
0001
0000
0000
0000
0000
0000
1000
0000
0000
0100
0000
0000
1000
0000
0000
0000
0000
0000
0001
0000
0000
0100
0000
0000
0010
0000
0000
0000
0000
0000
1000
0000
0000
0000
0000
0000
0100
0000
0010
0000
0100
0000
0010
0000
0000
0000
0000
0000
,
0001
0000
0000
0000
0000
0000
1000
0000
0000
0010
0000
0000
1000
0000
0000
0000
0000
0000
0001
0000
0000
0010
0000
0000
0100
0000
0000
0000
0000
0000
1000
0000
0000
0000
0000
0000
0010
0000
0100
0000
0010
0000
0100
0000
0000
0000
0000
0000
,
0001
0010
0100
1000
0001
0010
0100
1000
,
0001
0100
0010
0100
0001
0100
0010
0100
0001
0000
1000
0100
0010
0000
0020
0000
,
0000
0000
0000
0000
,
0000
0000
0000
0000
,
0030
0000
0000
0000
;

//---------------dance-single - taroNuke----------------
#NOTES:
     dance-single:
     taroNuke:
     Medium:
     8:
     0.579,0.623,0.165,0.320,0.100:
0000
0000
0000
0000
,
0000
0000
0000
0000
,
0000
0000
0000
0000
,
0000
0000
0000
0000
,
0000
0000
0000
0000
,
0000
0000
0000
0000
,
0000
0000
0000
0000
,
0000
0000
0000
0000
,
0101
0000
1100
0000
,
0101
0000
1000
0100
,
0011
0000
1010
0000
,
0011
0000
0100
0010
,
1001
0010
0100
0010
,
1001
0100
0010
0100
,
1001
0000
0000
0001
0000
0000
1000
0001
1000
0001
1000
0001
,
1000
0000
0100
0010
0001
0100
0010
1000
,
0001
0001
0000
0000
0010
0010
0000
0000
,
0100
0100
0000
0000
2000
0000
3002
0000
,
0103
0100
0000
0000
0010
0010
0000
0000
,
1000
1000
0000
0000
0200
0000
0320
0000
,
0031
0001
1000
1000
,
0010
0100
0001
0100
0020
0000
2030
0000
,
3001
0001
0010
0010
,
0200
0000
2300
0000
3001
0100
0010
1000
,
0001
0010
0100
1000
0010
0100
0001
1000
,
0200
0010
1000
0310
,
1000
0010
0100
0001
0010
0100
1000
0001
,
0200
0010
0001
0310
,
0001
1000
0100
1000
0001
0100
0010
1000
,
0200
0010
1000
0310
,
1000
0100
0010
0001
1000
0100
0010
0001
,
0100
1000
0001
0010
0100
0100
0200
0000
,
0301
0010
0100
1000
0010
0100
0001
0010
,
0200
0001
0010
1300
,
1000
0010
0100
0001
0010
0100
1000
0010
,
0200
0000
1000
0000
0010
0000
0301
1000
,
0002
0000
1003
0100
0020
0000
0031
0100
,
0002
0000
1003
0010
0020
0000
1030
0001
,
0200
0010
0010
0010
,
0310
0010
2000
0000
3100
0100
0020
0000
,
0031
1100
0011
1100
,
0001
0000
1000
0010
0000
1000
0001
0000
1000
0010
0000
0000
,
1010
0101
1010
0101
,
1000
0000
0001
0010
0000
0001
1000
0000
0001
0010
0000
0001
,
1000
0000
0100
0010
0000
0001
1000
0000
0100
0010
0000
0100
,
1000
0000
0001
0100
0000
0010
1000
0000
0001
0100
0000
0010
,
1000
0011
1010
0101
,
1000
0100
0010
0001
0000
0000
1000
0010
0100
0001
0000
0000
,
0200
0000
0320
0000
,
2030
0000
3002
0023
0230
2300
3020
0230
,
0302
0000
2003
3200
,
0320
0000
0032
0000
,
2003
0000
0100
0000
,
0100
0000
0100
3010
,
0002
0000
0100
0000
,
0100
0100
0103
0000
,
1000
0100
1000
0100
0010
0100
0010
0100
,
1000
0100
0001
0100
1000
0000
0001
0100
,
0010
1000
0010
0100
0010
1000
0100
0010
,
0001
0100
0010
1000
0100
0010
0100
0010
,
0001
0100
0001
0100
0010
0100
0010
0100
,
0001
0100
1000
0100
0001
0000
0010
0100
,
1000
0001
0100
0010
1000
0010
0100
0001
,
0010
0100
1000
0010
0100
0001
0010
0100
,
1000
0100
0010
0100
1000
0010
0100
0010
,
1000
0100
0001
0100
1000
0000
0010
0100
,
0001
1000
0100
1000
0001
0010
0100
1000
,
0010
0100
0001
0100
0010
1000
0100
0010
,
0001
0100
0010
0100
0001
0010
0100
0010
,
0001
0100
1000
0100
0001
0000
0010
0100
,
1000
0010
1000
0010
0100
0001
0100
0001
,
1000
0000
0001
0010
0100
1000
0001
0000
,
0100
0100
0100
0100
,
0010
0010
0010
0010
,
1000
1000
1000
1000
,
0001
0001
0001
0001
,
1000
0001
0100
0001
1000
0001
0100
0001
,
1000
0010
0100
0010
1000
0010
0100
0010
,
1000
0100
0010
0001
1000
0100
0010
0001
,
1000
0001
1000
0001
0100
0100
0010
0010
;
