#VERSION:0.81;
#TITLE:Act III;
#SUBTITLE:;
#ARTIST:7 Minutes Dead;
#TITLETRANSLIT:;
#SUBTITLETRANSLIT:;
#ARTISTTRANSLIT:;
#GENRE:;
#ORIGIN:;
#CREDIT:;
#BANNER:[Qualifier Singles] - Act III-bn.png;
#BACKGROUND:[Qualifier Singles] - Act III-bg.png;
#PREVIEWVID:;
#JACKET:[Qualifier Singles] - Act III-jacket.png;
#CDIMAGE:;
#DISCIMAGE:;
#LYRICSPATH:;
#CDTITLE:cdtitle.png;
#MUSIC:[Qualifier Singles] - Act III.ogg;
#OFFSET:0.000000;
#SAMPLESTART:44.307999;
#SAMPLELENGTH:14.000000;
#SELECTABLE:YES;
#DISPLAYBPM:130.000000;
#BPMS:0.000=130.000,
172.000=260.000,
176.000=130.000;
#STOPS:172.000=0.231,
173.000=0.231,
174.000=0.231,
175.000=0.230;
#DELAYS:;
#WARPS:;
#TIMESIGNATURES:0.000=4=4;
#TICKCOUNTS:0.000=4;
#COMBOS:0.000=1;
#SPEEDS:0.000=1.000=0.000=0;
#SCROLLS:0.000=1.000;
#FAKES:;
#LABELS:0.000=Song Start;
#BGCHANGES:;
#KEYSOUNDS:;
#ATTACKS:
;

//---------------dance-single - ----------------
#NOTEDATA:;
#CHARTNAME:;
#STEPSTYPE:dance-single;
#DESCRIPTION:;
#CHARTSTYLE:;
#DIFFICULTY:Hard;
#METER:9;
#RADARVALUES:0.535384,0.621370,0.121678,0.219021,0.790908,420.000000,15.000000,27.000000,0.000000,0.000000,0.000000,0.000000,0.000000,0.535384,0.621370,0.121678,0.219021,0.790908,420.000000,15.000000,27.000000,0.000000,0.000000,0.000000,0.000000,0.000000;
#CREDIT:;
#DISPLAYBPM:130.000000;
#NOTES:
// measure 0
0000
0000
0000
0000
,  // measure 1
0000
0000
0000
0000
,  // measure 2
0000
0000
0000
0000
,  // measure 3
0000
0000
0000
0000
,  // measure 4
0010
0010
0010
0010
,  // measure 5
1000
1000
1000
1000
,  // measure 6
0001
0001
0001
0001
,  // measure 7
0100
0200
0000
0300
,  // measure 8
0001
0000
0000
0100
0000
0001
1000
0000
0000
0010
0000
0000
,  // measure 9
1000
0000
0000
0100
0000
1000
0001
0000
0000
0010
0000
0000
,  // measure 10
0100
1000
0010
0001
,  // measure 11
0100
0000
0000
1000
0000
0010
0100
0000
0000
0001
0000
0000
,  // measure 12
1000
0000
0000
0001
0000
0010
0100
0000
0100
1000
0000
0000
,  // measure 13
0010
0000
0000
0100
0000
0001
1000
0000
1000
0100
0000
0000
,  // measure 14
1000
0000
0000
0010
0000
0100
0001
0000
0001
0010
0000
0000
,  // measure 15
1000
0000
0000
0010
0000
0001
0100
0000
0100
0010
0000
0000
,  // measure 16
1000
0000
0000
0001
0010
0001
0100
0000
0100
0010
0000
1000
,  // measure 17
0100
0000
0010
0001
0010
0100
1000
0000
1000
0010
0000
0000
,  // measure 18
0100
0000
0100
0001
0000
0000
1000
0000
1000
0100
0000
0000
,  // measure 19
0010
0000
0010
0001
0000
0001
1000
0000
1000
0010
0000
0000
,  // measure 20
0100
0000
0000
0001
1000
0100
1000
0000
0010
0001
0000
0010
,  // measure 21
1000
0000
1000
0001
0010
0100
0010
0000
0010
0001
0000
0001
,  // measure 22
1000
0000
0010
0100
0010
1000
0001
0000
0010
0001
0000
0001
,  // measure 23
0200
0302
0023
0230
,  // measure 24
1300
0000
1000
0010
0000
0100
0001
0000
0001
1000
0000
0100
,  // measure 25
0010
0000
0010
0001
0000
0100
0010
0000
1000
0000
0010
0000
,  // measure 26
0100
0000
0100
0001
0000
1000
0010
0000
0010
1000
0000
0001
,  // measure 27
0010
0000
0010
1000
0000
1000
0020
0000
0000
0000
0000
0000
,  // measure 28
0130
0000
0100
0010
0000
0001
1000
0000
1000
0010
0000
0100
,  // measure 29
0001
0000
0001
0010
0000
0100
1000
0000
0100
0000
0010
0000
,  // measure 30
0001
0000
0001
0100
0000
1000
0100
0000
0100
0010
0000
0100
,  // measure 31
0001
0000
0001
1000
0000
0100
0010
0001
0010
0001
1000
0001
,  // measure 32
0100
0010
0100
0001
0000
0001
1000
0100
0010
0100
0000
0100
,  // measure 33
1000
0001
0010
0100
0000
0100
1000
0000
1000
0001
0000
0001
,  // measure 34
1000
0010
0100
0010
0000
0010
1000
0001
0010
0001
0000
0001
,  // measure 35
0010
1000
0010
0100
0000
0100
1000
0100
0010
0001
0000
0001
,  // measure 36
0100
0010
1000
0001
0000
1000
0010
0100
0001
0010
0000
0100
,  // measure 37
1000
0001
0010
0001
0000
0100
0010
1000
0001
1000
0000
0001
,  // measure 38
0010
0000
0010
0001
0100
0010
1000
0000
1000
0001
0010
0001
,  // measure 39
1000
0010
0001
1000
0100
0002
0000
0000
0000
0000
0000
0000
,  // measure 40
1003
0010
0010
1010
0000
0000
0001
0010
0010
0011
0000
0000
,  // measure 41
1000
0010
0001
0010
1000
0001
0010
0100
0100
0110
0000
0000
,  // measure 42
1000
0001
0001
0101
0000
1000
0001
1000
1000
1100
0000
0000
,  // measure 43
1010
0011
0101
1100
,  // measure 44
1000
0001
0001
1001
0000
0000
0001
1000
1000
1001
0000
0000
,  // measure 45
1000
0010
0010
2000
0000
3100
0001
0100
1000
0010
0100
0001
,  // measure 46
2000
0000
3100
1000
0100
0010
0002
0000
0013
0001
0010
0100
,  // measure 47
2000
0000
3001
0100
0001
0010
1000
0010
0001
0100
0010
1000
,  // measure 48
0001
0000
0000
0012
0000
0000
2003
0000
0000
3010
1000
0100
,  // measure 49
0020
0000
0000
0031
0100
0000
1002
0000
0013
2001
0000
0000
,  // measure 50
3001
0010
0001
0100
0010
1000
0001
0010
1000
0010
0001
1000
,  // measure 51
0100
0001
0100
1000
0001
0010
0100
0100
1000
0200
0000
0000
,  // measure 52
1300
0010
0000
1010
0000
0000
1000
0001
1000
0100
0000
0010
,  // measure 53
0002
0010
0010
0023
0000
0000
0031
0100
1000
0100
0010
0100
,  // measure 54
0001
1000
0010
1000
0000
0000
0001
0010
0100
0010
0000
0010
,  // measure 55
0001
0010
0100
1000
0001
0010
0100
0010
0001
0100
0010
1000
,  // measure 56
0010
0010
0010
0010
,  // measure 57
1000
1000
1000
1000
,  // measure 58
0001
0001
0001
0001
,  // measure 59
0100
0100
0100
0100
,  // measure 60
0002
0000
0000
0000
0000
0000
0000
0000
0000
0000
0000
0000
0020
0000
0000
0000
0030
0000
0000
0000
0000
0003
0000
0000
,  // measure 61
2000
0000
0000
0000
0000
0000
0000
0000
0000
0000
0000
0000
0200
0000
0000
0000
0300
0000
0000
0000
0000
3000
0000
0000
,  // measure 62
0002
0000
0000
0000
0000
0000
0000
0000
0000
0000
0000
0000
0200
0000
0000
0000
0300
0000
0000
0000
0000
0003
0000
0000
,  // measure 63
2000
0000
0000
0000
0000
0000
0020
0000
0030
0000
3000
0000
;

//---------------dance-single - ----------------
#NOTEDATA:;
#CHARTNAME:;
#STEPSTYPE:dance-single;
#DESCRIPTION:;
#CHARTSTYLE:;
#DIFFICULTY:Challenge;
#METER:10;
#RADARVALUES:0.710369,0.828493,0.170349,0.162238,1.000000,568.000000,21.000000,20.000000,0.000000,4.000000,10.000000,0.000000,0.000000,0.710369,0.828493,0.170349,0.162238,1.000000,568.000000,21.000000,20.000000,0.000000,4.000000,10.000000,0.000000,0.000000;
#CREDIT:;
#DISPLAYBPM:130.000000;
#NOTES:
0000
0000
0000
0000
,
0000
0000
0000
0000
,
0000
0000
0000
0000
,
0000
0000
0000
0000
,
0010
0010
0010
0010
,
1000
1000
1000
1000
,
0001
0001
0001
0001
,
0100
0200
0000
0300
,
0001
0000
0000
1000
0100
1000
0100
0000
0010
0001
0000
0001
,
0100
0000
0000
0010
1000
0010
1000
0000
0001
1000
0000
1000
,
0001
0000
0001
0010
0000
0000
0100
0000
0100
1000
0000
0000
,
0010
0000
0010
0100
0000
0100
0001
0000
0001
1000
0000
1000
,
0001
0000
0000
0010
0100
0010
0100
0000
0010
0001
0000
0001
,
0100
0000
0000
0010
1000
0010
1000
0000
0100
0010
0000
0010
,
0001
0000
0001
1000
0100
1000
0100
0000
0010
0001
1000
0001
,
1000
0000
0010
0100
0001
0100
0001
0000
0010
0100
0000
0100
,
1000
0000
0001
0100
0010
0100
0010
0000
0010
1000
0000
1000
,
0001
0000
0001
0010
0100
0010
0100
0000
0010
0001
1000
0001
,
1000
0000
0010
0100
0001
0000
1000
0000
0001
0010
0100
0000
,
1000
0000
0001
0100
0010
0100
0010
1000
0010
1000
0100
0010
,
0100
0000
0100
1000
0001
1000
0001
0000
1000
0010
0100
0010
,
0100
0000
0001
1000
0100
1000
0100
0000
0010
0001
1000
0001
,
1000
0000
0010
0100
0001
0100
0010
0000
1000
0100
0000
0010
,
0001
0100
1000
0001
0010
1000
0001
0010
1000
0001
0100
1000
,
0001
0100
0001
1000
0010
0001
0010
1000
0100
0010
0100
1000
,
0010
0100
0001
0010
1000
0010
0001
0100
0010
0001
0010
0100
,
0010
1000
0010
0100
0001
1000
0100
0010
0100
1000
0001
0010
,
0100
1000
0010
0100
0001
1000
0004
0000
0403
0000
0310
0000
,
1000
0100
1000
0001
0010
1000
0010
0100
0001
0100
1000
0010
,
0100
0000
0010
0000
1000
0000
0001
0000
0100
0000
0001
0000
0010
0000
0100
0000
1000
0000
0010
0000
1000
0100
0010
0001
,
0010
0100
1000
0010
0100
0001
0010
1000
0010
0001
1000
0010
,
0100
0000
1000
0000
0100
0000
0001
0000
1000
0000
0010
0000
0001
0000
0010
0000
0100
0000
0001
0000
1000
0100
0010
0100
,
1000
0000
0010
0100
0001
0000
1000
0000
0100
0000
0001
0000
1000
0000
0010
0000
0001
0000
1000
0000
0001
1000
0001
0100
,
0010
0000
0100
0000
0001
0000
0010
0000
0100
1000
0000
0000
0010
0000
0100
0000
0001
0000
0010
0000
0000
0000
0010
0000
,
0001
0000
0100
0010
1000
0000
0001
0000
0010
0100
1000
0000
0010
0000
0001
0000
0010
0000
0100
0000
0000
0000
0100
0000
,
0001
0000
1000
0100
0001
0000
1000
0000
0010
0001
1000
0000
0010
0000
0100
0000
0010
0000
1000
0000
0000
0000
0001
0000
,
1000
0100
1000
0100
1000
0000
0010
0000
0100
0000
0010
0000
0100
0001
0100
0001
0100
0000
0001
0000
1000
0000
0010
0000
,
1000
0001
1000
0001
1000
0000
0100
0000
0001
0000
0100
0000
0010
0001
0010
0001
0010
0000
0001
0000
0010
0000
0100
0000
,
1000
0000
0010
0100
0010
0000
1000
0000
0001
0100
0001
0000
0010
0000
0100
1000
0001
0000
0100
0000
0010
1000
0001
0000
,
1000
0000
0100
0001
0100
0000
1000
0000
0010
0001
0020
0000
0000
0000
0000
0000
0000
0000
0000
0000
0000
0030
0000
0000
,
1010
1000
0001
0101
0000
0000
1100
1000
0001
0011
0000
0000
,
0101
0001
1000
1100
0100
0010
0100
1000
0001
1001
0000
0000
,
0110
0010
1000
1001
0000
0010
0011
0001
1000
1001
0000
0000
,
1011
0111
1101
1110
,
0101
0010
1000
1001
0000
0000
0011
0100
1000
1010
0000
0000
,
4000
0000
3001
0100
0001
0000
0040
0000
0130
1000
0100
0000
0010
0000
0001
0000
0100
0000
0001
0000
0010
0100
0010
0100
,
2000
0000
3010
0100
0100
0001
2000
0000
3100
0010
0010
0001
,
2000
0000
0000
0000
3001
0000
0100
0000
0100
0000
0001
0000
0010
0000
1000
0000
0010
0000
0100
0000
1000
0100
0010
0001
,
0020
0000
0000
0000
0034
0000
0203
0000
0000
0000
0300
0000
0020
0000
0000
0000
1030
0000
0001
0010
0100
0010
0001
0000
,
4000
0000
3010
0100
0001
0000
4000
0000
3100
1000
0000
0000
0040
0000
0000
0000
0230
0000
0304
0000
0000
0000
0003
0000
,
1000
0000
0010
0100
0001
0000
1000
0000
0100
0010
0001
0000
1000
0000
0001
0000
0010
0000
1000
0000
0010
0000
0001
0000
,
1000
0000
0100
0010
0001
0000
0010
0000
0100
1000
0001
0000
1000
0000
1000
0000
0010
0000
1000
0000
0001
0010
0001
0000
,
0100
0100
0001
0010
0010
0100
1000
1000
0001
0100
1000
0100
,
0010
0000
0010
0000
0100
0000
0040
0000
2030
3002
2003
3000
0100
0000
0100
0000
0010
0000
0001
0000
0100
0010
1000
0000
,
0100
0010
0001
0101
0000
1000
0010
0010
1000
1100
0000
1000
,
0100
0000
0001
0000
0100
0000
1000
0001
1000
0001
1000
0001
0100
0000
0010
0000
0100
0000
0001
0100
0001
0100
0001
0100
,
0010
0010
0010
0010
,
1000
1000
1000
1000
,
0001
0001
0001
0001
,
0100
0100
0100
0100
,
0002
0000
0023
0000
,
2030
0000
3200
0000
,
0302
0000
2003
0000
,
3200
0000
0000
0000
0000
0000
0320
0000
0000
0000
0030
0000
;

//---------------dance-single - ----------------
#NOTEDATA:;
#CHARTNAME:;
#STEPSTYPE:dance-single;
#DESCRIPTION:;
#CHARTSTYLE:;
#DIFFICULTY:Medium;
#METER:7;
#RADARVALUES:0.374305,0.414247,0.105454,0.186573,0.344755,287.000000,13.000000,23.000000,0.000000,0.000000,0.000000,0.000000,0.000000,0.374305,0.414247,0.105454,0.186573,0.344755,287.000000,13.000000,23.000000,0.000000,0.000000,0.000000,0.000000,0.000000;
#CREDIT:;
#DISPLAYBPM:130.000000;
#NOTES:
0000
0000
0000
0000
,
0000
0000
0000
0000
,
0000
0000
0000
0000
,
0000
0000
0000
0000
,
0010
0000
0010
0000
,
1000
0000
1000
0000
,
0001
0000
0001
0000
,
0100
0200
0000
0300
,
0001
1000
0100
0000
,
1000
0001
0100
0000
,
0010
1000
0100
0100
,
1000
0010
0100
0001
,
1000
0000
0000
0100
0000
0100
0010
0000
0000
0000
0000
0000
,
0010
0000
0000
0001
0000
0001
1000
0000
0000
0000
0000
0000
,
1000
0010
1000
0100
,
0010
0001
0100
0001
,
1000
0000
0000
0001
0000
0010
0001
0000
0000
0100
0000
0000
,
0010
0000
0000
1000
0000
0001
1000
0000
0000
0100
0000
0000
,
0010
0000
0000
0001
0000
0001
0100
0000
0000
0010
0000
0010
,
1000
0000
0000
0001
0000
0001
0010
0000
0010
0100
0000
0000
,
0010
0000
0000
0001
0000
0001
1000
0000
0000
0010
0000
0000
,
0100
0000
0000
0010
0000
0010
1000
0000
0000
1000
0000
1000
,
0001
0000
0000
0001
0000
0001
0010
0000
0010
0100
0000
0100
,
2000
3000
0002
0003
,
0100
0000
0100
0001
0000
0000
0001
0000
0001
1000
0000
0000
,
1000
0000
1000
0100
0000
0100
0010
0000
0001
0000
0010
0000
,
0001
0000
0001
0100
0000
0000
0100
0000
0100
0010
0000
0000
,
0010
0000
0010
1000
0000
0000
2002
0000
0000
3003
0000
0000
,
0100
0000
0100
1000
0000
1000
0001
0000
0001
0010
0000
0000
,
0100
0000
0100
1000
0000
0001
0100
0000
0010
0000
0100
0000
,
0001
0000
0001
1000
0000
1000
0100
0000
0100
0010
0000
0000
,
0100
0000
0100
1000
0000
0010
0100
0000
0001
1000
0000
0001
,
0100
0000
0100
0010
0000
0100
0001
0000
0001
1000
0000
1000
,
0100
0000
0100
0010
0000
0000
0011
0000
0000
0101
0000
0000
,
0010
0000
0010
1000
0000
0001
0100
0000
0100
0001
0000
0001
,
0010
0000
0010
0100
0000
0000
1100
0000
0000
1010
0000
0000
,
0100
0000
0100
0010
0000
0000
0010
0000
0100
0001
0000
0001
,
1000
0000
1000
0100
0000
0100
1000
0000
1000
0010
0000
0000
,
0010
0000
0010
0100
0000
0010
1000
0000
1000
0001
0000
0000
,
0011
2200
0000
3300
,
1000
0100
1000
0100
0000
0000
0010
0001
0010
0001
0000
0000
,
1000
0010
1000
0010
0000
0010
0100
0000
0100
0001
0000
0000
,
0001
0010
0001
0010
0000
0000
0100
1000
0100
1000
0000
0000
,
1100
1100
0101
0101
,
0001
1000
0001
1000
0000
0000
1000
0100
1000
0100
0000
0000
,
2000
0000
0000
0000
0000
0000
3010
0000
0010
0100
0000
0100
,
0002
0003
0020
0030
,
0002
0000
0000
0103
0000
0000
0010
0000
0000
1000
0000
0001
,
1000
0000
0000
0200
0000
0000
0310
0000
0000
0001
0000
0001
,
0010
0100
1100
0101
,
0010
0000
0010
1000
0000
1000
0100
0000
0000
0001
0000
0000
,
0100
1000
0002
0103
,
0100
0001
0100
0001
0000
0000
1000
0000
0000
0100
0000
0000
,
2000
0000
0000
3001
0000
0001
0010
0000
0000
1000
0000
0000
,
0010
0000
0010
0001
0000
0000
0100
0000
0100
0010
0000
0010
,
2000
0000
0000
0000
0000
0000
3001
0000
0000
0100
0000
0100
,
0010
0000
0010
0000
,
1000
0000
1000
0000
,
0001
0000
0001
0000
,
0100
0000
0100
0100
,
0020
0030
2000
3000
,
0002
0003
0200
0300
,
0002
0003
0020
0030
,
0200
0000
0000
0300
0000
0000
2000
0000
0000
0000
3000
0000
;

//---------------dance-single - ----------------
#NOTEDATA:;
#CHARTNAME:;
#STEPSTYPE:dance-single;
#DESCRIPTION:;
#CHARTSTYLE:;
#DIFFICULTY:Easy;
#METER:4;
#RADARVALUES:0.246833,0.362466,0.073007,0.113566,0.044615,190.000000,9.000000,14.000000,0.000000,0.000000,0.000000,0.000000,0.000000,0.246833,0.362466,0.073007,0.113566,0.044615,190.000000,9.000000,14.000000,0.000000,0.000000,0.000000,0.000000,0.000000;
#CREDIT:;
#DISPLAYBPM:130.000000;
#NOTES:
0000
0000
0000
0000
,
0000
0000
0000
0000
,
0000
0000
0000
0000
,
0000
0000
0000
0000
,
0010
0000
0010
0000
,
1000
0000
1000
0000
,
0001
0000
0001
0000
,
0100
0200
0000
0300
,
0001
0000
0010
0000
,
0001
0000
1000
0000
,
0100
0100
0010
0000
,
0001
0000
0001
0000
,
1000
0000
0010
0000
,
1000
0000
0001
0000
,
0100
0000
1000
0000
,
0010
0000
0001
1000
,
1000
0010
0010
0000
,
1000
0100
0100
0000
,
0010
0001
0010
0001
,
0001
0100
0001
0100
,
0010
1000
0010
0000
,
1000
0100
1000
0001
,
0010
0100
1000
0010
,
0200
0000
0000
0300
,
0010
0000
0000
1000
0000
0000
0001
0000
0000
0100
0000
0100
,
0001
0000
1000
1000
,
0001
0010
0001
0010
,
0100
1000
0002
0000
,
0103
0010
0100
0000
,
0010
1000
0100
1000
,
0100
0000
0000
0010
0000
0000
0001
0000
0000
1000
0000
1000
,
0010
0010
0100
0010
,
1000
0001
1000
1000
,
0001
0000
0000
0010
0000
0000
0100
0000
0000
0010
0000
0010
,
0001
0100
0001
0001
,
0010
0001
0100
0000
,
0001
0000
0001
0100
0000
0000
0010
0000
0000
0010
0000
0000
,
1000
0100
0010
0010
,
0100
1000
0001
0100
,
0001
2002
0000
3003
,
0001
0000
0001
0100
0000
0000
0001
0000
0001
1000
0000
0000
,
1000
0000
0000
0100
0000
0000
0010
0000
0010
0001
0000
0000
,
1000
0000
1000
0010
0000
0000
1000
0000
1000
0001
0000
0000
,
0011
0011
1100
1100
,
1000
0000
1000
0100
0000
0000
1000
0000
1000
0010
0000
0000
,
0200
0000
0310
1000
,
0002
0003
0020
0030
,
0001
0100
0010
1000
,
1001
0000
0011
0010
,
0001
0100
0001
1001
,
1000
1000
0100
0010
,
0100
0100
1000
0001
,
0100
0100
0001
0001
,
2000
3000
1010
0000
,
0001
0010
0100
1000
,
0002
0000
1003
1000
,
0010
0000
0010
0000
,
1000
0000
1000
0000
,
0001
0000
0001
0000
,
0100
0000
0100
0000
,
0020
0000
0030
0000
,
2000
0000
3000
0000
,
0200
0000
0300
0000
,
0020
0000
0000
0000
0000
0000
0000
0000
0000
0000
0030
0000
;
