#VERSION:0.81;
#TITLE:A Thousand Leagues Below;
#SUBTITLE:(MMX Remix);
#ARTIST:Jake Kaufman and Manami Matsumae;
#TITLETRANSLIT:;
#SUBTITLETRANSLIT:;
#ARTISTTRANSLIT:;
#GENRE:;
#ORIGIN:;
#CREDIT:;
#BANNER:[Qualifier Singles] - A Thousand Leagues Below (MMX Remix).png;
#BACKGROUND:[Qualifier Singles] - A Thousand Leagues Below (MMX Remix)-bg.png;
#PREVIEWVID:;
#JACKET:[Qualifier Singles] - A Thousand Leagues Below (MMX Remix)-jacket.png;
#CDIMAGE:;
#DISCIMAGE:;
#LYRICSPATH:;
#CDTITLE:cdtitle.png;
#MUSIC:[Qualifier Singles] - A Thousand Leagues Below (MMX Remix).ogg;
#OFFSET:-0.800;
#SAMPLESTART:56.260;
#SAMPLELENGTH:11.500;
#SELECTABLE:YES;
#DISPLAYBPM:200.000;
#BPMS:0.000=90.000,
14.021=200.000;
#STOPS:14.000=0.280;
#DELAYS:;
#WARPS:;
#TIMESIGNATURES:0.000=4=4;
#TICKCOUNTS:0.000=4;
#COMBOS:0.000=1;
#SPEEDS:0.000=1.000=0.000=0;
#SCROLLS:0.000=1.000;
#FAKES:;
#LABELS:0.000=Song Start;
#BGCHANGES:;
#KEYSOUNDS:;
#ATTACKS:
;

//---------------dance-single - ----------------
#NOTEDATA:;
#CHARTNAME:;
#STEPSTYPE:dance-single;
#DESCRIPTION:;
#CHARTSTYLE:;
#DIFFICULTY:Hard;
#METER:9;
#RADARVALUES:0.644,0.594,0.291,0.121,0.000,338.000,24.000,10.000,0.000,0.000,0.000,0.000,0.000,0.644,0.594,0.291,0.121,0.000,338.000,24.000,10.000,0.000,0.000,0.000,0.000,0.000;
#CREDIT:;
#OFFSET:-0.080;
#BPMS:0.000=90.000
,15.000=200.000
;
#STOPS:15.000=0.280
;
#DELAYS:;
#WARPS:;
#TIMESIGNATURES:0.000=4=4
;
#TICKCOUNTS:0.000=4
;
#COMBOS:0.000=1
;
#SPEEDS:0.000=1.000=0.000=0
;
#SCROLLS:0.000=1.000
;
#FAKES:;
#LABELS:0.000=Song Start
;
#DISPLAYBPM:200.000;
#NOTES:
0000
0000
0000
0000
,
0000
0000
0000
0000
,
0000
0000
0000
0000
,
0000
0000
0000
1001
,
1000
0100
0010
0000
1000
0010
0001
0000
,
1000
0010
0100
0000
1000
0100
0001
1000
,
0001
0100
0010
0000
0001
0010
1000
0000
,
0001
0010
0100
0000
0001
0100
1000
0001
,
1000
0010
0100
0000
0110
0000
1001
0000
,
0001
0010
0100
0000
0110
0000
1001
0000
,
0001
0100
1000
0001
0010
1000
0100
0001
,
1000
0010
0001
0000
0000
0000
0000
0000
,
1001
0000
1000
0100
0000
1000
0010
0000
,
0110
0000
0010
0100
0000
0010
1000
0000
,
1001
0000
0001
0010
0000
0001
1000
0010
,
0001
0000
1000
0100
0000
0100
0001
0000
,
1001
0000
0001
0010
0000
0001
1000
0000
,
1001
0000
1000
0010
0000
1000
0001
0000
,
1001
0000
0001
1000
0000
0001
1000
0000
,
0001
1000
0001
1000
0000
1000
0001
0000
,
1001
0000
0001
0100
0000
0001
0010
0000
,
0110
0000
0010
0100
0000
0010
0001
0000
,
0011
0000
1000
0010
0000
1000
0001
0010
,
1000
0000
0001
0100
0000
0100
1000
0000
,
1001
0000
0110
0000
1001
0000
1000
0001
,
0000
0001
1000
0000
0000
0000
0000
0000
,
0001
0010
1000
0001
0100
1000
0001
0001
,
1000
0010
0100
0001
0010
0100
0001
0100
,
1000
0010
0100
0010
1000
1000
0001
0100
,
1000
0100
0001
0100
0001
0000
0000
0000
,
1000
0010
0001
1000
0100
0001
1000
1000
,
0001
0010
0100
1000
0010
0100
1000
0100
,
0002
0010
2003
0100
,
3001
0000
1000
0001
0000
1000
0001
0000
,
1000
0100
0001
0100
1000
0100
1000
1000
,
0001
0100
0010
1000
0000
0010
1000
0000
,
0001
0100
1000
0100
0001
0100
0001
1000
,
1000
0100
0010
0000
0110
0000
1001
0000
,
0001
0100
0010
1000
0100
0010
1000
0010
,
0002
0100
2003
0010
,
3001
0100
0001
1000
1000
0100
1000
0001
,
0001
0100
1000
0100
0001
0000
0000
0000
,
1001
0000
1000
0010
0000
1000
0001
0000
,
0010
0100
0000
0010
0001
0100
1000
0100
,
0001
0000
1000
0100
0000
1000
0010
0000
,
0100
0010
0000
0010
1000
0100
0001
0100
,
1000
0000
1001
0000
0001
0100
0010
0000
,
0110
0000
0100
0010
0000
0100
0010
1000
,
0100
0010
0100
2000
0000
3002
0000
0100
,
0000
0023
0000
1000
0000
0031
0100
0010
,
1000
0000
0001
0010
0000
0001
1000
0000
,
0010
0100
0000
0010
1000
0100
0001
0100
,
1000
0000
0001
0100
0000
0001
0010
0000
,
0100
0010
0000
0010
0001
0100
1000
0100
,
0001
0000
1001
0000
1000
0100
0010
0000
,
0110
0000
0100
0010
0000
0100
0010
0001
,
0100
0010
0100
0002
0000
2003
0000
0100
,
0000
3020
0000
0001
0000
1030
0100
0010
,
0001
0100
1000
0100
0000
0001
0010
0100
,
0000
1000
0010
0100
0000
0100
0010
0000
,
1000
0100
0010
0001
0010
0100
1000
0001
,
0000
0001
1000
0000
0000
0000
0000
0000
;

//---------------dance-single - ----------------
#NOTEDATA:;
#CHARTNAME:;
#STEPSTYPE:dance-single;
#DESCRIPTION:;
#CHARTSTYLE:;
#DIFFICULTY:Medium;
#METER:7;
#RADARVALUES:0.616,0.554,0.509,0.158,0.000,301.000,42.000,13.000,0.000,0.000,0.000,0.000,0.000,0.616,0.554,0.509,0.158,0.000,301.000,42.000,13.000,0.000,0.000,0.000,0.000,0.000;
#CREDIT:;
#OFFSET:-0.800;
#BPMS:0.000=90.000
,14.000=200.000
;
#STOPS:14.000=0.280
;
#DELAYS:;
#WARPS:;
#TIMESIGNATURES:0.000=4=4
;
#TICKCOUNTS:0.000=4
;
#COMBOS:0.000=1
;
#SPEEDS:0.000=1.000=0.000=0
;
#SCROLLS:0.000=1.000
;
#FAKES:;
#LABELS:0.000=Song Start
;
#DISPLAYBPM:200.000;
#NOTES:
// measure 0
0000
0000
0000
0000
,  // measure 1
0000
0000
0000
0000
,  // measure 2
0000
0000
0000
0000
,  // measure 3
0000
0000
1001
0001
,  // measure 4
0100
0000
1000
0100
0010
0000
1000
0100
,  // measure 5
0001
0110
1001
1000
,  // measure 6
0100
0000
0001
0100
0010
0000
0001
0100
,  // measure 7
1000
0110
1001
1000
,  // measure 8
0100
0000
0001
0100
1000
0000
0001
0000
,  // measure 9
0100
0000
1000
0100
0001
0000
1001
0000
,  // measure 10
0000
0110
0000
0000
1001
0000
0000
0110
,  // measure 11
0000
1001
0000
1001
,  // measure 12
1000
0100
0000
0100
1000
0000
1001
0000
,  // measure 13
0001
0100
0000
0100
0001
0000
1001
0000
,  // measure 14
1000
0010
0000
1000
0010
0000
1010
0000
,  // measure 15
0010
1000
0000
0010
1000
0000
1001
0000
,  // measure 16
1000
0100
0000
1000
0001
0000
1001
0000
,  // measure 17
0001
0100
0000
0001
1000
0000
1001
0000
,  // measure 18
1000
0001
0000
1000
0001
0000
1000
0001
,  // measure 19
1000
0001
0000
0001
1000
0000
1001
0000
,  // measure 20
0001
0100
0000
0100
0001
0000
1001
0000
,  // measure 21
1000
0100
0000
0100
1000
0000
1001
0000
,  // measure 22
0001
0100
0000
0001
0100
0000
0101
0000
,  // measure 23
0100
0001
0000
0100
0001
0000
1001
0000
,  // measure 24
0110
0000
1001
0000
0001
1000
0000
1000
,  // measure 25
0001
0000
0000
0000
0000
0000
0001
0100
,  // measure 26
0001
1000
0100
0010
0100
0000
1000
0010
,  // measure 27
0100
0001
0010
0001
0010
0000
0001
0100
,  // measure 28
1000
0100
0001
0100
0001
0010
0100
1000
,  // measure 29
0010
0100
0001
0000
0000
0000
1000
0100
,  // measure 30
1000
0001
0100
0010
0100
0000
0001
0010
,  // measure 31
0100
1000
0010
1000
0010
0000
2010
0000
,  // measure 32
0100
3002
0010
2000
,  // measure 33
0000
0000
3003
0000
0000
0000
0001
0010
,  // measure 34
0100
1000
0010
0100
0001
0010
0100
0010
,  // measure 35
0001
0000
0000
0000
0000
0000
1000
0010
,  // measure 36
0100
0001
0010
0100
1000
0010
0100
0010
,  // measure 37
1000
0000
1001
0000
1001
0000
1000
0100
,  // measure 38
0001
0100
1000
0100
1000
0010
0100
0001
,  // measure 39
0010
0100
1000
0000
1001
0000
1000
0100
,  // measure 40
1000
1000
0001
0100
0001
0001
1000
0100
,  // measure 41
0001
0100
1000
0000
0000
0000
1001
0000
,  // measure 42
1000
0010
0000
1000
0010
0000
1000
0100
,  // measure 43
0000
1000
0100
0000
0110
0000
1001
0000
,  // measure 44
0001
0010
0000
0001
0010
0000
0001
0100
,  // measure 45
0000
0001
0100
0000
0110
0000
1002
0000
,  // measure 46
0010
0000
1000
1000
1003
0000
2001
0000
,  // measure 47
0010
0000
0001
0001
3001
0000
1002
0000
,  // measure 48
0010
0000
0203
0000
1000
0000
0310
1000
,  // measure 49
0200
0001
1300
1001
,  // measure 50
0001
0010
0000
0001
0010
0000
0001
0100
,  // measure 51
0000
0001
0100
0000
0110
0000
1001
0000
,  // measure 52
1000
0010
0000
1000
0010
0000
1000
0100
,  // measure 53
0000
1000
0100
0000
0110
0000
2001
0000
,  // measure 54
0010
0000
0001
0001
3001
0000
1002
0000
,  // measure 55
0010
0000
1000
1000
1003
0000
2001
0000
,  // measure 56
0010
0000
3200
0000
0001
0000
0310
0001
,  // measure 57
0200
0000
1000
0000
0301
0000
1000
0100
,  // measure 58
0001
0100
0000
1000
0010
0100
0000
0001
,  // measure 59
0010
0100
0000
0100
0010
0000
0001
0100
,  // measure 60
0010
1000
0010
0100
0001
1000
0000
1000
,  // measure 61
0001
0000
0000
0000
;

//---------------dance-single - ----------------
#NOTEDATA:;
#CHARTNAME:;
#STEPSTYPE:dance-single;
#DESCRIPTION:;
#CHARTSTYLE:;
#DIFFICULTY:Easy;
#METER:5;
#RADARVALUES:0.372,0.406,0.170,0.048,0.000,197.000,14.000,4.000,0.000,0.000,0.000,0.000,0.000,0.372,0.406,0.170,0.048,0.000,197.000,14.000,4.000,0.000,0.000,0.000,0.000,0.000;
#CREDIT:;
#DISPLAYBPM:200.000;
#NOTES:
0000
0000
0000
0000
,
0000
0000
0000
0000
,
0000
0000
0000
0000
,
0000
0000
1001
0001
,
0100
0010
1000
0010
,
0100
0000
0001
1000
0001
0000
1000
0000
,
0100
0010
0001
0010
,
0100
0000
1000
0001
1000
0000
0001
0000
,
0100
0000
0010
1000
0010
0000
1000
0000
,
0100
0000
0010
0001
0010
0000
1001
0000
,
0000
0110
0000
0000
1001
0000
0000
0110
,
0000
1001
0000
1000
,
0000
0100
0000
0000
0000
0000
0001
0000
,
0000
0100
0000
0000
0000
0000
1000
0000
,
0000
1000
0000
0000
1001
0000
1001
0000
,
0000
0001
0000
0000
0000
0000
0001
0000
,
0000
0100
0000
0000
0000
0000
1000
0000
,
0000
0100
0000
0000
0001
0000
1001
0000
,
1000
0001
0000
0001
1000
0000
0001
0000
,
1000
0001
1000
0001
,
0000
0100
0000
0000
0000
0000
1000
0000
,
0000
0100
0000
0000
0000
0000
0001
0000
,
0000
0001
0000
0000
1001
0000
1001
0000
,
0000
1000
0000
0000
1000
0000
0001
0000
,
1000
0000
0001
0000
1000
0001
0000
0001
,
1000
0000
0000
0001
,
0000
0001
0000
0000
0010
0000
0100
0000
,
0000
0100
0000
0000
1000
0000
0001
0000
,
0000
0001
0000
0000
1000
0000
0001
0000
,
1000
1001
0000
1000
,
0000
1000
0000
0000
0010
0000
0100
0000
,
0000
0100
0000
0000
0001
0000
2000
0000
,
0100
3002
0100
1003
,
0000
0000
0000
0001
,
0000
0100
0000
0000
0001
0000
0010
0000
,
0100
0000
0000
1000
,
0000
0100
0000
0000
1000
0000
0010
0000
,
0100
0000
0000
0001
,
0000
0100
0000
0000
0001
0000
1000
0000
,
0000
0100
0000
0000
1000
0000
0001
0000
,
1000
0001
1000
0001
,
1000
1001
0000
0001
,
0100
0010
0100
0001
,
0100
0000
0010
0100
0010
0000
1000
0000
,
0100
0010
0100
1000
,
0100
0000
0010
0100
0010
0000
0001
0000
,
0100
0010
0010
1000
,
0100
0010
0010
0001
,
0100
0010
0100
0001
,
1000
0001
0001
1000
,
0100
0010
0100
1000
,
0100
0000
0010
0100
0010
0000
0001
0000
,
0100
0010
0100
0001
,
0100
0000
0010
0100
0010
0000
1000
0000
,
0100
0010
0010
0001
,
0100
0010
0010
1000
,
0100
0010
0100
1000
,
0001
1000
1000
1002
,
0000
0000
0000
2003
,
0000
0000
0000
3001
,
0010
0000
0100
0000
1000
0001
0000
0001
,
1000
0000
0000
0000
;
