#TITLE:The Sealer ~ア・ミリアとミリアの民~;
#SUBTITLE:;
#ARTIST:Zektbach;
#TITLETRANSLIT:The Sealer ~A Milia to Milia no tami~;
#SUBTITLETRANSLIT:;
#ARTISTTRANSLIT:;
#GENRE:;
#CREDIT:Silverhawke;
#MENUCOLOR:;
#METERTYPE:DDR;
#BANNER:[Qualifier Singles & Doubles] - The Sealer ~A Milia to Milia no tami~.png;
#BACKGROUND:[Qualifier Singles & Doubles] - The Sealer ~A Milia to Milia no tami~-bg.png;
#LYRICSPATH:;
#CDTITLE:cdtitle.png;
#MUSIC:[Qualifier Singles & Doubles] - The Sealer ~A Milia to Milia no tami~.mp3;
#OFFSET:-0.028;
#SAMPLESTART:21.076;
#SAMPLELENGTH:15.000;
#SELECTABLE:YES;
#LISTSORT:;
#BPMS:0.000=136.667,30.000=205.000;
#STOPS:;
#BGCHANGES:;
#ATTACKS:;

//---------------dance-single - ----------------
#NOTES:
     dance-single:
     :
     Hard:
     8:
     0.565,0.613,0.304,0.273,0.000:
0000
0000
0000
0000
,
0000
0000
0000
0000
,
0000
0000
0000
0000
,
0000
0000
0000
0000
,
0000
0000
0000
0000
0002
0000
0000
0023
,
0000
0230
2300
3002
,
0203
0000
0000
0320
0000
0000
0000
0000
,
0000
0000
0030
0000
1001
0000
0000
0100
,
0010
0100
0010
0000
1000
0001
0000
0010
,
0100
0010
0100
0000
1000
0001
0100
0000
,
0000
0010
0000
0000
1000
0000
0001
0000
,
0100
0000
1010
0000
0000
0011
0000
0000
,
2002
0000
0000
0000
,
0000
3003
0000
0000
0000
0001
1000
0001
,
1000
0000
0100
0000
0010
0001
0000
0001
,
0100
0010
1000
0001
,
0100
0010
0000
0010
1000
0000
0001
0000
,
0010
0000
0100
0000
1000
0001
0000
0001
,
0100
0010
1000
0001
,
0010
0100
0000
1000
0001
0000
0100
0000
,
0110
0000
0010
0000
0100
0001
0000
0001
,
0010
0100
1000
0001
,
0010
0100
0000
0100
1000
0000
0001
0000
,
0100
0000
0010
0000
1000
0001
0000
0001
,
0010
0100
1000
0001
,
0100
0010
0000
1000
0001
0000
0010
0000
,
0110
0000
1000
0000
0001
0100
0001
0000
,
0010
0100
0100
1000
,
0001
0100
0000
0010
1000
0000
0100
0000
,
0100
0000
0010
0000
0001
1000
0001
0000
,
0100
0010
0010
1000
,
0100
0010
0000
0001
1000
0000
0010
0000
,
0010
0000
0100
0000
0001
1000
0001
0000
,
0010
0100
0100
1000
,
0001
0100
0000
1000
0100
0000
0010
0000
,
0010
0000
1000
0000
0100
0010
0100
0000
,
1000
0010
0010
0100
,
0001
0010
0000
1000
0010
0000
0000
0001
,
0000
0100
0010
0000
1000
0100
0010
0100
,
1000
0010
0110
0100
,
0001
1000
0000
0010
0100
0000
0001
0000
,
1001
0000
1000
0000
0100
0010
0000
0010
,
0100
1000
1001
0001
,
0100
0010
0000
0010
0100
0000
0001
0000
,
0011
0000
0010
0000
0001
0100
0010
0100
,
0001
0010
0110
0100
,
1000
0001
0000
0010
0100
0000
1000
0000
,
1001
0000
0001
0000
0100
0010
0000
0010
,
0100
0001
1001
1000
,
0100
0010
0000
0010
0100
0000
1000
0000
,
1010
0000
0110
0000
0000
0101
0000
0000
,
0001
1000
0100
0010
,
0001
0100
0000
0010
0100
0000
0001
0000
,
1000
0000
1100
0000
0000
0011
0000
0000
,
1010
0000
0000
0101
0000
0000
1000
0000
,
0001
0100
0010
0100
0001
0000
0010
0000
,
0100
0000
1100
0000
0000
0011
0000
0000
,
0001
0100
0010
1000
,
0001
0010
0000
0100
0010
0000
0001
0000
,
0100
0000
0101
0000
0000
1100
0000
0000
,
1001
0001
0010
0200
,
1000
0000
1300
0000
0001
0100
1000
0200
,
0000
0000
0301
0010
0100
0000
0010
0000
,
0001
0001
1000
0010
,
0100
1000
0000
0100
0001
0000
1000
0000
,
1100
0010
0001
0001
,
1000
0010
0100
0001
,
0010
0100
0000
0001
0100
0000
1000
0000
,
1100
0001
0100
0100
,
0010
1000
0001
0010
,
0100
0001
0000
0100
1000
0000
0001
0000
,
0101
0010
1000
0100
,
0010
0001
0100
1000
,
0100
0010
0000
0001
0010
0000
0100
0000
,
0101
0000
0020
0000
1030
0000
0001
0100
,
0010
0000
1000
0000
0001
0010
0100
0000
,
1000
0100
0001
0100
1000
0000
0001
0000
,
0011
0000
0200
0000
1300
0000
0010
0100
,
0001
0000
1000
0000
0100
0010
0001
0000
,
1000
0010
0001
0010
1000
0000
0001
0000
,
0011
0000
0200
0000
1300
0000
0001
0100
,
0010
0000
0100
0000
0001
0010
0100
0000
,
1000
0010
0001
0010
0100
0000
0010
0000
,
1010
0000
0200
0000
0301
0000
0010
0100
,
1000
0001
0100
1000
,
0100
0010
1000
0010
0001
0000
0010
0000
,
1010
0200
0302
0023
,
0230
1000
1000
0320
,
0032
0203
0320
1000
,
1000
0230
0302
2003
,
3200
0010
0010
2300
,
3002
0203
0320
1000
,
1000
0000
0130
0000
0001
1000
0001
0000
,
0010
0000
0100
1000
0100
0000
0010
0000
,
0001
0100
0010
1000
0100
0000
0110
0000
,
0000
0000
0001
0000
0010
0100
0010
0000
,
0001
0000
0100
0010
0100
0000
0001
0000
,
0010
0100
1000
0010
0100
0000
0110
0000
,
0000
0000
0001
0000
0000
0100
0000
0000
,
0010
1000
0001
0011
,
0000
1010
0000
0000
2002
0000
0000
0000
,
0000
0000
0000
0000
0000
3003
0000
0000
,
0000
0001
0010
1000
0010
0000
0220
0000
,
0000
0000
0000
0000
,
0000
0000
0000
0330
;

//---------------dance-double - ----------------
#NOTES:
     dance-double:
     :
     Hard:
     8:
     0.546,0.613,0.250,0.343,0.000:
00000000
00000000
00000000
00000000
,
00000000
00000000
00000000
00000000
,
00000000
00000000
00000000
00000000
,
00000000
00000000
00000000
00000000
,
00000000
00000000
00000000
00000000
00001000
00000000
00000000
00010000
,
00000000
01000000
10000000
00100000
,
00020000
00000000
00000000
00002000
00000000
00000000
00000000
00000000
,
00000000
00000000
00033000
00000000
00011000
00000000
00000000
00001000
,
00010000
00000100
00001000
00000000
00000010
00000100
00000000
00000001
,
00000010
00000100
00001000
00000000
00000100
00010000
00001000
00000000
,
00000000
01000000
00000000
00000000
00100000
00000000
10000000
00000000
,
00010000
00000000
00110000
00000000
00000000
11000000
00000000
00000000
,
20020000
00000000
00000000
00000000
,
00000000
30030000
00000000
00000000
00000000
00010000
00100000
01000000
,
10000000
00000000
00010000
00000000
00100000
00010000
00000000
00010000
,
02000000
00100000
03010000
10000000
,
01000000
00100000
00000000
00100000
00002000
00000000
00010000
00000000
,
00003100
00000000
00000010
00000000
00001000
00000001
00000000
00000001
,
00000020
00000100
00000031
00000200
,
00000000
00000310
00000000
00010000
00001000
00000000
01000000
00000000
,
01100000
00000000
10000000
00000000
00010000
01000000
00000000
00001000
,
00010000
00000100
00000010
00000100
,
00001000
00000001
00000000
00000100
00000010
00000000
00010000
00000000
,
00001000
00000000
00100000
00000000
01000000
10000000
00000000
01000000
,
00010000
00001000
00000100
00000020
,
00000000
00000130
00000000
00000001
00001000
00000000
00000100
00000000
,
00000110
00000000
00000001
00000000
00000100
00000010
00000100
00000000
,
00001000
00010000
00100000
01000000
,
00010000
10000000
00000000
10000000
01000000
00000000
00100000
00000000
,
00001000
00000000
00010000
00000000
00000100
00000010
00000100
00000000
,
00001000
00000010
00000100
00000001
,
00001000
00000100
00000000
00000100
00010000
00000000
01000000
00000000
,
00100000
00000000
00010000
00000000
01000000
00100000
01000000
00000000
,
00001000
00010000
00000100
00000010
,
00000001
00000100
00000000
00000100
00001000
00000000
00010000
00000000
,
00100000
00000000
01000000
00000000
00010000
10000000
00010000
00000000
,
01000000
00100000
00010000
00001000
,
00000010
00000100
00000000
00000100
00001000
00000000
00000001
00000100
,
00000000
00000100
00000010
00000000
00010000
00001000
00100000
00001000
,
00010000
01000000
00100000
00010000
,
10000000
00100000
00000000
00100000
01000000
00000000
00001000
00000000
,
00000100
00000020
00001000
00001000
,
00001030
00000100
00000010
00002000
,
00010000
00010000
00013000
01000000
,
00100000
00000000
00010000
00000000
01000000
00100000
00010000
00100000
,
01000000
00001000
00010000
00000100
,
00000001
00000100
00000000
00000100
00000010
00000000
00000001
00000000
,
00000100
00002000
00010000
00010000
,
00013000
00100000
10000000
02000000
,
00010000
00010000
03010000
00001000
,
00000010
00000000
00000011
00000000
00000000
00001100
00000000
00000000
,
00010000
00001000
01000000
00100000
,
10000000
00010000
00000000
00100000
01000000
00000000
10000000
00000000
,
01000000
00000000
01100000
00000000
00000000
00101000
00000000
00000000
,
00011000
00000000
00000000
00010010
00000000
00000000
00000010
00000000
,
00000100
00000001
00000000
00000001
00001000
00000000
00000100
00000000
,
00010000
00000000
00011000
00000000
00000000
01100000
00000000
00000000
,
10000000
01000000
00010000
00001000
,
00000010
00000100
00000000
00000100
00000001
00000000
00000100
00000000
,
00001000
00000000
00001001
00000000
00000000
00011000
00000000
00000000
,
20020000
00000000
30030000
02200000
,
00000000
00000000
03300000
00000000
10000000
00100000
00010000
00200000
,
00000000
00000000
01300000
00010000
10000000
00000000
01000000
00000000
,
00010000
00010000
00001000
00000100
,
00000010
00001000
00000000
00000001
00000010
00000000
00000100
00000000
,
00000110
00000001
00000100
00001000
,
00010000
00100000
01000000
00010000
,
00100000
01000000
00000000
01000000
00010000
00000000
01000000
00000000
,
01100000
00100000
00001000
00010000
,
00001000
00000100
00000010
00010000
,
00001000
00100000
00000000
00100000
01000000
00000000
10000000
00000000
,
10010000
00010000
01000000
00001000
,
00010000
00001000
00000100
00000010
,
00001000
00000100
00000000
00000100
00000010
00000000
00000001
00000000
,
00001001
00000000
00001000
00000000
00000100
00000000
00010000
00001000
,
01000000
00000000
00100000
00000000
10000000
01000000
00100000
00000000
,
00010000
01000000
10000000
01000000
00010000
00000000
00100000
00000000
,
00101000
00000000
00001000
00000000
00000100
00000000
00000010
00010000
,
00000100
00000010
00000001
00000100
,
00001000
00010000
00100000
00010000
00001000
00000000
00001000
00000000
,
01001000
00000000
01000000
00000000
00100000
00000000
10000000
00010000
,
00100000
00000000
01000000
00000000
00010000
00001000
00000010
00000000
,
00000100
00001000
00000001
00001000
00000100
00000000
00000010
00000000
,
00000011
00000000
00000001
00000000
00000100
00000000
00000010
00010000
,
00001000
01000000
00010000
00100000
,
01000000
00010000
00001000
00010000
01000000
00000000
01000000
00000000
,
11000000
20000000
32000000
03020000
,
00032000
00000010
00003010
00000002
,
00000203
00002300
00023000
00100000
,
00130000
20000000
30020000
00032000
,
00003002
00001000
00001003
00000002
,
00002003
00023000
20030000
00010000
,
30010000
01000000
00100000
10000000
,
02000000
00100000
03100000
00001000
,
00010000
00000010
00000100
00000202
,
00000303
00000010
00000100
00000001
,
00000200
00000010
00000310
00010000
,
00001000
00100000
01000000
22000000
,
33000000
00000000
10000000
00000000
00000000
00010000
00000000
00000000
,
00001000
00000100
00000010
00001001
,
00000000
00011000
00000000
00000000
20020000
00000000
00000000
00000000
,
00000000
00000000
00000000
00000000
00000000
30030000
00000000
00000000
,
00000000
10000000
00100000
00010000
00001000
00000000
00022000
00000000
,
00000000
00000000
00000000
00000000
,
00000000
00000000
00000000
00033000
;

//---------------dance-single - ----------------
#NOTES:
     dance-single:
     :
     Medium:
     6:
     0.405,0.449,0.070,0.226,0.000:
0000
0000
0000
0000
,
0000
0000
0000
0000
,
0000
0000
0000
0000
,
0000
0000
0000
0000
,
0000
0000
1000
0000
,
0000
0000
0001
0000
0000
0100
0000
0000
,
0010
0000
0000
2000
0000
0000
0000
0000
,
0000
3000
1001
0000
,
0000
0000
0000
0000
,
0000
0000
0000
0001
,
0000
0010
0000
0000
0100
0000
1000
0000
,
0010
0000
0100
0000
0000
0001
0000
0000
,
2002
0000
0000
3003
,
0000
0000
0000
0000
0000
1000
0001
1000
,
0001
0000
0100
0000
0000
0010
0000
0000
,
1000
0001
0010
0100
,
0000
1000
0000
0000
0100
0000
0010
0000
,
0001
0000
1000
0000
0000
0010
0000
0000
,
0100
0010
1000
0001
,
0000
0010
0000
0100
1000
0000
0100
0000
,
0010
0000
0001
0000
0000
0100
0000
0000
,
0010
0100
0001
1000
,
0000
0100
0000
0000
0010
0000
0001
0000
,
0100
0000
0010
0000
0000
0100
0000
0000
,
0001
0010
0100
1000
,
0000
2002
0000
0000
0000
0000
3003
0000
,
0000
0001
0100
0100
,
0010
1000
0000
1000
,
0100
0010
0001
0010
,
0100
1000
0010
0010
,
0100
0001
0010
0100
,
0000
1000
0000
0000
0010
0000
0100
0000
,
0001
1000
0010
0010
,
0100
0001
0000
1000
,
0100
0010
0001
0100
,
0010
0100
0001
0001
,
1000
0100
0010
0001
,
0000
0100
0000
0000
0010
0000
0000
1000
,
0000
0001
0010
0100
,
2000
0000
3000
1000
,
0010
0100
0001
0001
,
0001
0010
0100
1000
,
0001
1000
0100
0010
,
0001
0100
0010
1000
,
1000
0001
0010
0100
,
2000
0000
3000
1000
,
0100
0010
0001
0001
,
0001
0100
0010
0100
,
0001
1000
0100
0010
,
0100
1000
0010
0100
,
0001
0000
1000
0000
0000
0002
0000
0000
,
0000
0003
0000
0010
,
0000
0100
0000
0000
1000
0000
0010
0000
,
0100
0000
0001
0000
0000
1000
0000
0000
,
0010
0000
0000
0100
0000
0000
0001
0000
,
0010
0010
0100
1000
,
1000
0000
0010
0000
0000
0200
0000
0000
,
0000
0300
0000
0001
,
0000
0010
0000
0000
0100
0000
1000
0000
,
0001
0000
0100
0000
0000
0010
0000
0000
,
0110
0000
0000
1001
,
0000
0000
0000
0000
0100
0010
0100
0010
,
0000
1000
0001
0001
,
0010
0100
2000
3010
,
0000
0100
0000
0001
1000
0000
0100
0000
,
0020
0031
1000
0010
,
0100
0001
0020
0130
,
0000
1000
0000
0001
0100
0000
0100
0000
,
0020
1030
0100
0010
,
0001
0010
0200
1300
,
0000
0001
0000
0100
0010
0000
1000
0000
,
0002
0013
0100
1000
,
0001
1000
0200
0310
,
0000
0001
0000
1000
0010
0000
0010
0000
,
0200
0301
1000
0100
,
0010
0000
0001
0000
0100
0010
0100
0000
,
0001
1000
0100
0100
,
0020
0031
1000
0010
,
0100
0001
0010
0100
,
1000
0000
0001
1000
0001
0000
0001
0000
,
0200
0310
1000
0100
,
0010
0100
1000
0001
,
0100
0010
0100
0000
0001
0000
1000
0000
,
0020
0130
0001
1000
,
0100
0010
0001
0100
,
0010
1000
0010
0000
0100
0000
0100
0000
,
0002
1003
0100
0010
,
0002
0000
0003
0001
,
0100
0010
2000
0000
,
3000
1000
0100
0001
,
0020
0000
0030
0001
,
0100
1000
0020
0000
,
0030
0100
0001
1000
,
0100
1000
0001
0010
,
0100
1000
0001
1001
,
0000
0001
0100
0010
,
1000
0100
0010
0001
,
0100
0010
1000
1001
,
0000
0000
0001
0000
0000
0010
0000
0000
,
0100
1000
0010
0100
,
0000
0001
0000
0000
2002
0000
0000
0000
,
0000
3003
0000
0000
,
0000
0001
0010
0100
1000
0000
2002
0000
,
0000
0000
0000
0000
,
0000
0000
0000
3003
;

//---------------dance-single - ----------------
#NOTES:
     dance-single:
     :
     Easy:
     3:
     0.248,0.286,0.023,0.062,0.000:
0000
0000
0000
0000
,
0000
0000
0000
0000
,
0000
0000
0000
0000
,
0000
0000
0000
0000
,
0000
0000
0000
0000
,
0000
0000
0000
0000
,
0000
0000
0000
0000
,
0000
0000
1001
0000
,
0000
0000
0000
0000
,
0000
0000
0000
0010
,
0000
0010
0000
0000
0010
0000
0000
0000
,
0000
0000
0100
0000
0000
0100
0000
0000
,
0200
0000
0000
0000
,
0300
0000
0000
0000
,
0000
0000
0001
0000
0000
0010
0000
0000
,
0100
0000
0000
1000
,
0000
0010
0000
0000
0100
0000
0000
0000
,
0000
0000
0001
0000
0000
0001
0000
0000
,
1000
0000
0000
1000
0000
0000
0010
0000
,
0000
0200
0000
0000
0000
0000
0300
0000
,
0000
0000
0001
0000
0000
1000
0000
0000
,
0100
0000
0000
1000
,
0000
0001
0000
0000
0100
0000
0000
0000
,
0000
0000
0001
0000
0000
0001
0000
0000
,
1000
0000
0000
1000
0000
0000
0010
0000
,
0000
0200
0000
0000
0000
0000
0300
0000
,
0000
0001
0000
0010
,
0100
0000
0000
1000
,
0000
0010
0000
0000
0100
0000
0000
0000
,
0000
0010
0000
1000
,
0001
0000
0000
0010
,
0000
0001
0000
0000
1000
0000
0000
0000
,
0000
0100
0000
0010
,
0001
0000
0010
0100
,
0000
1000
0000
0000
0001
0000
0000
0000
,
0000
1000
0000
0010
,
0100
0000
0001
0100
,
0000
0010
0000
0000
1000
0000
0000
0001
,
0000
0020
0000
0000
,
0000
0030
0000
0000
,
0000
0000
0000
0100
,
1000
0001
0000
0000
,
0000
1000
0001
0100
,
0000
0010
0000
0000
0100
0000
0000
0000
,
0000
0001
0100
0001
,
0100
0000
0000
0000
,
0000
0000
0000
0010
,
1000
0001
0000
0000
,
0000
1000
0001
0010
,
0000
0100
0000
0000
1000
0000
0001
0000
,
1000
0000
0001
0000
0000
0100
0000
0000
,
0000
0000
0000
0010
,
1000
0001
0010
0000
,
0100
0000
1000
0000
0000
0001
0000
0000
,
1000
0000
0000
0001
0000
0000
0100
0000
,
0000
0010
0000
0000
0100
0000
0000
0000
,
0010
0000
0100
0000
0000
0001
0000
0000
,
0000
0010
1000
0001
,
0000
0100
0000
0000
0001
0000
1000
0000
,
0001
0000
1000
0000
0000
0100
0000
0000
,
0010
0000
0000
0001
0000
0000
1000
0000
,
0000
0000
0001
0001
,
0000
0100
0000
0100
,
0010
0000
0010
1000
,
0000
1000
0000
0000
1000
0000
0001
0000
,
0000
1000
0000
1000
,
0100
0000
0100
0010
,
0000
0010
0000
0000
0010
0000
0001
0000
,
0000
0100
0000
0100
,
0010
0000
0010
1000
,
0000
1000
0000
0000
1000
0000
0001
0000
,
0000
0010
0000
0010
,
0001
0000
0001
1000
,
0000
1000
0000
0000
1000
0000
0010
0000
,
0000
0100
0001
0000
,
0001
0100
0000
0100
,
0000
0010
0000
0000
0100
0000
0100
0000
,
0000
0001
1000
0000
,
1000
0100
0000
0100
,
0000
0010
0000
0000
0100
0000
0100
0000
,
0000
1000
0001
0000
,
0001
0100
0000
0100
,
0000
0010
0000
0000
1000
0000
1000
0000
,
0000
0100
0010
0000
,
0010
0001
0000
0001
,
0000
0100
0000
0000
0010
0000
0010
0000
,
0000
1000
0000
0100
,
0001
0000
0000
0001
,
0000
0100
1000
0000
,
0000
1000
0000
0010
,
0001
0000
0000
0001
,
0000
0010
1000
0000
,
0000
1000
1000
0001
,
0001
0000
0000
0100
,
0100
0010
0010
0000
,
0000
0001
0001
1000
,
1000
0000
0000
0010
,
0010
0100
0100
0000
,
0000
0000
0001
0000
0000
0010
0000
0000
,
0100
0000
0000
1000
0000
0000
0010
0000
,
0000
0100
0000
0000
0220
0000
0000
0000
,
0000
0000
0330
0000
,
0000
0000
0000
2002
,
0000
0000
0000
0000
,
0000
0000
0000
3003
;

//---------------dance-double - ----------------
#NOTES:
     dance-double:
     :
     Medium:
     6:
     0.405,0.449,0.070,0.226,0.000:
00000000
00000000
00000000
00000000
,
00000000
00000000
00000000
00000000
,
00000000
00000000
00000000
00000000
,
00000000
00000000
00000000
00000000
,
00000000
00000000
01000000
00000000
,
00000000
00000000
00001000
00000000
00000000
00100000
00000000
00000000
,
01000000
00000000
00000000
20000000
00000000
00000000
00000000
00000000
,
00000000
30000000
10010000
00000000
,
00000000
00000000
00000000
00000000
,
00000000
00000000
00000000
10000000
,
00000000
01000000
00000000
00000000
00100000
00000000
00001000
00000000
,
00010000
00000000
00000100
00000000
00000000
00000010
00000000
00000000
,
00002002
00000000
00000000
00000000
,
00000000
00003003
00000000
00000000
00000000
00001000
00000001
00001000
,
00000001
00000000
00000100
00000000
00000000
00000010
00000000
00000000
,
00010000
00001000
01000000
00010000
,
00000000
00100000
00000000
00000000
01000000
00000000
10000000
00000000
,
00010000
00000000
01000000
00000000
00000000
00001000
00000000
00000000
,
00010000
00000100
00000010
00000001
,
00000000
00000100
00000000
00000010
00001000
00000000
00000100
00000000
,
00000100
00000000
00000010
00000000
00000000
00000001
00000000
00000000
,
00000100
00001000
00010000
00001000
,
00000000
00100000
00000000
00000000
01000000
00000000
10000000
00000000
,
00100000
00000000
01000000
00000000
00000000
00001000
00000000
00000000
,
00010000
00000100
00000010
00000001
,
00000000
00002002
00000000
00000000
00000000
00000000
00003003
00000000
,
00000000
00001000
00000100
00000100
,
00010000
00001000
00000000
01000000
,
01000000
00100000
10000000
00100000
,
01000000
00010000
00100000
00100000
,
00001000
00010000
00000100
00000010
,
00000000
00000100
00000000
00000000
00010000
00000000
00001000
00000000
,
00000100
00001000
00010000
00010000
,
01000000
10000000
00000000
00100000
,
01000000
00100000
10000000
01000000
,
00100000
00001000
00010000
00010000
,
00001000
00000010
00000100
00001000
,
00000000
00000100
00000000
00000000
00010000
00000000
00000000
01000000
,
00000000
00100000
00010000
01000000
,
00200000
00000000
00300000
01000000
,
00001000
00010000
00000100
00000100
,
00000100
00000010
00000001
00000010
,
00000100
00010000
00001000
00010000
,
00100000
01000000
00100000
10000000
,
00010000
10000000
01000000
00010000
,
00002000
00000000
00003000
00010000
,
00001000
00000100
00000010
00000010
,
00000010
00001000
00000100
00010000
,
00001000
01000000
00100000
10000000
,
00010000
01000000
00001000
00010000
,
00000100
00000000
00000010
00000000
00000000
00000002
00000000
00000000
,
00000000
00000003
00000000
00000010
,
00000000
00001000
00000000
00000000
00010000
00000000
00000100
00000000
,
00001000
00000000
00000010
00000000
00000000
00010000
00000000
00000000
,
00001000
00000000
00000000
00010000
00000000
00000000
01000000
00000000
,
00100000
00100000
00010000
01000000
,
00100000
00000000
10000000
00000000
00000000
00020000
00000000
00000000
,
00000000
00030000
00000000
10000000
,
00000000
01000000
00000000
00000000
00010000
00000000
00001000
00000000
,
00010000
00000000
00000100
00000000
00000000
00000010
00000000
00000000
,
00000110
00000000
00000000
00001001
,
00000000
00000000
00000000
00000000
00000001
00001000
00000001
00001000
,
00000000
00000010
00010000
00010000
,
00001000
00100000
02000000
13000000
,
00000000
01000000
00000000
00100000
00010000
00000000
01000000
00000000
,
00002000
00013000
00001000
00000100
,
00000010
00001000
00000200
00000310
,
00000000
00000001
00000000
00000100
00000010
00000000
00010000
00000000
,
00002000
01003000
00100000
00010000
,
00100000
10000000
02000000
03100000
,
00000000
00001000
00000000
00010000
00001000
00000000
00010000
00000000
,
00000200
00000310
00000001
00000100
,
00000010
00010000
00002000
00013000
,
00000000
00000100
00000000
00000010
00000001
00000000
00000001
00000000
,
00000200
00000310
00010000
00001000
,
00010000
00000000
01000000
00000000
00100000
00001000
00100000
00000000
,
01000000
10000000
00010000
00010000
,
02000000
03100000
00010000
00001000
,
00010000
00000100
00000010
00000001
,
00000100
00000000
00000010
00001000
00000010
00000000
00000010
00000000
,
00000200
00000310
00010000
00001000
,
00010000
01000000
10000000
01000000
,
00010000
00001000
00010000
00000000
00000010
00000000
00000100
00000000
,
00000020
00010030
00001000
00010000
,
00010000
00000100
00000010
00000100
,
00010000
00001000
00010000
00000000
01000000
00000000
01000000
00000000
,
00200000
00310000
00001000
00000100
,
00000020
00000000
00000030
00000100
,
00001000
00010000
00200000
00000000
,
00300000
00001000
00010000
00100000
,
20000000
00000000
30000000
00100000
,
00010000
00001000
00000200
00000000
,
00000300
00001000
00010000
01000000
,
00100000
00001000
00001000
00010000
,
00100000
01000000
00010000
10010000
,
00000000
10000000
01000000
00100000
,
00010000
01000000
00001000
00010000
,
00000100
00000010
00000001
00001001
,
00000000
00000000
00001000
00000000
00000000
00000100
00000000
00000000
,
00010000
01000000
00100000
00001000
,
00000000
00010000
00000000
00000000
00022000
00000000
00000000
00000000
,
00000000
00033000
00000000
00000000
,
00000000
00001000
00010000
00100000
01000000
00000000
20020000
00000000
,
00000000
00000000
00000000
00000000
,
00000000
00000000
00000000
30030000
;

//---------------dance-double - ----------------
#NOTES:
     dance-double:
     :
     Easy:
     3:
     0.248,0.286,0.023,0.062,0.000: // measure 1
00000000
00000000
00000000
00000000
,  // measure 2
00000000
00000000
00000000
00000000
,  // measure 3
00000000
00000000
00000000
00000000
,  // measure 4
00000000
00000000
00000000
00000000
,  // measure 5
00000000
00000000
00000000
00000000
,  // measure 6
00000000
00000000
00000000
00000000
,  // measure 7
00000000
00000000
00000000
00000000
,  // measure 8
00000000
00000000
00011000
00000000
,  // measure 9
00000000
00000000
00000000
00000000
,  // measure 10
00000000
00000000
00000000
00001000
,  // measure 11
00000000
00001000
00000000
00000000
00001000
00000000
00000000
00000000
,  // measure 12
00000000
00000000
00010000
00000000
00000000
01000000
00000000
00000000
,  // measure 13
00200000
00000000
00000000
00000000
,  // measure 14
00300000
00000000
00000000
00000000
,  // measure 15
00000000
00000000
00010000
00000000
00000000
01000000
00000000
00000000
,  // measure 16
00001000
00000000
00000000
00010000
,  // measure 17
00000000
00000010
00000000
00000000
00000100
00000000
00000000
00000000
,  // measure 18
00000000
00000000
00000001
00000000
00000000
00000001
00000000
00000000
,  // measure 19
00001000
00000000
00000000
00001000
00000000
00000000
00000010
00000000
,  // measure 20
00000000
00000200
00000000
00000000
00000000
00000000
00000300
00000000
,  // measure 21
00000000
00000000
00000010
00000000
00000000
00010000
00000000
00000000
,  // measure 22
00001000
00000000
00000000
00010000
,  // measure 23
00000000
00001000
00000000
00000000
01000000
00000000
00000000
00000000
,  // measure 24
00000000
00000000
00010000
00000000
00000000
00010000
00000000
00000000
,  // measure 25
10000000
00000000
00000000
10000000
00000000
00000000
01000000
00000000
,  // measure 26
00000000
00200000
00000000
00000000
00000000
00000000
00300000
00000000
,  // measure 27
00000000
00001000
00000000
00010000
,  // measure 28
00000100
00000000
00000000
00001000
,  // measure 29
00000000
00000010
00000000
00000000
00000100
00000000
00000000
00000000
,  // measure 30
00000000
00001000
00000000
00000001
,  // measure 31
00000010
00000000
00000000
00000100
,  // measure 32
00000000
00010000
00000000
00000000
00001000
00000000
00000000
00000000
,  // measure 33
00000000
01000000
00000000
00100000
,  // measure 34
10000000
00000000
01000000
00100000
,  // measure 35
00000000
00010000
00000000
00000000
01000000
00000000
00000000
00000000
,  // measure 36
00000000
00001000
00000000
00010000
,  // measure 37
00010000
00000000
00001000
00000100
,  // measure 38
00000000
00000010
00000000
00000000
00001000
00000000
00000000
00000001
,  // measure 39
00000000
00002000
00000000
00000000
,  // measure 40
00000000
00003000
00000000
00000000
,  // measure 41
00000000
00000000
00000000
00000100
,  // measure 42
00010000
00001000
00000000
00000000
,  // measure 43
00000000
01000000
00100000
10000000
,  // measure 44
00000000
01000000
00000000
00000000
00010000
00000000
00000000
00000000
,  // measure 45
00000000
00000010
00001000
00000010
,  // measure 46
00001000
00000000
00000000
00000000
,  // measure 47
00000000
00000000
00000000
00000001
,  // measure 48
00000010
00000100
00000000
00000000
,  // measure 49
00000000
00010000
00000100
00010000
,  // measure 50
00000000
00001000
00000000
00000000
01000000
00000000
00100000
00000000
,  // measure 51
10000000
00000000
00010000
00000000
00000000
00100000
00000000
00000000
,  // measure 52
00000000
00000000
00000000
00001000
,  // measure 53
00000100
00000010
00001000
00000000
,  // measure 54
00000001
00000000
00000010
00000000
00000000
00000100
00000000
00000000
,  // measure 55
00000010
00000000
00000000
00000100
00000000
00000000
00001000
00000000
,  // measure 56
00000000
00000001
00000000
00000000
00001000
00000000
00000000
00000000
,  // measure 57
00000010
00000000
00000100
00000000
00000000
00001000
00000000
00000000
,  // measure 58
00000000
00010000
00001000
01000000
,  // measure 59
00000000
00010000
00000000
00000000
10000000
00000000
00100000
00000000
,  // measure 60
10000000
00000000
00100000
00000000
00000000
01000000
00000000
00000000
,  // measure 61
00100000
00000000
00000000
01000000
00000000
00000000
00010000
00000000
,  // measure 62
00000000
00000000
00100000
00100000
,  // measure 63
00000000
00001000
00000000
00001000
,  // measure 64
00010000
00000000
00010000
00000100
,  // measure 65
00000000
00000100
00000000
00000000
00000100
00000000
00000010
00000000
,  // measure 66
00000000
00000001
00000000
00000001
,  // measure 67
00000100
00000000
00000100
00000010
,  // measure 68
00000000
00000010
00000000
00000000
00000010
00000000
00010000
00000000
,  // measure 69
00000000
00001000
00000000
00001000
,  // measure 70
00100000
00000000
00100000
01000000
,  // measure 71
00000000
01000000
00000000
00000000
01000000
00000000
10000000
00000000
,  // measure 72
00000000
00010000
00000000
00010000
,  // measure 73
01000000
00000000
01000000
00100000
,  // measure 74
00000000
00100000
00000000
00000000
00100000
00000000
00010000
00000000
,  // measure 75
00000000
00001000
00010000
00000000
,  // measure 76
00010000
00000100
00000000
00000010
,  // measure 77
00000000
00000100
00000000
00000000
00001000
00000000
00001000
00000000
,  // measure 78
00000000
00000001
00000100
00000000
,  // measure 79
00000100
00001000
00000000
00010000
,  // measure 80
00000000
00001000
00000000
00000000
00010000
00000000
00010000
00000000
,  // measure 81
00000000
00001000
01000000
00000000
,  // measure 82
01000000
00100000
00000000
00100000
,  // measure 83
00000000
10000000
00000000
00000000
00010000
00000000
00010000
00000000
,  // measure 84
00000000
01000000
00100000
00000000
,  // measure 85
00100000
00010000
00000000
00001000
,  // measure 86
00000000
00000010
00000000
00000000
00000100
00000000
00000100
00000000
,  // measure 87
00000000
00001000
00000000
00000001
,  // measure 88
00000100
00000000
00000000
00001000
,  // measure 89
00000000
00010000
00100000
00000000
,  // measure 90
00000000
10000000
00000000
01000000
,  // measure 91
00010000
00000000
00000000
00001000
,  // measure 92
00000000
00000010
00000001
00000000
,  // measure 93
00000000
00000100
00000100
00000010
,  // measure 94
00000010
00000000
00000000
00010000
,  // measure 95
00010000
00001000
00001000
00000000
,  // measure 96
00000000
01000000
01000000
00100000
,  // measure 97
00100000
00000000
00000000
10000000
,  // measure 98
10000000
00010000
00010000
00000000
,  // measure 99
00000000
00000000
00100000
00000000
00000000
01000000
00000000
00000000
,  // measure 100
10000000
00000000
00000000
00100000
00000000
00000000
01000000
00000000
,  // measure 101
00000000
00010000
00000000
00000000
20020000
00000000
00000000
00000000
,  // measure 102
00000000
00000000
30030000
00000000
,  // measure 103
00000000
00000000
00000000
02200000
,  // measure 104
00000000
00000000
00000000
00000000
,  // measure 105
00000000
00000000
00000000
03300000
;
