#TITLE:MAD HEAD LOVE;
#SUBTITLE:;
#ARTIST:米津玄師;
#TITLETRANSLIT:;
#SUBTITLETRANSLIT:;
#ARTISTTRANSLIT:Kenshi Yonezu;
#CREDIT:brunobg24;
#BANNER:[Qualifier Singles & Doubles] - MAD HEAD LOVE.png;
#BACKGROUND:[Qualifier Singles & Doubles] - MAD HEAD LOVE-bg.png;
#JACKET:[Qualifier Singles & Doubles] - MAD HEAD LOVE-jacket.png
#LYRICSPATH:;
#CDTITLE:cdtitle.png;
#MUSIC:[Qualifier Singles & Doubles] - MAD HEAD LOVE.ogg;
#OFFSET:0.000;
#SAMPLESTART:33.942;
#SAMPLELENGTH:18.143;
#SELECTABLE:YES;
#BPMS:0.000=212.000;
#STOPS:;
#BGCHANGES:;

//---------------dance-single - ----------------
#NOTES:
     dance-single:
     :
     Hard:
     9:
     0.783,0.731,0.818,0.169,0.053:
0000
0000
0000
0000
,
0000
0000
0000
0000
,
0000
0000
0000
0000
,
0000
0000
0000
0000
,
1000
0100
1000
0100
1000
0010
0100
0001
,
0000
0010
0100
0010
0001
1000
0001
1000
,
0001
0100
0001
0100
0001
0010
0100
1000
,
0000
0010
0100
0010
1000
0001
1000
0001
,
1000
0010
1000
0010
1000
0100
0010
0001
,
0000
0010
0100
0010
0001
1000
0001
1000
,
0001
0010
0001
0010
0001
0100
0010
1000
,
0000
0010
0100
0010
1000
0001
1000
0001
,
2000
0000
0000
3001
0100
0010
0100
0001
,
1000
0100
0010
0001
0100
0000
0000
0020
,
0000
0000
1030
0100
1000
0000
0001
0000
0100
0000
0010
0000
1000
0000
0100
0000
,
0010
0100
1000
0000
0001
0000
1001
0000
,
1000
0000
0001
0010
1000
0000
0010
0001
,
0000
1000
0100
0001
0100
1000
0001
0010
,
0100
0000
1000
0010
0001
0000
0010
1000
,
0000
0001
0100
0010
1000
0001
0010
0100
,
1000
0000
0001
0000
1000
0000
0100
0000
0010
0000
0001
0000
,
1000
0000
0010
0000
0100
0000
0001
0000
0000
1001
0000
0000
,
2000
0000
0000
0000
3001
0000
0010
0100
,
0010
0001
0000
1000
0010
0000
0110
0000
,
1000
0000
0001
0100
0001
0000
1000
0100
,
0010
0100
1000
0000
0001
0000
0200
0000
,
0320
2030
3020
0230
,
0302
0023
0230
2300
,
3001
1000
0001
1000
0100
1000
0100
0010
,
0001
0101
1010
1000
,
0011
0000
0101
0000
1100
0000
1010
1000
,
0001
0000
0110
0000
1001
0000
1000
0100
,
0010
0000
0000
0100
1000
0001
0100
0010
,
1000
0101
0011
0000
,
1010
0000
1100
0000
0101
0000
0011
0001
,
1000
0000
1001
0000
0110
0000
0001
0100
,
0020
0000
0030
1000
0100
0000
1000
0001
,
0100
1010
1100
0000
,
0001
0010
0100
0010
0001
0010
1000
0010
,
0001
0100
0010
1000
0000
1001
0000
0010
,
0000
0000
1000
0100
1000
0000
0001
0000
0100
0000
0000
0000
0011
0000
0000
0000
,
1100
1100
1001
0010
,
1000
0100
0010
0100
1000
0100
0001
0100
,
1000
0010
0100
0001
0000
1001
0000
0100
,
0000
0000
0001
0010
0001
0000
1000
0000
0010
0000
0000
0000
1100
0000
0000
0000
,
0011
0011
1001
0100
,
0101
0000
0011
0000
1010
0000
1100
1000
,
0001
0000
0110
0000
1001
0000
0001
1000
,
0010
0000
0000
1000
0100
0001
0100
0010
,
0001
0101
0011
0000
,
1100
0000
1000
0010
0001
0000
0001
0010
,
1000
0000
0011
0000
1010
0000
0001
0100
,
0020
0000
0030
1000
0100
0000
0010
0001
,
1000
0011
1001
1000
,
0001
0000
1000
0010
1000
0000
0100
0010
,
0100
1000
0000
0001
1000
0001
0000
0100
,
0001
0010
0000
0100
1000
0001
0000
1000
,
0010
0000
0100
0000
0001
0010
0100
0000
,
0010
0001
1000
0000
0100
0010
0001
0000
,
1000
0010
1000
0000
0001
0100
0010
0000
,
1000
0100
0010
0100
0001
0100
0010
0100
,
1000
0001
0101
1000
,
0001
0000
1000
0010
0000
1000
0100
0010
,
0001
0100
0001
0000
1000
0100
1000
0000
,
0001
0000
1000
0100
0000
1000
0010
0100
,
0001
0010
0001
0000
1000
0010
1000
0000
,
0011
1010
1100
0101
,
0110
0000
1001
0000
1000
0100
0010
0001
,
0100
0000
0000
0100
0000
0010
0000
0000
,
0010
0000
0000
0000
0000
1000
0000
0000
0002
0000
0000
0000
0000
0000
0000
0000
,
0000
0000
0000
0003
,
1100
0000
1010
0000
0011
0000
0101
0001
,
1000
0000
0110
0000
1001
0000
0001
0010
,
0100
0000
0000
0010
0001
1000
0010
0100
,
0001
1010
1100
0000
,
0101
0000
0011
0000
1010
0000
1100
1000
,
0001
0000
1001
0000
0110
0000
1000
0010
,
0200
0000
0300
0001
0010
0000
0001
1000
,
0010
0101
0011
0000
,
1000
0100
0010
0100
1000
0100
0001
0100
,
1000
0010
0100
0001
0000
1001
0000
0100
,
0000
0000
0001
0010
0001
0000
1000
0000
0010
0000
0000
0000
1100
0000
0000
0000
,
0011
0011
1001
0100
,
0001
0010
0100
0010
0001
0010
1000
0010
,
0001
0100
0010
1000
0000
1001
0000
0010
,
0000
0000
1000
0100
1000
0000
0001
0000
0100
0000
0000
0000
0011
0000
0000
0000
,
1100
1100
1001
0010
,
1010
0000
1100
0000
0101
0000
0011
0001
,
1000
0000
0110
0000
1001
0000
1000
0001
,
0100
0000
0000
0001
0010
1000
0010
0100
,
1000
1010
1100
0000
,
0011
0000
0001
0100
1000
0000
1000
0100
,
0001
0000
1100
0000
0101
0000
1000
0010
,
0200
0000
0300
0001
0010
0000
0100
1000
,
0001
1100
1001
0000
,
0110
0000
0100
0001
0100
0000
0010
0000
,
1010
2000
3200
0310
;

//---------------dance-single - ----------------
#NOTES:
     dance-single:
     :
     Medium:
     7:
     0.510,0.731,0.044,0.133,0.000:
0000
0000
0000
0000
,
0000
0000
0000
0000
,
0000
0000
0000
0000
,
0000
0000
0000
0000
,
1000
0001
1000
0000
0001
0000
0010
0100
,
0000
1000
0010
0100
,
0001
1000
0001
0000
1000
0000
0010
0100
,
0000
0001
0010
0100
,
1000
0001
1000
0000
0001
0000
0100
0010
,
0000
1000
0100
0010
,
0001
1000
0001
0000
1000
0000
0100
0010
,
0000
0001
0100
0010
,
2000
0000
3100
0010
,
0001
0000
0100
0000
0010
0000
0000
0100
,
0000
0001
0010
0100
,
0010
0001
1000
0001
,
1000
0000
0010
1000
0010
0000
0100
0001
,
0000
1000
0100
0000
0010
0000
0001
0000
,
0100
0000
0010
1000
0010
0000
1000
0001
,
0000
0100
0001
0000
0010
0001
1000
0001
,
1000
0000
0001
0000
,
0100
0000
0010
0000
,
1000
0000
0100
0000
,
1000
0000
0000
0001
0100
0001
0100
0000
,
0001
1000
0010
1000
,
0100
1000
0001
0000
0010
0000
0002
0000
,
2003
3200
0320
0032
,
0203
0320
2030
3002
,
1003
0000
1001
0000
,
1001
0110
1001
0000
,
1000
1000
0001
0001
,
1000
0000
0010
0000
0100
0000
0001
0010
,
0001
0000
0000
1000
0100
0000
1000
0000
,
0001
0100
0001
0000
,
1000
1000
0001
0001
,
1000
0000
0100
0000
0010
0000
0001
0100
,
0002
0000
0000
0013
0100
0000
1000
0010
,
1000
0001
0010
0000
,
0001
0100
1000
0100
,
0001
0000
1000
0010
0000
0100
0000
0001
,
0000
0010
0001
0000
1000
0000
0010
0000
,
1000
0100
0010
0001
,
1000
0100
0001
0100
,
1000
0000
0001
0010
0000
0100
0000
1000
,
0000
0010
1000
0000
0001
0000
0010
0000
,
0001
0100
0010
1000
,
0001
0001
1000
1000
,
0010
0000
0100
0000
0001
0000
1000
0010
,
1000
0000
0000
0100
0010
0000
0001
0000
,
0100
0010
1000
0000
,
0001
0000
1000
0010
1000
0000
0001
0010
,
0001
0000
1000
0000
0100
0000
0010
0001
,
1000
0000
0000
0010
0100
0000
0001
1000
,
0001
1000
0010
0000
,
1000
0000
0001
0200
0000
0000
0301
0010
,
0001
1000
0000
0001
0100
0001
0000
1000
,
0100
1000
0000
0001
0010
0001
0000
1000
,
0010
0000
0100
0000
0000
0001
0010
0000
,
0001
1000
0001
0000
0000
1000
0010
0000
,
1000
0001
1000
0000
0000
0001
0100
0000
,
0001
0010
1000
0010
,
0001
0100
0010
0000
,
1000
0000
0100
0010
0000
0010
0000
0010
,
0001
1000
0001
1000
,
0001
0000
0010
0100
0000
0100
0000
0100
,
1000
0001
1000
0001
,
1000
0010
0100
0001
,
1000
0000
0001
0000
1000
0001
1000
0001
,
0000
0000
0000
0000
,
0000
0000
0000
0000
,
0000
0000
0000
0000
,
0001
0001
1000
1000
,
0001
0000
0100
0000
0010
0000
1000
0100
,
1000
0000
0000
0001
0010
0000
0001
0000
,
1000
0010
1000
0000
,
0001
0001
1000
1000
,
0001
0000
0010
0000
0100
0000
1000
0010
,
2000
0000
0000
3100
0010
0000
0001
0100
,
0001
1000
0100
0000
,
1000
0010
0001
0010
,
1000
0000
0001
0100
0000
0010
0000
1000
,
0000
0100
1000
0000
0001
0000
0100
0000
,
0001
0010
0100
1000
,
0001
0010
1000
0010
,
0001
0000
1000
0100
0000
0010
0000
0001
,
0000
0100
0001
0000
1000
0000
0100
0000
,
1000
0010
0100
0001
,
1000
1000
0001
0001
,
0100
0000
0010
0000
1000
0000
0001
0100
,
0001
0000
0000
0010
0100
0000
1000
0000
,
0010
0100
0001
0000
,
1000
0000
0001
0100
0001
0000
1000
0100
,
1000
0000
0001
0000
0010
0000
0100
1000
,
0001
0000
0000
0100
0010
0000
1000
0001
,
1000
0001
0100
0000
,
0001
0000
1001
0000
,
1000
0200
0320
0031
;

//---------------dance-double - ----------------
#NOTES:
     dance-double:
     :
     Hard:
     9:
     0.783,0.731,0.818,0.169,0.053:
00000000
00000000
00000000
00000000
,
00000000
00000000
00000000
00000000
,
00000000
00000000
00000000
00000000
,
00000000
00000000
00000000
00000000
,
10000000
01000000
10000000
01000000
10000000
00100000
01000000
00010000
,
00000000
00100000
00001000
00010000
00000100
00001000
00000010
00000100
,
00000001
00000100
00000001
00000100
00000001
00000010
00000100
00001000
,
00000000
00000010
00010000
00001000
01000000
00010000
00100000
01000000
,
10000000
00100000
10000000
00100000
10000000
01000000
00100000
00010000
,
00000000
01000000
00001000
00010000
00000010
00001000
00000100
00000010
,
00000001
00000010
00000001
00000010
00000001
00000100
00000010
00001000
,
00000000
00000100
00010000
00001000
00100000
00010000
01000000
00100000
,
20000000
00000000
00000000
30010000
01000000
00100000
01000000
00001000
,
00010000
00000100
00000010
00000001
00000100
00000000
00000000
00000002
,
00000000
00000000
00001003
00000100
00001000
00000000
00000010
00000000
00010000
00000000
00000100
00000000
01000000
00000000
00001000
00000000
,
00100000
00001000
00010000
00000000
00000010
00000000
00011000
00000000
,
00100000
00000000
00001000
00010000
00000100
00000000
00010000
00001000
,
00000000
01000000
00100000
01000000
00001000
00100000
00001000
00010000
,
00000100
00000000
00010000
00001000
00100000
00000000
00001000
00010000
,
00000000
00000010
00000100
00000001
00000010
00000001
00001000
00000100
,
00010000
00000000
01000000
00000000
10000000
00000000
01000000
00000000
00001000
00000000
00000100
00000000
,
00000001
00000000
00000100
00000000
00010000
00000000
00001000
00000000
00000000
00011000
00000000
00000000
,
00200000
00000000
00000000
00000000
00301000
00000000
00000100
00000010
,
00000100
00000001
00000000
00000010
00000100
00000000
00001000
00000000
,
00001001
00000000
00000100
00000010
00010000
00000000
01000000
10000000
,
00100000
01000000
00010000
00000000
00100000
00000000
00002000
00000000
,
02003000
03002000
00203000
00302000
,
00023000
00030020
00020030
00030200
,
00010300
00000010
00010000
00001000
00100000
00001000
00100000
00010000
,
10010000
00011000
00001001
00000100
,
00000011
00000000
00001100
00000000
01010000
00000000
10100000
10000000
,
01000000
00000000
01100000
00000000
10010000
00000000
10000000
01000000
,
00100000
00000000
00000000
01000000
10000000
00010000
01000000
00001000
,
00100000
00110000
00011000
00000000
,
11000000
00000000
00110000
00000000
00001010
00000000
00000101
00000001
,
00001000
00000000
00001001
00000000
00000110
00000000
00000001
00000100
,
00000020
00000000
00000030
00001000
00000100
00000000
00010000
00001000
,
01000000
01010000
00011000
00000000
,
00001000
00010000
00000010
00010000
00001000
00010000
00000100
00010000
,
00001000
01000000
00100000
10000000
00000000
10010000
00000000
00100000
,
00000000
00000000
01000000
10000000
01000000
00000000
10000000
00000000
00010000
00000000
00000000
00000000
00110000
00000000
00000000
00000000
,
00011000
00001010
00011000
00000100
,
00010000
00001000
00100000
00001000
00010000
00001000
01000000
00001000
,
00010000
00000100
00000010
00000001
00000000
00001001
00000000
00000010
,
00000000
00000000
00000100
00000001
00000100
00000000
00000001
00000000
00001000
00000000
00000000
00000000
00001010
00000000
00000000
00000000
,
00011000
00110000
00011000
01000000
,
10100000
00000000
01010000
00000000
00001100
00000000
00000011
00000001
,
00001000
00000000
00000110
00000000
00001001
00000000
00000100
00010000
,
00001000
00000000
00000000
00010000
01000000
10000000
00010000
00100000
,
01000000
00110000
00011000
00000000
,
10010000
00000000
10000000
01000000
00010000
00000000
00001000
00000010
,
00000001
00000000
00000011
00000000
00001010
00000000
00000100
00010000
,
00002000
00000000
00003000
00100000
00010000
00000000
01000000
00001000
,
00010000
00011000
00011000
00001000
,
00100000
00000000
00010000
01000000
00010000
00000000
10000000
01000000
,
00100000
00010000
00000000
01000000
00001000
00010000
00000000
00001000
,
00010000
00000100
00000000
00000010
00000001
00000010
00000000
00000001
,
00000100
00000000
00000010
00000000
00001000
00000100
00010000
00000000
,
00001000
01000000
00010000
00000000
00100000
00001000
00010000
00000000
,
00000010
00010000
00001000
00000000
01000000
00100000
10000000
00000000
,
00010000
00000100
00010000
01000000
00010000
10000000
00010000
00100000
,
00010000
01000000
01001000
00001000
,
00010000
00000000
00001000
00010000
00000000
00000010
00000100
00000001
,
00001000
00000100
00001000
00000000
00001000
00000010
00010000
00000000
,
00001000
00000000
00010000
00001000
00000000
00100000
01000000
10000000
,
00010000
01000000
00010000
00000000
00010000
00100000
00001000
00000000
,
00011000
00001100
00000101
00011000
,
01010000
00000000
11000000
00000000
10000000
01000000
00100000
00010000
,
01000000
00000000
00000000
01000000
00000000
00001000
00000000
00000000
,
00001000
00000000
00000000
00000000
00000000
00100000
00000000
00000000
02000000
00000000
00000000
00000000
00000000
00000000
00000000
00000000
,
00000000
00000000
00000000
03000000
,
11000000
00000000
00110000
00000000
00001010
00000000
00000101
00000001
,
00000010
00000000
00000110
00000000
00001001
00000000
00000001
00000010
,
00000100
00000000
00000000
00000010
00000001
00001000
00000010
00010000
,
00000100
00001100
00011000
00000000
,
00000011
00000000
00001100
00000000
01010000
00000000
10100000
10000000
,
00010000
00000000
10010000
00000000
01100000
00000000
10000000
00100000
,
02000000
00000000
03000000
00010000
00100000
00000000
00001000
00010000
,
00000010
00001010
00011000
00000000
,
00010000
00001000
01000000
00001000
00010000
00001000
00100000
00001000
,
00010000
00000010
00000100
00000001
00000000
00001001
00000000
00000100
,
00000000
00000000
00000010
00000001
00000010
00000000
00000001
00000000
00001000
00000000
00000000
00000000
00001100
00000000
00000000
00000000
,
00011000
01010000
00011000
00100000
,
00001000
00010000
00000100
00010000
00001000
00010000
00000010
00010000
,
00001000
00100000
01000000
10000000
00000000
10010000
00000000
01000000
,
00000000
00000000
00100000
10000000
00100000
00000000
10000000
00000000
00010000
00000000
00000000
00000000
01010000
00000000
00000000
00000000
,
00011000
00001100
00011000
00000010
,
00000101
00000000
00001010
00000000
00110000
00000000
11000000
10000000
,
00010000
00000000
01100000
00000000
10010000
00000000
00100000
00001000
,
00010000
00000000
00000000
00001000
00000010
00000001
00001000
00000100
,
00000010
00001100
00011000
00000000
,
00001001
00000000
00000001
00000010
00001000
00000000
00010000
01000000
,
10000000
00000000
11000000
00000000
01010000
00000000
00100000
00001000
,
00020000
00000000
00030000
00000100
00001000
00000000
00000010
00010000
,
00001000
00011000
00011000
00000000
,
00100000
00000000
00001000
00010000
00000010
00000000
00010000
00000000
,
00011000
00000200
00002300
00003001
;

//---------------dance-single - ----------------
#NOTES:
     dance-single:
     :
     Easy:
     4:
     0.391,0.387,0.027,0.018,0.000:
0000
0000
0000
0000
,
0000
0000
0000
0000
,
0000
0000
0000
0000
,
0000
0000
0000
0000
,
1000
0001
1000
0001
,
0000
1000
0100
1000
,
0001
1000
0001
1000
,
0000
0001
0100
0001
,
1000
0001
1000
0001
,
0000
1000
0010
1000
,
0001
1000
0001
1000
,
0000
0001
0010
0001
,
1000
0000
0010
0000
,
1000
0000
0001
0000
,
1000
0000
0100
0000
,
1000
0000
0010
0000
,
0100
0000
0001
0000
,
0010
0000
0100
0000
,
1000
0000
0001
0000
,
0100
0000
0001
1000
,
0001
0010
0001
0010
,
0100
1000
0100
1000
,
0001
0000
1000
0000
,
0100
0000
0010
0001
,
1000
0100
1000
0010
,
1000
0001
1000
0001
,
1000
0001
0010
0100
,
1000
0010
0100
0001
,
0010
0000
0110
0000
,
1000
0001
1001
0000
,
0001
0001
1000
1000
,
0010
0100
0001
1000
,
0100
0000
0010
0001
,
1000
0010
0100
0000
,
0001
0001
1000
1000
,
0010
0100
0001
0010
,
0001
0000
1000
0100
,
1000
0001
1000
0000
,
0010
0100
0010
0100
,
0001
1000
0100
0010
,
0001
0100
0010
0100
,
0001
1000
0100
0010
,
0001
1000
0001
1000
,
0010
0100
0001
0010
,
0100
1000
0010
0100
,
0001
1000
0001
0000
,
1000
1000
0001
0001
,
0100
0001
0010
0001
,
1000
0000
0010
1000
,
0100
0010
0001
0000
,
1000
1000
0001
0001
,
0100
0001
0010
0100
,
1000
0000
0001
0100
,
0001
0010
0001
0000
,
1000
0000
0010
1000
,
0010
0000
1000
0010
,
1000
0000
0001
0100
,
0001
0000
0010
0000
,
0001
0000
0100
0010
,
0100
0000
0010
1000
,
0010
0000
1000
0100
,
1000
0000
0001
0000
,
1000
0000
0010
0000
0000
0010
0000
0010
,
0000
0100
0001
0010
,
0001
0000
0100
0000
0000
0100
0000
0100
,
0000
0010
1000
0001
,
0010
0001
0100
0010
,
1000
0100
0010
0001
,
0000
0000
0000
0000
,
0000
0000
0000
0000
,
0000
0000
0000
0000
,
1000
1000
0001
0001
,
0100
0010
1000
0001
,
0010
0000
0100
1000
,
0001
0100
0010
0000
,
1000
1000
0001
0001
,
0100
0010
1000
0100
,
1000
0000
0001
0010
,
0001
1000
0001
0000
,
0100
0010
0100
0010
,
1000
0001
0010
0100
,
1000
0010
0100
0010
,
1000
0001
0010
0100
,
1000
0001
1000
0001
,
0100
0010
1000
0100
,
0010
0001
0100
0010
,
1000
0001
1000
0000
,
0001
0001
1000
1000
,
0010
1000
0100
1000
,
0001
0000
0100
0001
,
0010
0100
1000
0000
,
0001
0001
1000
1000
,
0010
1000
0100
0010
,
0001
0000
1000
0010
,
1000
0100
1000
0000
,
0001
0000
1001
0000
,
1000
0200
0320
0031
;

//---------------dance-double - ----------------
#NOTES:
     dance-double:
     :
     Medium:
     7:
     0.507,0.731,0.044,0.133,0.000:
00000000
00000000
00000000
00000000
,
00000000
00000000
00000000
00000000
,
00000000
00000000
00000000
00000000
,
00000000
00000000
00000000
00000000
,
00000001
00001000
00000001
00000000
00001000
00000000
00000100
00010000
,
00000000
00001000
01000000
00010000
,
10000000
00010000
10000000
00000000
00010000
00000000
01000000
00001000
,
00000000
00010000
00000100
00001000
,
00000001
00001000
00000001
00000000
00001000
00000000
00000010
00010000
,
00000000
00001000
00100000
00010000
,
10000000
00010000
10000000
00000000
00010000
00000000
00100000
00001000
,
00000000
00010000
00000010
00001000
,
00000002
00000000
00000013
00000100
,
00001000
00000000
00000010
00000000
00000100
00000000
00000000
00001000
,
00000000
01000000
00010000
10000000
,
00100000
10000000
00010000
00100000
,
00001000
00000000
00010000
00001000
00010000
00000000
00001000
01000000
,
00000000
00001000
00010000
00000000
00000100
00000000
00000010
00000000
,
00000100
00000000
00010000
00001000
00010000
00000000
00001000
00100000
,
00000000
00001000
00010000
00000000
00000100
00001000
00000100
00000010
,
00000001
00000000
00000100
00000000
,
00010000
00000000
00000100
00000000
,
00000010
00000000
00001000
00000000
,
01000000
00000000
00000000
10000000
00100000
10000000
00100000
00000000
,
10000000
01000000
00100000
00010000
,
01000000
00001000
00010000
00000000
00000100
00000000
00000020
00000000
,
00000032
00000203
00002300
00023000
,
02030000
23000000
30200000
02300000
,
03010000
00000000
00011000
00000000
,
00010010
00011000
00101000
00000000
,
00010000
00010000
00001000
00001000
,
01000000
00000000
00001000
00000000
00010000
00000000
00000010
00000100
,
00000010
00000000
00000000
00001000
00000100
00000000
00010000
00000000
,
00001000
01000000
00001000
00000000
,
00010000
00010000
00001000
00001000
,
00100000
00000000
00001000
00000000
00010000
00000000
00000100
00000010
,
00000200
00000000
00000000
00001300
00000001
00000000
00001000
00000010
,
00001000
00000100
00010000
00000000
,
00001000
01000000
00001000
00100000
,
00001000
00000000
00010000
00001000
00000000
01000000
00000000
00100000
,
00000000
10000000
01000000
00000000
00100000
00000000
00010000
00000000
,
01000000
00001000
00100000
00001000
,
00010000
00000100
00010000
00000010
,
00010000
00000000
00001000
00010000
00000000
00000100
00000000
00000010
,
00000000
00000001
00000100
00000000
00000010
00000000
00001000
00000000
,
00000100
00010000
00000010
00010000
,
00001000
00001000
00010000
00010000
,
00000010
00000000
00010000
00000000
00001000
00000000
01000000
00100000
,
01000000
00000000
00000000
00010000
00100000
00000000
00001000
00000000
,
00010000
00000010
00010000
00000000
,
00001000
00000000
00010000
00000100
00010000
00000000
00001000
00100000
,
00001000
00000000
00010000
00000000
00001000
00000000
00100000
01000000
,
00100000
00000000
00000000
00010000
10000000
00000000
00010000
01000000
,
00010000
00100000
00001000
00000000
,
00010000
00000000
00000100
00000020
00000000
00000000
00000031
00001000
,
00000001
00001000
00000000
00000100
00010000
00000100
00000000
01000000
,
00001000
01000000
00000000
00010000
10000000
00010000
00000000
10000000
,
00010000
00000000
10000000
00000000
00000000
00010000
00100000
00000000
,
00001000
00010000
00001000
00000000
00000000
00010000
00000010
00000000
,
00001000
00000100
00001000
00000000
00000000
00000010
00000100
00000000
,
00000001
00000010
00001000
00010000
,
01000000
10000000
00010000
00000000
,
10000000
00000000
01000000
00100000
00000000
00100000
00000000
00100000
,
00010000
00000100
00010000
01000000
,
00001000
00000000
00100000
00001000
00000000
00001000
00000000
00001000
,
00010000
00000100
00010000
01000000
,
00010000
00001000
00010000
00001000
,
00100000
00001000
00010000
00000010
,
00000000
00000000
00000000
00000000
,
00000000
00000000
00000000
00000000
,
00000000
00000000
00000000
00000000
,
00001000
00001000
00010000
00010000
,
00000010
00000000
00010000
00000000
00001000
00000000
01000000
00100000
,
01000000
00000000
00000000
00010000
00100000
00000000
00001000
00000000
,
00010000
00000010
00010000
00000000
,
00001000
00001000
00010000
00010000
,
00000100
00000000
00010000
00000000
00001000
00000000
00100000
01000000
,
00200000
00000000
00000000
00310000
10000000
00000000
00010000
01000000
,
00010000
00100000
00001000
00000000
,
00010000
00000010
00010000
00000100
,
00010000
00000000
00001000
00010000
00000000
00000010
00000000
00000100
,
00000000
00000001
00000010
00000000
00000100
00000000
00001000
00000000
,
00000010
00010000
00000100
00010000
,
00001000
00100000
00001000
01000000
,
00001000
00000000
00010000
00001000
00000000
00100000
00000000
01000000
,
00000000
10000000
00100000
00000000
01000000
00000000
00010000
00000000
,
00100000
00001000
01000000
00001000
,
00010000
00010000
00001000
00001000
,
01000000
00000000
00001000
00000000
00010000
00000000
00000010
00000100
,
00000010
00000000
00000000
00001000
00000100
00000000
00010000
00000000
,
00001000
01000000
00001000
00000000
,
00010000
00000000
00001000
00100000
00001000
00000000
00010000
00000100
,
00010000
00000000
00001000
00000000
00010000
00000000
00000100
00000010
,
00000100
00000000
00000000
00001000
00000001
00000000
00001000
00000010
,
00001000
00000100
00010000
00000000
,
00001000
00000000
00011000
00000000
,
00010000
00000200
00000320
00000031
;

//---------------dance-double - ----------------
#NOTES:
     dance-double:
     :
     Easy:
     4:
     0.389,0.387,0.027,0.018,0.000:
00000000
00000000
00000000
00000000
,
00000000
00000000
00000000
00000000
,
00000000
00000000
00000000
00000000
,
00000000
00000000
00000000
00000000
,
10000000
00010000
10000000
00010000
,
00000000
01000000
00001000
00000100
,
00000001
00001000
00000001
00001000
,
00000000
00000100
00010000
01000000
,
10000000
00010000
10000000
00010000
,
00000000
00100000
00001000
00000010
,
00000001
00001000
00000001
00001000
,
00000000
00000010
00010000
00100000
,
10000000
00000000
01000000
00000000
,
00100000
00000000
01000000
00000000
,
10000000
00000000
00010000
00000000
,
00100000
00000000
00001000
00000000
,
00010000
00000000
00000100
00000000
,
00010000
00000000
00000010
00000000
,
00001000
00000000
00000001
00000000
,
00000010
00000000
00000100
00001000
,
01000000
00100000
01000000
00100000
,
00010000
01000000
00010000
01000000
,
00100000
00000000
01000000
00000000
,
00001000
00000000
00010000
00001000
,
00000010
00000100
00000010
00000001
,
00000100
00001000
00100000
00010000
,
01000000
00100000
10000000
01000000
,
00100000
00010000
00001000
00000100
,
00000010
00000000
00000011
00000000
,
00000001
00001000
00001100
00000000
,
00010000
00010000
00001000
00001000
,
00100000
00001000
00010000
00000010
,
00000100
00000000
00000001
00001000
,
00000100
00010000
00001000
00000000
,
00010000
00010000
00001000
00001000
,
00100000
00001000
01000000
00010000
,
10000000
00000000
00100000
10000000
,
01000000
00100000
01000000
00000000
,
00010000
00000100
00010000
00000010
,
00010000
00001000
00100000
01000000
,
10000000
00100000
01000000
00010000
,
01000000
00001000
00010000
00000000
,
00001000
01000000
00001000
00100000
,
00001000
00010000
00000010
00000100
,
00000001
00000010
00000100
00001000
,
00000100
00010000
00001000
00000000
,
00010000
00010000
00001000
00001000
,
01000000
00001000
00010000
00000100
,
00000010
00000000
00000001
00001000
,
00000010
00010000
00001000
00000000
,
00010000
00010000
00001000
00001000
,
01000000
00001000
00100000
00010000
,
10000000
00000000
01000000
10000000
,
00100000
01000000
00100000
00000000
,
01000000
00000000
00001000
00010000
,
00001000
00000000
00010000
00000010
,
00010000
00000000
00001000
00100000
,
00001000
00000000
00010000
00000000
,
00001000
00000000
00010000
00001000
,
00010000
00000000
00001000
01000000
,
00001000
00000000
00010000
00000100
,
00010000
00000000
00001000
00000000
,
00100000
00000000
00010000
00000000
00000000
00010000
00000000
00010000
,
00000000
01000000
00010000
00000100
,
00000010
00000000
00001000
00000000
00000000
00001000
00000000
00001000
,
00000000
00000100
00001000
01000000
,
00100000
00010000
00001000
00000010
,
00000100
00001000
00010000
01000000
,
00000000
00000000
00000000
00000000
,
00000000
00000000
00000000
00000000
,
00000000
00000000
00000000
00000000
,
00001000
00001000
00010000
00010000
,
00000100
00010000
00001000
01000000
,
00100000
00000000
10000000
00010000
,
00100000
00001000
00010000
00000000
,
00001000
00001000
00010000
00010000
,
00000100
00010000
00000010
00001000
,
00000001
00000000
00000100
00000001
,
00000010
00000100
00000010
00000000
,
00001000
00100000
00001000
01000000
,
00001000
00010000
00000100
00000010
,
00000001
00000100
00000010
00001000
,
00000010
00010000
00001000
00000000
,
00010000
00000010
00010000
00000100
,
00010000
00001000
01000000
00100000
,
10000000
01000000
00100000
00010000
,
00100000
00001000
00010000
00000000
,
00001000
00001000
00010000
00010000
,
00000010
00010000
00001000
00100000
,
01000000
00000000
10000000
00010000
,
01000000
00001000
00010000
00000000
,
00001000
00001000
00010000
00010000
,
00000010
00010000
00000100
00001000
,
00000001
00000000
00000010
00000001
,
00000100
00000010
00000100
00000000
,
00001000
00000000
00011000
00000000
,
00010000
00200000
02300000
13000000
;

//---------------dance-single - ----------------
#NOTES:
     dance-single:
     :
     Beginner:
     2:
     0.212,0.256,0.000,0.053,0.000: // measure 1
0000
0000
0000
0000
,  // measure 2
0000
0000
0000
0000
,  // measure 3
0000
0000
0000
0000
,  // measure 4
0000
0000
0000
0000
,  // measure 5
1000
0000
0000
0000
,  // measure 6
0000
1000
0000
0000
,  // measure 7
0001
0000
0000
0000
,  // measure 8
0000
0001
0000
0000
,  // measure 9
0100
0000
0000
0000
,  // measure 10
0000
0100
0000
0000
,  // measure 11
0010
0000
0000
0000
,  // measure 12
0000
0010
0000
0000
,  // measure 13
1000
0000
1000
0000
,  // measure 14
0100
0000
0100
0000
,  // measure 15
0010
0000
0010
0000
,  // measure 16
0001
0000
0001
0000
,  // measure 17
1000
0000
1000
0000
,  // measure 18
0010
0000
0010
0000
,  // measure 19
0100
0000
0100
0000
,  // measure 20
0001
0000
0001
0000
,  // measure 21
1000
0000
0000
0000
,  // measure 22
0001
0000
0000
0000
,  // measure 23
0100
0000
0000
0000
,  // measure 24
0010
0000
0000
0000
,  // measure 25
1000
0000
0000
0000
,  // measure 26
0100
0000
0000
0000
,  // measure 27
0010
0000
0000
0000
,  // measure 28
0001
0000
0000
0000
,  // measure 29
1000
0000
1000
0000
,  // measure 30
0001
1000
0001
0000
,  // measure 31
1000
0000
0010
0000
,  // measure 32
1000
0000
0010
0000
,  // measure 33
0100
0000
0001
0000
,  // measure 34
0100
0000
0001
0000
,  // measure 35
1000
0000
0100
0000
,  // measure 36
1000
0000
0100
0000
,  // measure 37
0010
0000
0001
0000
,  // measure 38
0010
0000
0001
0000
,  // measure 39
0100
0000
0010
0000
,  // measure 40
0100
0000
0010
0000
,  // measure 41
1000
0000
0001
0000
,  // measure 42
1000
0000
0001
0000
,  // measure 43
0010
0000
0100
0000
,  // measure 44
0010
0000
0100
0000
,  // measure 45
1000
0000
0010
0000
,  // measure 46
1000
0000
0010
0000
,  // measure 47
1000
0000
0100
0000
,  // measure 48
1000
0000
0100
0000
,  // measure 49
0010
0000
0001
0000
,  // measure 50
0010
0000
0001
0000
,  // measure 51
1000
0000
0001
0000
,  // measure 52
1000
0000
0010
0000
,  // measure 53
1000
0000
0100
0000
,  // measure 54
1000
0000
0001
0000
,  // measure 55
2000
0000
0000
0000
,  // measure 56
3002
0000
0000
0000
,  // measure 57
0023
0000
0000
0000
,  // measure 58
0130
0000
0100
0000
,  // measure 59
2000
0000
0000
0000
,  // measure 60
3200
0000
0000
0000
,  // measure 61
0320
0000
0000
0000
,  // measure 62
0031
0000
0001
0000
,  // measure 63
1000
0100
0000
1000
,  // measure 64
0000
0001
0000
0100
,  // measure 65
0001
0100
0000
0010
,  // measure 66
0000
1000
0000
0001
,  // measure 67
1000
0000
0100
0000
,  // measure 68
0010
0000
0001
1000
,  // measure 69
0000
0000
0000
0000
,  // measure 70
0000
0000
0000
0000
,  // measure 71
0000
0000
0000
0000
,  // measure 72
0001
0000
0100
0000
,  // measure 73
0001
0000
0100
0000
,  // measure 74
0010
0000
1000
0000
,  // measure 75
0010
0000
1000
0000
,  // measure 76
0001
0000
0010
0000
,  // measure 77
0001
0000
0010
0000
,  // measure 78
0100
0000
1000
0000
,  // measure 79
0100
0000
1000
0000
,  // measure 80
0010
0000
0100
0000
,  // measure 81
0010
0000
0100
0000
,  // measure 82
0001
0000
1000
0000
,  // measure 83
0001
0000
1000
0000
,  // measure 84
0100
0000
0010
0000
,  // measure 85
0100
0000
0010
0000
,  // measure 86
0001
0000
0100
0000
,  // measure 87
0001
0000
0100
0000
,  // measure 88
0001
0000
0010
0000
,  // measure 89
0001
0000
0010
0000
,  // measure 90
0100
0000
1000
0000
,  // measure 91
0100
0000
1000
0000
,  // measure 92
0001
0000
1000
0000
,  // measure 93
0001
0000
0100
0000
,  // measure 94
0001
0000
0010
0000
,  // measure 95
0001
0000
1000
0000
,  // measure 96
0100
0000
0100
0000
,  // measure 97
0100
0000
0000
0000
;
