#TITLE:LET THERE BE LOVE;
#SUBTITLE:;
#ARTIST:Christina Aguilera;
#TITLETRANSLIT:;
#SUBTITLETRANSLIT:;
#ARTISTTRANSLIT:;
#GENRE:;
#CREDIT:hooky;
#BANNER:[Qualifier Singles & Doubles] - LET THERE BE LOVE.png;
#BACKGROUND:[Qualifier Singles & Doubles] - LET THERE BE LOVE-bg.png;
#LYRICSPATH:;
#CDTITLE:;
#MUSIC:[Qualifier Singles & Doubles] - LET THERE BE LOVE.ogg;
#OFFSET:-0.138000;
#SAMPLESTART:60.148998;
#SAMPLELENGTH:15.000000;
#SELECTABLE:YES;
#DISPLAYBPM:128.000000;
#BPMS:0.000000=128.000000
;
#STOPS:
;
#BGCHANGES:;
#KEYSOUNDS:;
#ATTACKS:;

//---------------dance-single - ----------------
#NOTES:
     dance-single:
     :
     Easy:
     3:
     0.202375,0.259252,0.101849,0.055554,0.000000,136.000000,11.000000,6.000000,0.000000,0.000000,0.000000,0.202375,0.259252,0.101849,0.055554,0.000000,136.000000,11.000000,6.000000,0.000000,0.000000,0.000000:
0000
0000
0000
0000
,
0000
0000
0000
0000
,
0000
0000
0000
0000
,
0000
0000
0000
0000
,
2000
0000
0000
0000
,
0000
0000
0000
3000
,
0002
0000
0000
0000
,
0000
0000
0000
0003
,
1000
0000
1000
0000
,
0001
0000
0000
0000
,
0001
0000
0001
0000
,
0010
0000
0000
0000
,
0100
0000
1000
0000
,
0010
0000
0000
0000
,
0100
0000
0001
0000
,
1000
0000
0001
0000
,
1000
1000
0010
0000
,
0100
0001
0010
0000
,
0001
0001
1000
1000
,
0010
0100
0220
0330
,
0010
0000
1000
0000
,
1000
0010
1010
0000
,
0010
0000
0010
0100
,
0001
0001
0202
0303
,
0001
0001
0010
0000
,
1001
0000
1001
0000
,
0010
0010
0010
0000
,
0110
0000
0110
0000
,
1000
0100
1000
0100
,
0010
0001
0010
0001
,
0100
0000
0100
0000
,
0010
0010
0010
1001
,
0100
0010
1000
0010
,
0100
0000
0100
0000
,
0001
0010
0001
0100
,
0010
0000
0010
0000
,
1000
0100
1000
0001
,
0100
0000
0100
0000
,
0001
0010
0001
0100
,
0010
0010
0100
0100
,
0001
1000
0100
1000
,
0010
0000
0010
0000
,
1000
0100
0001
0100
,
1000
0000
1000
0000
,
1000
0010
0001
0010
,
1000
0000
1000
0000
,
0010
0100
0001
0000
,
0001
0001
1001
0000
,
0110
0000
0010
0000
,
0010
1000
0100
0000
,
1000
0000
1000
0000
,
0010
0100
0001
0000
,
0010
0001
0100
1000
,
0010
0000
0010
0000
,
0010
1000
0100
0001
,
0010
0000
0010
0000
,
1001
0000
0000
0000
;

//---------------dance-single - Copied from----------------
#NOTES:
     dance-single:
     Copied from:
     Beginner:
     1:
     0.105817,0.155551,0.027777,0.000000,0.000000,77.000000,3.000000,0.000000,0.000000,0.000000,0.000000,0.105817,0.155551,0.027777,0.000000,0.000000,77.000000,3.000000,0.000000,0.000000,0.000000,0.000000:
0000
0000
0000
0000
,
0000
0000
0000
0000
,
0000
0000
0000
0000
,
0000
0000
0000
0000
,
0000
0000
0000
0000
,
0000
0000
0000
0000
,
0000
0000
0000
0000
,
0000
0000
0000
0000
,
1000
0000
0000
0000
,
1000
0000
0000
0000
,
0001
0000
0000
0000
,
0001
0000
0000
0000
,
1000
0000
0000
0000
,
1000
0000
0000
0000
,
0001
0000
0000
0000
,
0001
0000
0000
0000
,
1000
0000
1000
0000
,
1000
0000
0000
0000
,
0001
0000
0001
0000
,
0001
0000
0000
0000
,
1000
0000
1000
0000
,
1000
0000
0000
0000
,
0001
0000
0001
0000
,
0001
0000
0000
0000
,
1001
0000
0000
0000
,
0100
0000
0000
0000
,
0110
0000
0000
0000
,
1000
0000
0000
0000
,
0010
0000
0010
0000
,
0100
0000
0100
0000
,
0001
0001
0001
0000
,
1000
1000
1000
0000
,
1000
0000
1000
0000
,
1000
0000
0000
0000
,
0010
0000
0010
0000
,
0010
0000
0000
0000
,
0100
0000
0100
0000
,
0100
0000
0000
0000
,
0001
0000
0001
0000
,
0001
0000
0000
0000
,
1000
0000
0100
0000
,
1000
0000
0000
0000
,
0010
0000
0100
0000
,
0001
0000
0000
0000
,
0010
0000
0001
0000
,
0100
0000
0000
0000
,
0010
0000
1000
0000
,
0100
0000
0000
0000
,
1000
0000
1000
0000
,
0001
0000
0001
0000
,
1000
0000
0010
0000
,
0100
0000
0100
0000
,
0001
0001
0001
0000
,
0100
0000
0100
0000
,
0010
0010
0010
0000
,
1000
0000
1000
0000
,
1001
0000
0000
0000
;

//---------------dance-single - ----------------
#NOTES:
     dance-single:
     :
     Medium:
     6:
     0.296288,0.311102,0.037036,0.129626,0.000000,206.000000,4.000000,14.000000,0.000000,0.000000,0.000000,0.296288,0.311102,0.037036,0.129626,0.000000,206.000000,4.000000,14.000000,0.000000,0.000000,0.000000:
// measure 0
0000
0000
0000
0000
,  // measure 1
0000
0000
0000
0000
,  // measure 2
0000
0000
0000
0000
,  // measure 3
0000
0000
0000
0000
,  // measure 4
2000
0000
0000
0000
,  // measure 5
0200
0000
0000
3300
,  // measure 6
0020
0000
0000
0000
,  // measure 7
0002
0000
0000
0033
,  // measure 8
0100
0100
0010
0010
,  // measure 9
0100
0100
0010
0010
,  // measure 10
1000
1000
0001
0001
,  // measure 11
1000
1000
0001
0001
,  // measure 12
1000
1000
0010
0010
,  // measure 13
0100
0100
0001
0001
,  // measure 14
0010
0001
0100
0000
0100
0000
0000
0000
,  // measure 15
0010
1000
0100
0000
0100
0000
0000
0000
,  // measure 16
1000
0010
0100
0100
,  // measure 17
0001
0010
0001
0001
,  // measure 18
0100
0010
1000
0000
0100
0000
0100
0000
,  // measure 19
1000
0010
0100
0000
0001
0000
0001
0000
,  // measure 20
0010
0010
0001
0001
,  // measure 21
0100
0010
1000
1000
,  // measure 22
1000
0100
1000
0000
1000
0000
1000
0000
,  // measure 23
0010
0100
0001
0000
0010
0000
0010
0000
,  // measure 24
0002
0000
0100
0000
,  // measure 25
0200
0000
0000
0303
,  // measure 26
0020
0000
1000
0000
,  // measure 27
2000
0000
0000
3030
,  // measure 28
0100
0100
0010
0010
,  // measure 29
0100
0100
0010
0010
,  // measure 30
0001
0100
0010
1000
,  // measure 31
2002
0000
0000
3003
,  // measure 32
0100
0010
0100
0000
0100
0000
0001
0000
,  // measure 33
0010
0001
0010
0000
0010
0000
0001
0000
,  // measure 34
0100
0010
1000
0000
0100
0000
0100
0000
,  // measure 35
0010
0001
0100
0000
0001
0000
1000
0000
,  // measure 36
0010
0001
0100
0000
0001
0000
0010
0000
,  // measure 37
1000
0010
1000
0000
0001
0000
0001
0000
,  // measure 38
1000
0100
1000
0000
0010
0000
0010
0000
,  // measure 39
0100
0001
0100
0000
0022
0000
0033
0000
,  // measure 40
0010
0100
0010
0000
0010
0000
0001
0000
,  // measure 41
0100
0010
1000
0000
0100
0000
1000
0000
,  // measure 42
0010
0100
0001
0000
0010
0000
0010
0000
,  // measure 43
0100
1000
0010
0000
1000
0000
0001
0000
,  // measure 44
0100
0010
1000
0000
0100
0000
0100
0000
,  // measure 45
0010
0001
0100
0000
0010
0000
0010
0000
,  // measure 46
1000
0001
1000
0000
0100
0000
0100
0000
,  // measure 47
0010
0001
0010
0000
0220
0000
0330
0000
,  // measure 48
0100
0010
0001
0100
,  // measure 49
0010
0010
1000
1000
,  // measure 50
0010
0100
0001
0010
,  // measure 51
0100
0100
0010
0010
,  // measure 52
0010
0001
0010
0000
0001
0000
1000
0000
,  // measure 53
0010
0100
0001
0000
1000
0000
1000
0000
,  // measure 54
0100
0010
0001
0000
0100
0000
0100
0000
,  // measure 55
0010
1000
0010
0000
1000
0000
0001
0000
,  // measure 56
1001
0000
0000
0000
;

//---------------dance-single - ----------------
#NOTES:
     dance-single:
     :
     Hard:
     7:
     0.362424,0.414803,0.175921,0.111108,0.000000,243.000000,19.000000,12.000000,0.000000,0.000000,0.000000,0.362424,0.414803,0.175921,0.111108,0.000000,243.000000,19.000000,12.000000,0.000000,0.000000,0.000000:
0000
0000
0000
0000
,
0000
0000
0000
0000
,
0000
0000
0000
0000
,
0000
0000
0000
0000
,
2000
0000
0000
0100
0000
0000
0200
0000
,
0000
0000
0000
3300
,
0020
0000
0000
0001
0000
0000
0002
0000
,
0000
0000
0000
0033
,
0100
0000
0100
0000
0010
1000
0100
0000
,
1000
1000
0001
0001
,
0100
0010
1000
0000
0001
0000
0100
0000
,
0010
0010
0100
0100
,
0001
0010
0001
0000
0100
0001
0100
0000
,
0010
0010
1000
1000
,
0100
0001
0100
0000
1000
0010
0001
0000
,
0001
0010
1000
0000
0010
0000
0010
0000
,
1000
0100
1000
0000
1000
0000
1010
0000
,
0100
0101
0101
0000
,
0010
0001
0100
0000
0010
1000
0100
0000
,
1000
0100
1000
0100
1000
0000
1010
0000
,
0010
0100
0001
0000
0010
0000
0011
0000
,
0100
0110
0110
0000
,
0010
1000
0100
0000
1000
0010
0100
0000
,
0001
0001
0202
0303
,
1000
0000
0000
1000
0000
0000
2000
0000
,
0010
0010
0020
3030
,
0100
0000
0000
0100
0000
0000
0200
0000
,
0001
0001
0002
0303
,
1001
0110
1001
1001
,
1010
0101
1010
1010
,
1000
0001
1000
0001
1000
0001
1000
0001
,
2002
0000
0000
3003
,
0100
0000
0100
0000
0010
1000
0100
0000
,
1000
0000
1000
0000
1000
0001
0100
0000
,
0010
1000
0100
0000
1000
0000
1000
0000
,
0010
0100
0001
0000
0010
0001
0100
0000
,
0010
1000
0100
0000
0100
0000
0001
0000
,
0001
0100
1000
0000
0010
0000
0010
0000
,
1000
0100
0001
0000
0001
0100
1000
0000
,
0010
1000
0010
1000
0010
1000
0010
0000
,
1001
0000
0100
0000
0010
1000
0010
0000
,
0010
1000
0100
0000
0010
0001
0100
0000
,
0010
0100
0001
0000
0001
0010
1000
0000
,
1000
0010
0001
0000
0100
0100
0100
0000
,
0010
1000
0001
0000
0100
0000
0100
0000
,
0100
0010
1000
0000
0100
0010
0100
0000
,
1000
0010
0001
0000
0001
0010
1000
0000
,
1000
0001
1000
0001
1000
0000
1000
0000
,
1000
0000
0010
0000
0100
0001
0010
0000
,
0001
0000
0001
0000
1000
0100
1000
0000
,
0010
0000
0010
0000
0100
0001
0010
0000
,
0001
0000
0001
0000
1000
0100
1000
0000
,
0010
1000
0100
0000
0010
0001
0100
0000
,
0010
0000
0010
0000
1000
0100
1000
0000
,
0010
0100
0001
0000
0010
0001
0100
0000
,
0010
0010
0100
0100
,
1001
0000
0000
0000
;
