#VERSION:0.82;
#TITLE:Hypersonik;
#SUBTITLE:;
#ARTIST:Eagle;
#TITLETRANSLIT:;
#SUBTITLETRANSLIT:;
#ARTISTTRANSLIT:;
#GENRE:;
#ORIGIN:;
#CREDIT:;
#BANNER:Hypersonik.png;
#BACKGROUND:Hypersonik-bg.png;
#PREVIEWVID:;
#JACKET:Hypersonik-jacket.png;
#CDIMAGE:;
#DISCIMAGE:unnamed.png;
#LYRICSPATH:;
#CDTITLE:;
#MUSIC:16. Hypersonik.mp3;
#OFFSET:-0.044000;
#SAMPLESTART:98.783844;
#SAMPLELENGTH:10.971428;
#SELECTABLE:YES;
#BPMS:0.000=175.000;
#STOPS:92.000=0.343,
93.000=0.343,
282.000=0.343,
283.000=0.343;
#DELAYS:;
#WARPS:;
#TIMESIGNATURES:0.000=4=4;
#TICKCOUNTS:0.000=4;
#COMBOS:0.000=1;
#SPEEDS:0.000=1.000=0.000=0;
#SCROLLS:0.000=1.000;
#FAKES:;
#LABELS:0.000=Song Start;
#BGCHANGES:;
#KEYSOUNDS:;
#ATTACKS:
;

//---------------dance-single - ----------------
#NOTEDATA:;
#CHARTNAME:;
#STEPSTYPE:dance-single;
#DESCRIPTION:;
#CHARTSTYLE:;
#DIFFICULTY:Hard;
#METER:9;
#RADARVALUES:0.625083,0.709339,0.175342,0.278953,0.294894,492.000000,22.000000,35.000000,0.000000,0.000000,0.000000,0.000000,0.000000,0.625083,0.709339,0.175342,0.278953,0.294894,492.000000,22.000000,35.000000,0.000000,0.000000,0.000000,0.000000,0.000000;
#CREDIT:;
#NOTES:
0000
0000
0000
0000
,
0000
0000
0000
0000
,
0000
0000
0000
0000
,
0000
0000
0000
0000
,
0001
1000
0220
0000
,
0330
0000
0000
0000
0000
0000
0000
0000
0000
0000
0000
0000
0000
0000
0100
0010
,
0100
0000
0000
0001
0000
1000
0001
0000
,
1000
0000
0010
0000
1000
0100
0010
0001
,
1000
0000
1000
0000
0001
0000
1000
0001
,
0000
0001
1000
0000
1000
0000
0000
1000
,
0010
0000
0010
0000
0100
0000
0010
0100
,
0000
0000
0100
0000
0010
0000
0000
0000
0100
0000
0000
0100
0000
0000
0100
0000
,
0001
0000
1000
0000
1000
0000
0001
1000
,
0000
0001
1000
0000
0010
0000
0000
0100
,
0010
0000
0010
0000
0100
0000
0010
1000
,
0001
0010
1000
0010
0001
0100
1000
0100
,
0010
0100
0001
1000
,
0010
0100
0001
1000
,
0010
0100
0001
1000
,
0010
0100
0001
1000
,
0001
0010
0100
1000
0001
0010
0100
1000
,
0001
0010
0100
1000
0001
0010
0100
1000
,
0001
0100
1000
0010
0001
1000
0001
0000
,
1001
0000
0000
0000
0110
0000
0000
0000
0001
0000
0000
0000
0100
0000
0000
0010
,
0000
0000
1000
0000
0001
0000
0000
0000
0010
0000
0000
0000
0100
0000
0000
1000
,
0000
0001
0100
0000
0010
0000
0120
0000
,
1030
0010
0100
0010
1000
0000
0002
0000
,
1003
0000
0010
0000
0010
0000
0100
0000
0001
0000
0000
0000
0001
0000
0000
0100
,
0000
0000
0010
0000
1000
0000
0000
0000
0100
0000
0000
0000
0010
0000
0000
0001
,
0000
1000
0001
0000
0010
0100
1000
1000
,
0001
0100
0010
0010
0000
0100
0010
1000
,
0001
0000
1000
0001
0200
0000
0000
0000
0310
0000
0000
0000
1000
0000
0000
0100
,
0000
0000
0010
0000
0100
0000
0000
0000
0010
0000
0000
0000
0001
0000
0000
0100
,
0000
0010
1000
0000
0001
0000
0200
0000
,
0310
1000
0001
0010
0001
0000
2000
0000
,
3010
0000
1000
0000
1000
0000
0100
0000
0010
0000
0000
0000
0100
0000
0000
1000
,
0000
0000
0001
0000
0100
0000
0000
0000
0010
0000
0000
0000
1000
0000
0000
0010
,
0000
0100
0001
0000
0100
0010
1000
0001
,
0100
0010
0010
0010
0200
0000
0302
2000
,
0000
3003
2001
3010
,
1000
0000
0000
0010
0000
0000
1000
0000
0001
0000
0010
0000
0100
0000
0000
0010
,
0000
0100
1000
0000
0002
0000
2003
0000
,
3001
0100
0010
1000
0000
0000
0002
0000
0000
0203
0000
0000
,
0320
0000
1030
0000
0001
1000
0100
0010
,
0100
0000
0000
0100
0000
0000
0010
0000
0001
0000
1000
0000
0010
0000
0000
1000
,
0000
0010
0100
0000
0002
0000
0203
0000
,
0310
0000
1000
0000
0001
0000
0100
0000
0000
0000
0000
0000
0010
0000
0000
1000
0000
0000
0100
0000
0000
0000
0000
0000
,
0020
0000
0130
0000
1000
0100
0010
0100
,
0010
0000
0000
0100
0000
0000
0100
0000
0010
0000
0001
0000
1000
0000
0000
0010
,
0000
0100
0001
0000
2000
0000
3002
0000
,
0013
0100
0010
0100
0000
0000
0020
0000
0000
0230
0000
0000
,
1300
0000
0100
0000
0010
0000
0002
0000
0000
0000
0000
0000
1003
0000
0000
0010
0000
0000
0100
0000
0000
0010
0000
0000
,
1000
0000
0000
1000
0000
0000
0010
0000
0100
0000
0001
0000
0010
0000
0000
0001
,
0000
0000
0010
0000
0100
0000
1000
0000
0001
0000
0000
0001
0000
0000
1000
0000
,
0010
0000
0000
0000
0010
0000
0000
0000
0000
0000
0100
0001
0000
0000
1000
0000
,
0001
1000
2002
0000
,
0000
0000
0000
0000
,
0000
0000
0000
0000
3003
0000
0000
0000
1000
0000
0000
0000
0001
0000
0000
1000
,
0000
0000
0001
0000
1000
0000
0000
0000
0010
0000
0000
0000
0100
0000
0000
0010
,
0000
0000
0100
0000
0020
0000
0000
0000
1030
0000
0000
0000
0100
0000
0000
1000
,
0000
0000
0001
0000
0010
0000
0000
0000
0100
0000
0000
0000
1000
0000
0000
0001
,
0000
0000
0100
0000
1001
0000
0000
0000
1000
0000
0000
0000
0001
0000
0000
0010
,
0000
0001
1000
0000
0001
0010
1000
0010
,
0001
0100
1000
0100
0001
0010
0100
1000
,
0001
0010
0100
1000
0001
0010
0100
1000
,
0001
0010
0100
1000
0001
0010
0100
1000
,
0001
0010
0100
1000
0001
0010
0100
1000
,
0001
0010
0100
1000
0001
0001
0100
0100
,
0010
0010
1000
1000
0001
0001
0100
0100
,
0010
0010
1000
1000
0001
0100
1000
0010
,
0001
1000
0001
0000
1001
0000
0110
0000
,
0101
0000
0000
0101
0000
0000
0001
0100
0000
0010
0000
1000
0100
0000
0010
0000
,
0011
0000
0000
0011
0000
0000
0010
0100
0000
1000
0000
0001
0100
0000
0010
0000
,
1010
0000
0000
1010
0000
0000
1000
0010
0000
0100
0000
0010
1000
0000
0001
0000
,
1001
0000
0000
1001
0000
0000
1000
0100
0000
0010
0000
0001
0000
0000
1000
0000
,
1010
0000
0000
1010
0000
0000
1000
0010
0000
1000
0000
0001
0010
0000
0100
0000
,
0110
0000
0000
0110
0000
0000
0010
0100
0000
1000
0000
0001
1000
0000
0100
0010
,
0100
0000
0000
1000
0100
0000
0000
0010
0001
0000
0000
0001
0100
0000
0000
0010
,
1000
0000
0000
0100
0000
0000
0001
0000
0000
0100
0000
0000
0010
0000
0001
0000
,
1000
0000
0010
0000
0100
0000
0000
0100
0000
0000
0002
0000
0020
0000
0033
0000
,
0010
0100
1000
0001
0100
0001
0010
0001
,
1000
0000
0010
0000
0100
0000
0000
0100
0000
0000
0020
0000
2000
0000
3030
0000
,
0010
1000
0001
0010
0100
0010
0001
0100
,
0010
0000
1000
0000
0100
0000
0000
0001
0000
0000
0200
0000
0020
0000
0330
0000
,
0010
0001
0100
0010
1000
0100
0010
0001
,
1000
0000
0000
0001
0100
0000
0010
0000
1000
0000
0000
0100
1000
0000
0100
0000
,
0010
0000
0000
0001
0000
0000
1000
0010
0000
0010
0000
0100
0000
0000
0010
0000
,
2002
0000
0000
0000
,
0000
0000
0000
0000
,
3003
0000
0000
0000
;

//---------------dance-double - ----------------
#NOTEDATA:;
#CHARTNAME:;
#STEPSTYPE:dance-double;
#DESCRIPTION:;
#CHARTSTYLE:;
#DIFFICULTY:Hard;
#METER:9;
#RADARVALUES:0.620529,0.666300,0.255043,0.239103,0.227148,483.000000,32.000000,30.000000,0.000000,0.000000,0.000000,0.000000,0.000000,0.620529,0.666300,0.255043,0.239103,0.227148,483.000000,32.000000,30.000000,0.000000,0.000000,0.000000,0.000000,0.000000;
#CREDIT:;
#NOTES:
00000000
00000000
00000000
00000000
,
00000000
00000000
00000000
00000000
,
00000000
00000000
00000000
00000000
,
00000000
00000000
00000000
00000000
,
00010000
00100000
00202000
00000000
,
00303000
00000000
00000000
00000000
00000000
00000000
00000000
00100000
,
01000000
00000000
00000000
10000000
00000000
00010000
01000000
00000000
,
00200000
00000000
00000000
01300000
00001000
00010000
00000010
00001000
,
00000001
00000000
00000010
00000000
00000001
00000000
00000010
00000001
,
00000000
00000001
00000100
00000000
00000010
00000000
00000000
00000100
,
00000010
00000000
00000010
00000000
00001000
00000000
00000010
00001000
,
00000000
00000000
00001000
00000000
00000100
00000000
00000000
00000000
00010000
00000000
00000000
00001000
00000000
00000000
00100000
00000000
,
01000000
00000000
01000000
00000000
10000000
00000000
00100000
10000000
,
00000000
10000000
00010000
00000000
00100000
00000000
00000000
01000000
,
10000000
00000000
10000000
00000000
00100000
00000000
01000000
00010000
,
00100000
00001000
00010000
00000100
00000010
00000001
00000100
00000010
,
00001000
00000010
00000100
00000001
,
00001000
00000010
00010000
00001000
,
00100000
01000000
10000000
00010000
,
00100000
01000000
10000000
00010000
,
10000000
01000000
00100000
00010000
10000000
01000000
00100000
00010000
,
10000000
01000000
00100000
00010000
10000000
01000000
00100000
00010000
,
10000000
01000000
00100000
00010000
00001000
00000010
00000001
00000000
,
00001001
00000000
00000000
00000000
00011000
00000000
00000000
00000000
01010000
00000000
00000000
00000000
01000000
00000000
00000000
00100000
,
00000000
00000000
10000000
00000000
01000000
00000000
00000000
00000000
00100000
00000000
00000000
00000000
00010000
00000000
00000000
00100000
,
00000000
01000000
00100000
00000000
01000000
00000000
00200000
00000000
,
00301000
00010000
00000100
00010000
00000100
00000000
00022000
00000000
,
00033000
00000000
00001000
00000000
00010000
00000000
00000010
00000000
00000100
00000000
00000000
00000000
00000001
00000000
00000000
00000010
,
00000000
00000000
00000100
00000000
00001000
00000000
00000000
00000000
00000100
00000000
00000000
00000000
00001000
00000000
00000000
00000010
,
00000000
00000100
00000001
00000000
00001000
00000010
00010000
00010000
,
00001000
00100000
01000000
01000000
00100000
00001000
00010000
00000100
,
00010000
00000000
00001000
01000000
00020000
00000000
00000000
00000000
01030000
00000000
00000000
00000000
00100000
00000000
00000000
10000000
,
00000000
00000000
00010000
00000000
10000000
00000000
00000000
00000000
01000000
00000000
00000000
00000000
00100000
00000000
00000000
01000000
,
00000000
00100000
00010000
00000000
01010000
00000000
01000000
00002000
,
00000000
00013000
00001000
00010000
00000100
00000000
00002000
00000000
,
00003100
00000000
00010000
00000000
00000010
00000000
00000010
00000000
00000100
00000000
00000000
00000000
00000010
00000000
00000000
00001000
,
00000000
00000000
00000100
00000000
00000010
00000000
00000000
00000000
00000001
00000000
00000000
00000000
00000010
00000000
00000000
00000001
,
00000000
00000100
00000010
00000000
00000100
00000010
00001000
00000100
,
00010000
00001000
00001000
00001000
02000000
00000000
03100000
10000000
,
00000000
00000000
01020000
00130000
,
00100000
00000000
00000000
00001000
00000000
00000000
00010000
00000000
00000010
00000000
00000100
00000000
00000001
00000000
00000000
00001000
,
00000000
00000100
00000010
00000000
00000002
00000000
00000203
00000000
,
00000310
00010000
00000010
00002000
00000000
00000000
00003200
00000000
00000000
00010300
00000000
00000000
,
00002000
00000000
01003000
00000000
10200000
00000000
01300000
00010000
,
00100000
00000000
00000000
01000000
00000000
00000000
10000000
00000000
00010000
00000000
00100000
00000000
00001000
00000000
00000000
00010000
,
00000000
00000100
00001000
00000000
00000020
00000000
00001030
00000000
,
00000100
00010000
00001000
00100000
00000000
00000000
00020000
00000000
00000000
00230000
00000000
00000000
,
00302000
00000000
00013000
00000000
00010000
00000010
00000100
00000001
,
00000010
00000000
00000000
00000010
00000000
00000000
00000100
00000000
00001000
00000000
00000010
00000000
00000100
00000000
00000000
00000001
,
00000000
00000010
00000001
00000000
00002001
00000000
00003010
00000000
,
00000010
00010000
00001000
00100000
00000000
00000000
10020000
00000000
00000000
00130000
00000000
00000000
,
01000000
00000000
00001000
00000000
00000010
00000000
00000200
00000000
00000000
00000000
00000000
00000000
00000310
00000000
00000000
00000000
00000000
00000000
00000010
00000000
00000000
00000100
00000000
00000000
,
00000010
00000000
00000000
00000100
00000000
00000000
00001000
00000000
00000100
00000000
00010000
00000000
00001000
00000000
00000000
00100000
,
00000000
00000000
01000000
00000000
10000000
00000000
00000000
00000000
00010000
00000000
01000000
00100000
00000000
01000000
00100000
00000000
,
10010000
00000000
00000000
00000000
10010000
00000000
00000000
00000000
00000000
00000000
10000000
01000000
00000000
00000000
01000000
00000000
,
02000000
03100000
00011000
00000000
,
00000000
00000000
00000000
00000000
,
00000000
00000000
00000000
00000000
00000000
00000000
00000000
00000000
00001000
00000000
00000000
00000000
00010000
00000000
00000000
00000100
,
00000000
00000000
00010000
00000000
00001000
00000000
00000000
00000000
00100000
00000000
00000000
00000000
00001000
00000000
00000000
00010000
,
00000000
00001000
00100000
00000000
01000000
00100000
00010000
01000000
,
00100000
10000000
00010000
01000000
00100000
10000000
00010000
01000000
,
00010000
00100000
00001000
00010000
00000010
00000100
00000001
00000010
,
00000001
00001000
00000100
00000010
00000100
00010000
00001000
00100000
,
10000000
00100000
00001000
00000010
00000001
00000000
00000100
00000010
,
00001000
00000000
00000100
00010000
00001000
00000000
00100000
00010000
,
01000000
00000000
00100000
10000000
01000000
00000000
00100000
00001000
,
00010000
00000000
00000100
00000010
00000001
00000000
00000100
00000010
,
00001000
00000000
00000010
00001000
00000001
00000010
00000100
00001000
,
00000001
00000010
00000100
00001000
00000001
00000010
00000100
00001000
,
00000001
00000010
00000100
00001000
00000001
00000010
00000100
00001000
,
00010000
01000000
10000000
00000000
10010000
00000000
00011000
00000000
,
00001001
00000000
00000000
00000101
00000000
00000000
00000001
00000100
00000000
00000010
00000000
00000100
00000010
00000000
00001000
00000000
,
00001100
00000000
00000000
00001100
00000000
00000000
00000100
00000010
00000000
00000001
00000000
00001000
00000010
00000000
00010000
00000000
,
00010100
00000000
00000000
00010100
00000000
00000000
00000000
00000100
00000000
00010000
00000000
00001000
00010000
00000000
00100000
00000000
,
01100000
00000000
00000000
11000000
00000000
00000000
10000000
00010000
00000000
01000000
00000000
00100000
10000000
00000000
00010000
00000000
,
00110000
00000000
11000000
00000000
10000000
00010000
00100000
00001000
,
00101000
00000000
00101000
00000000
00100000
00001000
00000010
00000001
,
00001000
00000000
00000000
00000001
00000100
00000000
00000000
00000010
00001000
00000000
00000000
00000100
00010000
00000000
00000000
00000000
,
00011000
00000000
00000000
00110000
00000000
00000000
01100000
00000000
00000000
11000000
00000000
00000000
10000000
00000000
00010000
00000000
,
00100000
00000000
01000000
00000000
10000000
00010000
00200000
00000000
,
00301000
00010000
00000010
00000001
00000010
00001000
00000100
00010000
,
00001000
00000000
01000000
00000000
00100000
10000000
02000000
00000000
,
03100000
00010000
01000000
00001000
00010000
00000100
00000010
00000001
,
00000100
00000000
00000010
00000000
00000100
00000010
00002000
00000000
,
00003100
00010000
00001000
00100000
01000000
00100000
00010000
01000000
,
00100000
00000000
00000000
10000000
00100000
00000000
01000000
00000000
00010000
00000000
00000000
00100000
00001000
00000000
00010000
00000000
,
00000100
00000000
00000010
00000000
00000001
00000000
00000100
00000010
00000000
00010000
00000000
00001000
01000000
00000000
00001000
00000000
,
00022000
00000000
00000000
00000000
,
00033000
00000000
00000000
00000000
;

//---------------dance-single - ----------------
#NOTEDATA:;
#CHARTNAME:;
#STEPSTYPE:dance-single;
#DESCRIPTION:;
#CHARTSTYLE:;
#DIFFICULTY:Medium;
#METER:7;
#RADARVALUES:0.511225,0.567471,0.223163,0.247073,0.043836,390.000000,28.000000,31.000000,0.000000,0.000000,0.000000,0.000000,0.000000,0.511225,0.567471,0.223163,0.247073,0.043836,390.000000,28.000000,31.000000,0.000000,0.000000,0.000000,0.000000,0.000000;
#CREDIT:;
#NOTES:
0000
0000
0000
0000
,
0000
0000
0000
0000
,
0000
0000
0000
0000
,
0000
0000
0000
0000
,
1000
0001
0220
0000
,
0000
0000
0330
0000
0000
0000
0000
0100
,
0010
0000
0000
0001
0000
0010
0001
0000
,
1000
0000
0001
0000
1000
0100
0010
0001
,
1000
0000
0001
0000
0100
0000
0001
0100
,
0000
0100
0001
0000
1000
0000
0000
0000
,
0100
0000
0010
0000
0001
0000
1000
0010
,
0000
0000
0010
0000
1000
0000
0000
0000
0010
0000
0000
0010
0000
0000
0010
0000
,
0100
0000
0100
0000
0010
0000
1000
0010
,
0000
0010
0100
0000
0001
0000
0000
1000
,
0001
0100
0001
0010
,
0000
0001
0010
0001
1000
0001
1000
0100
,
1000
0001
0010
0001
,
1000
0010
1000
0001
,
0010
0001
1000
0010
,
1000
0001
0010
1000
,
0001
0100
0001
0100
0010
0100
0010
0100
,
0010
1000
0010
1000
0001
1000
0001
1000
,
0001
0010
0100
1000
0100
0010
0001
0000
,
1001
1001
0101
0001
,
0100
0010
1100
0100
,
0010
0001
1000
0020
,
0130
0200
0301
1000
,
0001
0100
0010
0100
0010
0000
1000
0000
,
0010
0110
0100
0001
,
0010
0000
0110
0000
0100
1000
0001
0000
,
0001
1000
0010
1000
0000
0010
0100
0001
,
1000
0100
0020
0000
0130
0000
1000
0000
,
0010
0101
0001
0010
,
0100
0000
0011
0000
1000
0000
0001
0100
,
0000
0010
2000
0000
3000
0000
0002
0000
,
0000
1003
0100
1000
0010
0000
0100
0000
,
0001
1000
0010
0000
1000
0000
0001
0000
,
0100
0010
1000
0000
0002
0000
0023
0000
,
0130
1000
0010
0001
0020
0000
0230
0002
,
0000
0303
0001
0100
,
0010
0100
0001
1000
,
0100
1000
0010
1000
,
1002
0103
0010
1000
,
0102
0013
0100
1000
,
0010
0010
0100
0001
,
0010
0001
1002
0013
,
0210
0000
1300
0000
1000
0001
0100
0000
,
0020
1030
0100
0110
,
0010
0001
0100
0100
,
0010
1000
1002
0013
,
0100
1000
0010
0000
0210
0000
0301
0000
,
2010
3100
0011
0001
,
0100
0100
0010
1000
,
0001
0000
0000
0000
1000
0000
0000
0000
0001
0000
0000
0100
0000
0000
0010
0000
,
1000
0000
0000
0000
1000
0000
0000
0000
0001
0000
0000
1000
0000
0000
0100
0000
,
0010
0010
2002
0000
,
0000
0000
0000
0000
,
0000
3003
0001
0100
,
0010
0000
1000
0010
1000
0000
0010
0000
,
0001
0100
0010
0000
1000
0000
0100
0000
,
0010
0100
1000
0010
,
0100
0100
0001
1000
,
0010
0100
0001
0100
,
1000
0000
0100
0000
0010
0000
1000
0010
,
1000
0000
0010
0100
0010
0000
0100
0001
,
0100
0000
0001
0010
0001
0000
0010
0100
,
0010
0000
0100
1000
0100
0000
1000
0001
,
1000
0000
0010
1000
0001
0100
0001
0100
,
0010
0100
0010
0100
0010
1000
0010
1000
,
0001
1000
0001
1000
0001
0010
0100
1000
,
0100
0010
0001
0000
1001
0000
1001
0000
,
0001
0000
0000
0000
1000
0000
0000
0010
0000
0000
0100
0000
0001
0000
0000
0000
,
1000
0000
0000
0000
0100
0000
0000
1000
0000
0000
0010
0000
0100
0000
0000
0000
,
0010
0000
0000
0000
1000
0000
0000
0010
0000
0000
0100
0000
0001
0000
0000
0000
,
0010
0000
0000
0000
0100
0000
0000
1000
0000
0000
0100
0000
1000
0000
0010
0000
,
0100
0000
0000
0000
0010
0000
0000
1000
0000
0000
0001
0000
0010
0000
0000
0000
,
0100
0000
0000
0000
0010
0000
0000
0001
0000
0000
0010
0000
0100
0000
1000
0000
,
0002
0203
0320
2030
,
3001
0000
0000
0100
0000
0000
0010
0000
0000
1000
0000
0000
0001
0000
1000
0000
,
0010
0000
1000
0000
0100
1000
0020
0000
,
0130
1000
0100
0001
,
0010
0000
0100
0000
0010
0001
2000
0000
,
3010
0010
0100
0100
,
0001
0000
1000
0000
0010
1000
0200
0000
,
0310
0100
1000
0010
,
0101
0010
1100
0010
,
0101
1010
1100
0011
,
2002
0000
0000
0000
,
0000
0000
0000
0000
,
3003
0000
0000
0000
;

//---------------dance-single - ----------------
#NOTEDATA:;
#CHARTNAME:;
#STEPSTYPE:dance-single;
#DESCRIPTION:;
#CHARTSTYLE:;
#DIFFICULTY:Easy;
#METER:4;
#RADARVALUES:0.301725,0.390136,0.071731,0.199252,0.000000,231.000000,9.000000,25.000000,0.000000,0.000000,0.000000,0.000000,0.000000,0.301725,0.390136,0.071731,0.199252,0.000000,231.000000,9.000000,25.000000,0.000000,0.000000,0.000000,0.000000,0.000000;
#CREDIT:;
#NOTES:
0000
0000
0000
0000
,
0000
0000
0000
0000
,
0000
0000
0000
0000
,
0000
0000
0000
0000
,
0010
0100
2002
0000
,
3003
0000
0000
0000
,
0000
0000
0000
0000
,
0000
0000
0000
0000
,
0001
0000
0100
0000
,
0001
0000
0010
0000
,
0001
0000
1000
0000
,
0100
0000
1000
1000
,
0100
0000
1000
0000
,
0010
0000
0100
0000
,
0010
0000
1000
0000
,
0001
0010
0001
1000
,
0100
0000
1000
0000
,
0010
0000
0100
0000
,
0001
0000
1000
0000
,
0010
0000
0100
0000
,
0001
0010
0100
1000
,
0001
0010
0100
1000
,
0001
0010
0100
0010
,
1001
1001
0001
0000
,
1000
0000
0001
0000
,
0100
0000
0010
1000
,
0000
0020
0030
0100
,
0000
0001
1000
0000
,
0100
0000
1000
0000
,
0010
0000
0100
0001
,
0100
0010
0100
0001
,
1000
0200
0310
0000
,
0100
0000
0010
0000
,
0001
0000
1000
0200
,
0000
1300
0000
0200
,
0000
0310
0001
0000
,
0010
0000
0001
0000
,
1000
0000
0100
1000
,
0010
0010
0200
0000
,
0300
0000
0010
0000
,
1000
0000
0001
1000
,
0100
1000
0001
0000
,
2000
3000
0010
0000
,
0200
0310
1000
0000
,
0100
0000
0010
0100
,
1000
0001
0010
0000
,
0002
0003
0010
0000
,
0200
0310
0100
0000
,
1000
0000
0001
0100
,
0010
1000
0001
0000
,
2000
3000
0010
0000
,
0200
0301
0010
1000
,
0010
0000
0100
1000
,
0001
0100
0020
0000
,
0130
0100
0000
0010
,
0100
0000
2002
0000
,
0000
0000
0000
0000
,
0000
3003
0000
0000
,
0000
0000
0000
0000
,
0000
0000
0001
0000
,
0000
1000
0000
0000
,
0001
0000
1000
0000
,
0000
0001
0100
0100
,
0010
0100
0001
0010
,
0100
1000
0001
0010
,
0100
1000
0001
0010
,
0100
1000
0001
0010
,
0100
1000
0001
0001
,
1000
1000
0010
0010
,
0100
0100
0010
0100
,
0001
1000
1001
1001
,
1000
0010
0100
0010
,
1000
0001
0010
0100
,
0010
0001
0100
0010
,
0100
0001
1000
0100
,
0010
0001
0010
0010
,
0001
0100
0010
0010
,
2000
3010
0020
0130
,
0200
0301
0002
1003
,
0001
1000
0010
0200
,
0310
1000
0010
0001
,
0010
0100
0001
0020
,
0130
1000
0100
0001
,
0100
0010
0001
0200
,
0310
0001
0010
1000
,
1001
0000
0110
0000
,
1000
0010
0100
0001
,
2002
0000
0000
0000
,
0000
0000
0000
0000
,
3003
0000
0000
0000
;

//---------------dance-double - ----------------
#NOTEDATA:;
#CHARTNAME:;
#STEPSTYPE:dance-double;
#DESCRIPTION:;
#CHARTSTYLE:;
#DIFFICULTY:Medium;
#METER:7;
#RADARVALUES:0.515779,0.496537,0.143462,0.278953,0.039850,400.000000,18.000000,35.000000,0.000000,0.000000,0.000000,0.000000,0.000000,0.515779,0.496537,0.143462,0.278953,0.039850,400.000000,18.000000,35.000000,0.000000,0.000000,0.000000,0.000000,0.000000;
#CREDIT:;
#NOTES:
00000000
00000000
00000000
00000000
,
00000000
00000000
00000000
00000000
,
00000000
00000000
00000000
00000000
,
00000000
00000000
00000000
00000000
,
10000000
00010000
02200000
00000000
,
03300000
00000000
00000000
00000000
00000000
00000000
00000000
01000000
,
10000000
00000000
00000000
00010000
00000000
01000000
00010000
00000000
,
00200000
01000000
00000000
00300000
00010000
00000100
00001000
00000010
,
00000100
00000000
00000100
00000000
00000001
00000000
00000100
00000010
,
00000000
00000100
00000010
00000000
00001000
00000000
00000000
00000100
,
00010000
00000000
00010000
00000000
00001000
00000000
00100000
00010000
,
00000000
00000000
00100000
00000000
00010000
00000000
00000000
00000000
01000000
00000000
00000000
00100000
00000000
00000000
10000000
00000000
,
01000000
00000000
01000000
00000000
00100000
00000000
01000000
00100000
,
00000000
01000000
00100000
00000000
00010000
00000000
00000000
00100000
,
00001000
00000000
00010000
00000000
00000100
00001000
00000010
00000000
,
00000100
00000010
00001000
00000100
00010000
00001000
00100000
01000000
,
10000000
01000000
00100000
00010000
,
10000000
01000000
00100000
00010000
,
00001000
00000100
00000010
00000001
,
00001000
00000100
00000010
00000001
,
00000100
00000010
00001000
00000000
00000100
00010000
00001000
00000000
,
00100000
00010000
01000000
00000000
00100000
10000000
00010000
00000000
,
10000000
01000000
00100000
00010000
00100000
00001000
00010000
00000000
,
00001100
01010000
01100000
10000000
,
00100000
10000000
00010000
00000000
00100000
00000000
01000000
00000000
,
00100000
00010000
01000000
00000000
00100000
00000000
20000000
00000000
,
30010000
00100000
00001000
00010000
00000010
00000000
00000200
00000000
,
00000000
00000310
00001000
00000010
00000100
00000000
00000001
00000000
,
00000010
00000100
00001000
00000000
00000100
00000000
00001000
00000000
,
00000010
00000100
00000001
00000000
00001000
00000100
00010000
00000100
,
00000000
00000100
00010000
00010000
00000000
00001000
00100000
01000000
,
00100000
00010000
20000000
00000000
30010000
00000000
00100000
00000000
,
01000000
10000000
00010000
00000000
01000000
00000000
00100000
00000000
,
01000000
00100000
10000000
00000000
00010000
00000000
00200000
00000000
,
00301000
00010000
00001000
00100000
00001000
00000000
00020000
00000000
,
00000000
00030100
00001000
00000010
00000100
00000000
00000010
00000000
,
00001000
00000001
00000010
00000000
00000100
00000000
00000010
00000000
,
00000001
00000100
00000010
00000000
00001000
00000010
00000100
00000001
,
00001000
00000100
00010000
00002000
00020000
00000000
00000000
00000000
,
00000000
00000000
00033000
00000000
00210000
00000000
01300000
10000000
,
00100000
00000000
01000000
00100000
10000000
00000000
00010000
00000000
,
00100000
00001000
00010000
00000000
00021000
00000000
00030100
00000000
,
00001000
00000010
00000100
00000000
00002010
00000000
00003100
00000000
,
00020000
00000000
00032000
00000000
01003000
00010000
00000000
00000000
,
01000000
00000000
00000000
00100000
00000000
10000000
00000000
00010000
,
00000000
10000000
00100000
00000000
02000000
00000000
03002000
00000000
,
00013000
00000100
00001000
00000000
00000200
00000000
00010300
00000000
,
00021000
00000000
00030100
00000000
00001000
00000010
00000000
00000000
,
00000100
00000000
00000000
00000010
00000000
00000100
00000000
00000001
,
00000000
00000010
00000100
00000000
00000200
00000000
00020300
00000000
,
00031000
00100000
00010000
00000000
02000000
00000000
03001000
00000000
,
00010000
00000100
00002000
00000000
00003010
00000100
00000000
00000000
,
00000001
00000000
00000000
00000010
00000000
00000010
00000000
00000100
,
00000000
00000000
00001000
00000000
00000100
00000000
00000000
00000000
00000100
00000000
00000000
00010000
00000000
00000000
00001000
00000000
,
01000000
00000000
01000000
00000000
00000000
00100000
10000000
10000000
,
00010000
00000000
02020000
00000000
,
00000000
00000000
00000000
00000000
,
00000000
03030000
00010000
00100000
,
00001000
00010000
00000100
00000100
,
00001000
00000100
00000010
00000001
00000100
00000000
00001000
00000000
,
00000100
00000001
00000100
00001000
,
00000010
00001000
00000100
00010000
,
00100000
00000000
10000000
00000000
00100000
01000000
10000000
01000000
,
00010000
01000000
00100000
00010000
10000000
00000000
01000000
10000000
,
01000000
00000000
00100000
01000000
00100000
00000000
00010000
00100000
,
00010000
00000000
00001000
00010000
00001000
00000000
00010000
00000100
,
00010000
00000000
00001000
00000100
00001000
00000000
00000100
00000010
,
00000100
00000000
00000010
00000001
00000001
00000000
00000010
00000000
,
00000100
00001000
00010000
00100000
,
01000000
00000000
10000000
00000000
00010000
01000000
00100000
10000000
,
00010000
00100000
00001000
00000000
00110000
00000000
00001010
00000000
,
00001000
00000000
00000000
00000000
00000010
00000000
00000000
00000100
00000000
00000000
00000001
00000000
00000010
00000000
00000000
00000000
,
00000100
00000000
00000000
00000000
00001000
00000000
00000000
00000100
00000000
00000000
00010000
00000000
00001000
00000000
01000000
00000000
,
00100000
00000000
00000000
00000000
10000000
00000000
00000000
00100000
00000000
00000000
01000000
00000000
00010000
00000000
00000000
00000000
,
00100000
00000000
00000000
00000000
01000000
00000000
00000000
10000000
00000000
00000000
00010000
00000000
00100000
00000000
00001000
00000000
,
00010000
00000000
00000000
00000000
00000100
00000000
00000000
00000010
00000000
00000000
00000001
00000000
00000100
00000000
00000000
00000000
,
00000010
00000000
00000000
00000000
00001000
00000000
00000000
00000100
00000000
00000000
00001000
00000000
00000010
00000000
00000000
00000000
,
00000200
00000301
00000200
00000310
,
00000010
00000000
00000000
00001000
00000000
00000000
00000100
00000000
00000000
00010000
00000000
00000000
00001000
00000000
00100000
00000000
,
01000000
10000000
00000000
00000000
00010000
20000000
00200000
30300000
,
10000000
00010000
00100000
00001000
,
00010000
00000100
00000000
00001000
00000010
00000200
00000002
00000303
,
00000001
00000010
00000100
00001000
,
00000100
00010000
00000000
00001000
00100000
02000000
20000000
33000000
,
10000000
01000000
00010000
01000000
,
11000000
01000000
01100000
00100000
,
00101000
00010100
00000110
00000101
,
00002002
00000000
00000000
00000000
,
00000000
00000000
00000000
00000000
,
00003003
00000000
00000000
00000000
;

//---------------dance-double - ----------------
#NOTEDATA:;
#CHARTNAME:;
#STEPSTYPE:dance-double;
#DESCRIPTION:;
#CHARTSTYLE:;
#DIFFICULTY:Easy;
#METER:4;
#RADARVALUES:0.330190,0.390136,0.047821,0.247073,0.000000,253.000000,6.000000,31.000000,0.000000,0.000000,0.000000,0.000000,0.000000,0.330190,0.390136,0.047821,0.247073,0.000000,253.000000,6.000000,31.000000,0.000000,0.000000,0.000000,0.000000,0.000000;
#CREDIT:;
#NOTES:
00000000
00000000
00000000
00000000
,
00000000
00000000
00000000
00000000
,
00000000
00000000
00000000
00000000
,
00000000
00000000
00000000
00000000
,
00010000
00010000
20020000
00000000
,
30030000
00000000
00000000
00000000
,
00000000
00000000
00000000
00000000
,
00000000
00000000
10000000
01000000
,
00100000
00100000
00010000
00100000
,
00001000
00001000
00010000
00000000
,
00100000
00010000
01000000
00001000
,
00010000
00010000
00000100
00000001
,
00000100
00000100
00000010
00000001
,
00001000
00001000
00000100
00000000
,
00001000
00000100
00000010
00000100
,
00001000
00000100
00010000
00001000
,
00011000
00000000
00000000
00000000
,
00000000
00000000
00000000
00000000
,
00000000
00000000
00000000
00000000
,
00000000
00000000
00000000
00000000
,
00001000
00100000
01000000
10000000
,
00100000
01000000
00010000
00100000
,
00001000
00010000
00000100
00001000
,
00002200
00003300
00001000
00000010
,
00000100
00000000
00000010
00001000
,
00000100
00000000
00010000
00000000
,
00100000
00000000
01000000
10000000
,
00010000
00010000
01000000
00010000
,
10000000
00000000
01000000
00100000
,
00001000
00000000
00010000
00000100
,
00010000
00000010
00010000
00001000
,
00020000
00030200
00001300
00000010
,
00000100
00000000
00000010
00000100
,
00000001
00000000
00001000
00000100
,
00000000
00001000
00000000
00000010
,
00000000
00000100
00000010
00001000
,
00000100
00000000
00010000
00001000
,
00100000
00000000
01000000
10000000
,
00100000
00100000
20020000
00000000
,
00000000
30030000
20000000
00000000
,
31000000
00000000
00100000
01000000
,
00100000
00001000
00010000
00010000
,
00020000
00000000
00031000
00001000
,
00002000
00103000
00010000
00000000
,
01000000
00000000
00010000
01000000
,
00001000
00010000
00000100
00000100
,
00000200
00000000
00000310
00000010
,
00000002
00001003
00000001
00000000
,
00000100
00000000
00000010
00001000
,
00000100
00000010
00000100
00000100
,
00000200
00000310
00000010
00000020
,
00000000
00000032
00000103
00000000
,
00000010
00000000
00001000
00000100
,
00010000
00001000
00100000
01000000
,
20000000
30020000
01030000
00010000
,
00200000
02300000
13000000
00000000
,
00000000
00000000
00000000
00000000
,
00000000
00000000
00000000
00000000
,
00000000
00000000
00000000
00000000
,
00000000
00000000
10000000
01000000
,
00100000
01000000
10000000
00010000
,
01000000
00010000
10000000
00010000
,
00100000
01000000
10000000
01000000
,
00010000
01000000
10000000
00000000
,
01000000
00000000
00100000
00000000
,
00010000
00000000
00001000
00000000
,
00000100
00000000
00000010
00000000
,
00000001
00000000
00000001
00000001
,
00000100
00000100
00000010
00000010
,
00001000
00001000
00000100
00010000
,
00001000
00100000
00022000
00033000
,
00100000
01000000
10000000
10000000
,
00010000
01000000
00100000
00100000
,
01000000
00001000
00010000
00010000
,
00000100
00001000
00000100
00000100
,
00001000
00000010
00000100
00000100
,
00000010
00001000
00000001
00000001
,
00000020
00000130
00000200
00001300
,
00000100
00010000
00001000
01000000
,
00100000
10000000
01000000
00200000
,
01300000
01000000
00100000
00100000
,
00010000
00100000
00001000
00020000
,
00031000
00000100
00000001
00000100
,
00001000
00000010
00000100
00000002
,
00000103
00000100
00000010
00000010
,
00002000
00003100
00000200
00010300
,
00001000
00010000
00100000
10000000
,
20020000
00000000
00000000
00000000
,
00000000
00000000
00000000
00000000
,
30030000
00000000
00000000
00000000
;

//---------------dance-single - ----------------
#NOTEDATA:;
#CHARTNAME:;
#STEPSTYPE:dance-single;
#DESCRIPTION:;
#CHARTSTYLE:;
#DIFFICULTY:Beginner;
#METER:1;
#RADARVALUES:0.144600,0.242689,0.047821,0.000000,0.000000,121.000000,6.000000,0.000000,0.000000,0.000000,0.000000,0.000000,0.000000,0.144600,0.242689,0.047821,0.000000,0.000000,121.000000,6.000000,0.000000,0.000000,0.000000,0.000000,0.000000,0.000000;
#CREDIT:;
#NOTES:
// measure 0
0000
0000
0000
0000
,  // measure 1
0000
0000
0000
0000
,  // measure 2
0000
0000
0000
0000
,  // measure 3
0000
0000
0000
0000
,  // measure 4
0000
0000
0000
0000
,  // measure 5
0000
0000
0000
0000
,  // measure 6
0000
0000
0000
0000
,  // measure 7
0000
0000
0000
0000
,  // measure 8
1000
0000
0000
1000
,  // measure 9
0000
0000
0000
0000
,  // measure 10
0001
0000
0000
0001
,  // measure 11
0000
0000
0000
0000
,  // measure 12
0100
0000
0000
0010
,  // measure 13
0000
0000
0000
0000
,  // measure 14
0010
0000
0000
0000
,  // measure 15
0100
0000
0000
0000
,  // measure 16
0010
0000
0000
0000
,  // measure 17
1000
0000
0000
0000
,  // measure 18
0001
0000
0000
0000
,  // measure 19
0100
0000
0000
0000
,  // measure 20
1000
0000
0001
0000
,  // measure 21
1000
0000
0001
0000
,  // measure 22
1000
0001
1000
0001
,  // measure 23
1001
0000
0010
0000
,  // measure 24
0000
0000
0100
0000
,  // measure 25
0000
0000
0001
0001
,  // measure 26
0000
0000
1000
1000
,  // measure 27
0000
0000
0010
0000
,  // measure 28
0000
0000
1000
0000
,  // measure 29
0000
0000
0100
0000
,  // measure 30
1000
0000
0001
0000
,  // measure 31
1000
1000
0001
0000
,  // measure 32
0000
0000
0100
0000
,  // measure 33
0000
0000
0010
0100
,  // measure 34
0000
0000
0000
0010
,  // measure 35
0000
0000
0100
0000
,  // measure 36
0000
0000
0001
0000
,  // measure 37
0000
0000
0010
0000
,  // measure 38
0000
0000
1001
0000
,  // measure 39
0000
0000
1000
0000
,  // measure 40
0001
0000
0001
0000
,  // measure 41
0000
0000
1000
1000
,  // measure 42
0000
0000
1000
1000
,  // measure 43
0000
0000
0010
0000
,  // measure 44
0000
0000
0100
0000
,  // measure 45
0000
0000
0001
0001
,  // measure 46
0000
0000
1000
1000
,  // measure 47
0010
0000
0100
0000
,  // measure 48
0010
0000
0000
0000
,  // measure 49
0000
0000
0100
0001
,  // measure 50
0000
0000
0100
0001
,  // measure 51
0000
0000
0100
0000
,  // measure 52
0000
0000
0010
0000
,  // measure 53
1000
0000
0001
1000
,  // measure 54
0000
0000
1000
0000
,  // measure 55
0001
0000
1001
0000
,  // measure 56
0000
0000
0000
0000
,  // measure 57
0000
0000
0000
0000
,  // measure 58
0000
0000
0000
0000
,  // measure 59
0000
0100
0000
0000
,  // measure 60
0000
0000
0000
0000
,  // measure 61
0000
0010
0000
0000
,  // measure 62
0000
0000
1000
0000
,  // measure 63
0001
0000
1000
0000
,  // measure 64
0100
0000
0010
0000
,  // measure 65
0001
0000
1000
0000
,  // measure 66
0100
0000
0010
0000
,  // measure 67
0001
0000
1000
1000
,  // measure 68
0000
0000
0001
0001
,  // measure 69
0000
0000
1000
0001
,  // measure 70
0100
0010
1001
0000
,  // measure 71
1001
0000
0000
0001
,  // measure 72
1000
0000
0000
0010
,  // measure 73
1000
0000
0000
0010
,  // measure 74
0100
0000
0000
0100
,  // measure 75
0100
0000
0000
0000
,  // measure 76
0001
0000
0000
0000
,  // measure 77
1000
0000
0001
0000
,  // measure 78
0100
0000
0000
0000
,  // measure 79
0010
0000
0000
0100
,  // measure 80
0100
0000
0000
0000
,  // measure 81
0010
0000
0000
1000
,  // measure 82
1000
0000
0000
0000
,  // measure 83
0001
0000
0000
0100
,  // measure 84
0100
0000
0000
0000
,  // measure 85
0010
0000
0100
0000
,  // measure 86
0001
1000
0010
0100
,  // measure 87
1001
0000
0000
0000
;
