#TITLE:Garakuta Doll Play;
#SUBTITLE:;
#ARTIST:t+pazolite;
#TITLETRANSLIT:;
#SUBTITLETRANSLIT:;
#ARTISTTRANSLIT:;
#GENRE:;
#CREDIT:Loodee;
#BANNER:Garakuta Doll Play-bn.png;
#BACKGROUND:Garakuta Doll Play-bg.png;
#LYRICSPATH:;
#CDTITLE:;
#MUSIC:Garakuta Doll Play.ogg;
#OFFSET:0.641332;
#SAMPLESTART:107.196457;
#SAMPLELENGTH:13.125000;
#SELECTABLE:YES;
#DISPLAYBPM:256.000000;
#BPMS:0.000000=128.000000
,19.000000=256.000000
;
#STOPS:19.000000=0.224000
;
#BGCHANGES:;
#KEYSOUNDS:;
#ATTACKS:;

//---------------dance-single - ----------------
#NOTES:
     dance-single:
     :
     Hard:
     10:
     0.898451,0.889062,0.857970,0.527376,0.023614,623.000000,109.000000,67.000000,0.000000,0.000000,0.000000,0.898451,0.889062,0.857970,0.527376,0.023614,623.000000,109.000000,67.000000,0.000000,0.000000,0.000000:
0000
0000
0000
0000
,
0000
0000
0000
0000
,
0000
0000
0000
0000
0000
0000
0000
0000
0000
0000
0000
0000
1000
0001
1000
0001
,
2000
0100
0000
0100
3002
0100
0000
0100
,
2003
0100
0000
0100
3010
0100
1001
0000
,
1001
0000
0000
0000
1000
0100
0000
0020
,
0000
0000
0000
0000
0031
0010
0100
0010
,
0200
0000
0000
0000
1300
0010
0000
0200
,
0000
0000
0310
1000
,
1002
0000
0000
0000
0013
0001
0000
1000
,
0020
0000
0000
0000
0130
0001
0100
0001
,
1000
0000
0001
0000
,
2000
3020
0032
0103
,
1010
1100
0011
0101
,
1100
0000
1010
0000
0101
0000
1000
0100
,
1100
1010
0101
0011
,
0001
1000
1000
0001
0200
0000
0310
0000
,
1010
0101
0011
1100
,
0001
1000
1000
0001
0200
0000
0310
0000
,
2000
0000
0000
3001
0000
0100
0000
0010
,
2000
3100
0011
0000
,
1100
0000
0000
1000
0001
0000
1000
0000
,
1100
0000
1000
0001
0100
0000
0010
0000
,
0101
0000
0001
0100
0010
0000
1000
0000
,
0001
1000
1000
0001
0020
0000
0130
0000
,
1100
1001
0101
1001
,
1000
0001
0001
1000
0200
0000
0310
0002
,
0000
0000
0000
0013
0001
0010
0001
0010
,
0100
1000
0100
1000
0010
0100
0001
1000
,
0100
0011
0100
1010
,
0001
0000
0010
0100
0010
0000
0001
0001
,
1000
1100
0010
0101
,
1000
0000
0010
1000
0001
0000
0010
0010
,
0100
0011
0100
1010
,
0100
0000
0010
0100
0010
0000
1000
0002
,
0000
0000
0000
1003
0000
0001
0000
0100
,
0020
0000
1030
0001
0010
0100
0010
0100
,
1000
0101
0010
1100
,
0001
0000
0010
0100
0010
0000
0100
0100
,
1000
0101
0010
1100
,
0001
0000
0010
0100
0010
0000
0100
0100
,
1000
0000
1010
0000
0010
0010
1000
0001
,
1000
0000
0001
0100
0010
0010
0100
0010
,
2002
0000
3003
0011
0000
1100
0000
0201
,
0000
0010
1000
0310
,
1010
0000
0000
0000
1001
0000
0000
1100
,
0000
1100
1001
0100
,
0101
0000
0000
0000
1001
0000
0000
0011
,
0000
0011
1001
0100
,
1100
0000
0000
0000
1001
0000
0000
0101
,
0000
0101
1001
0100
,
0110
0000
0000
0000
1001
0000
0000
0110
,
0000
0110
1001
0100
,
0110
0000
0001
1000
,
0101
0000
0000
0110
0000
0000
1010
0000
,
1001
0000
1000
0001
,
1100
0000
0000
0110
0000
0000
0011
0000
,
1001
0000
0000
0000
0000
0000
1000
0000
0000
0001
0100
0001
,
0100
0000
0000
0000
0000
0000
0010
0000
0000
1000
0001
1000
,
0001
0100
1010
0100
,
0001
0010
0100
1000
0020
0000
0130
0000
,
0101
1001
1100
1001
,
0101
0000
0101
0000
1100
0000
1000
0100
,
0011
1001
1010
1001
,
0001
0010
0010
0100
0020
0000
0130
0000
,
1100
1001
0101
1001
,
0001
0100
0100
0010
2000
0000
3001
0001
,
1000
1001
1100
1001
,
0002
0203
2300
3010
,
1020
0000
0130
0002
0010
0000
0203
0000
,
0010
0000
1300
0100
0001
0000
0100
0000
,
0201
0000
0310
2000
0100
0000
3020
0000
,
0130
0001
0001
0010
0200
0000
0310
0000
,
0021
0000
0130
2000
0010
0000
3200
0000
,
0310
0001
0001
0100
0010
0100
0010
0100
,
0010
0010
2000
0000
3100
0000
0020
0000
,
0031
1000
0001
1000
0020
0000
0130
0000
,
0102
0000
0000
0000
1003
0100
0000
0020
,
0000
0000
0000
0000
0031
0010
0100
0010
,
0200
0000
0000
0000
1300
0010
0000
0200
,
0000
0000
0310
1000
,
0200
0000
0000
0000
1300
0100
0000
0020
,
0000
0000
0000
0030
0001
0100
0010
0100
,
0020
0000
0000
0000
0130
0001
0000
0020
,
0000
0000
0130
0010
,
0011
0000
0000
0000
1000
0001
1000
0001
,
0100
0000
0010
0100
0001
0000
1000
0000
,
1100
0000
0010
0001
1000
0001
1000
0100
,
0010
0000
0001
0100
0010
0100
0000
0100
,
0101
0000
0100
0000
0010
1000
0010
1000
,
1100
0000
0100
0010
0001
0000
1000
0002
,
0000
0103
0010
0100
0001
0010
0100
1000
,
2002
0000
0000
3003
,
0101
0000
0101
0000
0001
0100
1000
0100
,
0001
0000
1000
0100
0001
0000
0100
0000
,
1100
0000
1000
0001
1000
0100
0001
0100
,
1000
0000
0001
0100
1000
0000
0100
0000
,
0110
0000
0110
0000
0001
0010
1000
0010
,
0001
0000
1000
0010
0001
0000
0010
2000
,
0000
3001
0010
0100
1000
0010
0100
0001
,
2000
3200
0302
0013
,
0011
0000
0021
0000
0130
0010
0001
0010
,
1000
0000
1000
0010
0001
0000
0100
0000
,
1010
0000
1000
0010
0100
0010
1000
0010
,
0001
0000
0001
0010
1000
0100
0000
1000
,
1100
0000
1200
0000
0310
0100
1000
0100
,
0001
0000
0001
0100
1000
0000
0010
0200
,
0000
0301
0010
0100
1000
0010
0100
0001
,
2000
3020
0032
0103
,
0001
0100
0001
1000
0100
1000
0001
0010
,
0001
1000
0010
1000
0001
0100
0010
0000
,
1000
0100
1000
0001
0100
0001
1000
0010
,
1000
0001
0010
0001
1000
0010
0100
0000
,
0001
0100
0001
1000
0100
1000
0001
0010
,
0001
1000
0100
1000
0001
0100
0010
0000
,
1000
0010
1000
0001
0010
0001
1000
0100
,
1000
0001
0100
0001
1000
0100
0010
0000
,
1000
0010
0001
1000
0010
0001
1000
0100
,
0010
1000
0100
0010
0001
0100
0010
0000
,
0001
0010
1000
0001
0010
1000
0001
0100
,
0010
0001
0100
0010
1000
0100
0010
0000
,
1000
0010
0001
1000
0010
0001
1000
0100
,
0010
1000
0100
0010
1000
0010
0001
0200
,
0000
1300
0100
0010
1000
0100
0010
0001
,
0200
0000
0000
0300
,
2002
0000
3003
0000
;

//---------------dance-double - ----------------
#NOTES:
     dance-double:
     :
     Hard:
     10:
     0.834357,0.938454,0.385693,0.629703,0.007871,613.000000,49.000000,80.000000,0.000000,0.000000,0.000000,0.834357,0.938454,0.385693,0.629703,0.007871,613.000000,49.000000,80.000000,0.000000,0.000000,0.000000:
// measure 0
00000000
00000000
00000000
00000000
,  // measure 1
00000000
00000000
00000000
00000000
,  // measure 2
00000000
00000000
00000000
00000000
00000000
00000000
00000000
00000000
00000000
00000000
00000000
00000000
10000000
00010000
10000000
00010000
,  // measure 3
10000000
01000000
00000000
01000000
00010000
00001000
00000000
00001000
,  // measure 4
00000100
00000001
00000000
00000001
00000100
00000010
00001001
00000000
,  // measure 5
00000002
00000000
00000000
00000000
00000103
00000010
00000000
00002000
,  // measure 6
00000000
00000000
00000000
00000000
00003100
00010000
00000100
00010000
,  // measure 7
00002000
00000000
00000000
00000000
00103000
00010000
00000000
02000000
,  // measure 8
00000000
00000000
03100000
10000000
,  // measure 9
00020000
00000000
00000000
00000000
10030000
01000000
00000000
00020000
,  // measure 10
00000000
00000000
00000000
00000000
00031000
00010000
00001000
00010000
,  // measure 11
00000200
00000000
00000000
00000000
00000310
00000001
00000000
00000100
,  // measure 12
00000020
00002030
02003000
13000000
,  // measure 13
10000000
10000000
00010000
00010000
,  // measure 14
00100000
00000000
00100000
00000000
01000000
00000000
10000000
00010000
,  // measure 15
01000000
01000000
00100000
00100000
,  // measure 16
10000000
01000000
00010000
00000100
00000020
00000000
00000031
00000000
,  // measure 17
00000100
00000100
00000010
00000010
,  // measure 18
00000100
00001000
00010000
01000000
10000000
00000000
00010000
02000000
,  // measure 19
00000000
00000000
00000000
03100000
00000000
10000000
00000000
00010000
,  // measure 20
01000000
00100000
10010000
01000000
,  // measure 21
01010000
00000000
00000000
00100000
01000000
00000000
00010000
00000000
,  // measure 22
10000000
01000000
00010000
00000000
,  // measure 23
00011000
00001000
00000100
00000100
,  // measure 24
00000001
00000100
00001000
00010000
02000000
00000000
03100000
00000000
,  // measure 25
00010000
00010000
10000000
10000000
,  // measure 26
01000000
00010000
00001000
00000010
00000002
00000000
00001003
00000002
,  // measure 27
00000000
00000000
00000000
00000103
00000001
00000100
00000001
00000100
,  // measure 28
00000010
00001000
00000100
00000010
00000001
00000100
00000010
00001000
,  // measure 29
00000001
00000110
00001000
00010100
,  // measure 30
00001000
00000000
00100000
00010000
01000000
00000000
00100000
10000000
,  // measure 31
10000000
01100000
00010000
00101000
,  // measure 32
00010000
00000000
00001000
00000100
00000001
00000000
00000100
00000100
,  // measure 33
00000010
00000101
00001000
00010100
,  // measure 34
00001000
00000000
00010000
01000000
10000000
00000000
00100000
02000000
,  // measure 35
00000000
00000000
00000000
03010000
10000000
01000000
00100000
00000000
,  // measure 36
00010000
00001000
00000100
00000010
,  // measure 37
00000001
00001100
00000010
00001001
,  // measure 38
00000100
00000000
00010000
00001000
00010000
00000000
01000000
01000000
,  // measure 39
10000000
11000000
00100000
01010000
,  // measure 40
00001000
00000000
00001000
00010000
00000100
00000000
00010000
00000100
,  // measure 41
00001000
00000000
00000101
00000000
00000010
00000100
00001000
00010000
,  // measure 42
00100000
00000000
10100000
00000000
10000000
00010000
10000000
01000000
,  // measure 43
22000000
00000000
33000000
01010000
00000000
00011000
00000000
00002200
,  // measure 44
00000000
00003300
00000020
00000000
00000032
00000000
00002003
00000000
,  // measure 45
00003020
00000000
00000000
00000000
00000001
00000000
00000000
00000100
,  // measure 46
00000000
00001000
00000031
00000010
,  // measure 47
00000200
00000000
00000000
00000000
00001000
00000000
00000000
00000010
,  // measure 48
00000000
00000001
00001300
00010000
,  // measure 49
02000000
00000000
00000000
00000000
00010000
00000000
00000000
00100000
,  // measure 50
00000000
10000000
03010000
01000000
,  // measure 51
00200000
00000000
00000000
00000000
00010000
00000000
00000000
01000000
,  // measure 52
00000000
10000000
00310000
01000000
,  // measure 53
02020000
00000000
03030000
10000000
,  // measure 54
11000000
00000000
00000000
01010000
00000000
00000000
00101000
00000000
,  // measure 55
00020200
00000000
00030300
00000010
,  // measure 56
00000011
00000000
00000000
00001010
00000000
00000000
00010100
00000000
,  // measure 57
00202000
00000000
00303000
00000000
00010000
00000000
10000000
01000000
,  // measure 58
22000000
00000000
33000000
00000000
00100000
00000000
00001000
00010000
,  // measure 59
00011000
00000100
00001100
00000010
,  // measure 60
00000002
00000203
00002300
02003000
,  // measure 61
03100000
00100000
10000000
10000000
,  // measure 62
00010000
00000000
00010000
00000000
00100000
00000000
00100000
00001000
,  // measure 63
00010000
00010000
00000100
00000010
,  // measure 64
00000001
00000100
00001000
00010000
02000000
00000000
03100000
00000000
,  // measure 65
00010000
00010000
10000000
10000000
,  // measure 66
00100000
00010000
00001000
00000100
00000020
00000000
00000130
00000001
,  // measure 67
00001000
00001000
00000100
00000100
,  // measure 68
00000020
00002030
00203000
02300000
,  // measure 69
23000000
00000000
30100000
02000000
00010000
03000000
01020000
00000000
,  // measure 70
01000000
00000000
01030000
00001000
00010000
00000000
00000100
00000000
,  // measure 71
00001200
00000000
00001300
00000002
00000100
00000003
00000201
00000000
,  // measure 72
00000301
00000100
00001000
00010000
02000000
00000000
13000000
00000000
,  // measure 73
10200000
00000000
10300000
00020000
00100000
00030000
00110000
00000000
,  // measure 74
00100000
00010000
00001000
00000100
00000010
00000100
00000010
00000100
,  // measure 75
00001000
00001000
00000002
00000000
00000203
00000000
00000320
00000000
,  // measure 76
00001030
00000100
00001000
00000100
00020000
00000000
00031000
00000000
,  // measure 77
00201000
00000000
00000000
00000000
10300000
00100000
00000000
00002000
,  // measure 78
00000000
00000000
00000000
00000000
00003100
00000001
00000010
00000001
,  // measure 79
00000200
00000000
00000000
00000000
00001300
00010000
00000000
02000000
,  // measure 80
00000000
00000000
13000000
00100000
,  // measure 81
00020000
00000000
00000000
00000000
10030000
01000000
00000000
00020000
,  // measure 82
00000000
00000000
00000000
00000000
00031000
00000100
00000001
00000100
,  // measure 83
00000020
00000000
00000000
00000000
00001030
00000010
00000000
00000002
,  // measure 84
00000000
00000000
00001003
00000100
,  // measure 85
00000110
00000000
00000000
00000000
00000001
00000100
00000001
00000100
,  // measure 86
00000010
00000000
00000100
00000010
00001000
00000000
00000100
00000000
,  // measure 87
00010100
00000000
00000100
00010000
00001000
00010000
00001000
00010000
,  // measure 88
01000000
00000000
10000000
00010000
01000000
00100000
00000000
01000000
,  // measure 89
01100000
00000000
00100000
00000000
10000000
01000000
10000000
01000000
,  // measure 90
11000000
00000000
01000000
00010000
00001000
00000000
00010000
00000200
,  // measure 91
00000000
00000310
00000100
00001000
00000001
00000100
00000010
00000100
,  // measure 92
00000002
00000000
00000000
00000003
,  // measure 93
00000101
00000000
00000100
00000000
00001000
00010000
00001000
00010000
,  // measure 94
01000000
00000000
01000000
10000000
00010000
00000000
01000000
00000000
,  // measure 95
01100000
00000000
01000000
00100000
10000000
01000000
10000000
01000000
,  // measure 96
00010000
00000000
01000000
00010000
00001000
00000000
00000100
00000000
,  // measure 97
00000101
00000000
00000001
00000000
00000100
00000010
00000100
00000010
,  // measure 98
00001000
00000000
00000100
00010000
00001000
00000000
00100000
00020000
,  // measure 99
00000000
00130000
00010000
01000000
00100000
10000000
01000000
00100000
,  // measure 100
00020000
00032000
00003200
00000310
,  // measure 101
00000011
00000000
00000001
00000000
00000100
00001000
00010000
00001000
,  // measure 102
00000100
00000000
00001000
00010000
00100000
00000000
10000000
00000000
,  // measure 103
11000000
00000000
01000000
10000000
01000000
00010000
00001000
00010000
,  // measure 104
01000000
00000000
00010000
00001000
00000010
00000001
00000000
00000100
,  // measure 105
00000101
00000000
00000001
00000000
00000010
00001000
00010000
00001000
,  // measure 106
00000010
00000000
00001000
00010000
01000000
00000000
00100000
02000000
,  // measure 107
00000000
13000000
00100000
01000000
00010000
00100000
01000000
00010000
,  // measure 108
00002000
00003200
00000302
00000013
,  // measure 109
00000001
00000010
00000001
00001000
00000001
00001000
00000010
00001000
,  // measure 110
00000010
00010000
00000010
00010000
00001000
00010000
00001000
00000000
,  // measure 111
00100000
00001000
00100000
00010000
00100000
00010000
10000000
00010000
,  // measure 112
10000000
00100000
10000000
00100000
01000000
00100000
01000000
00000000
,  // measure 113
00010000
01000000
00010000
01000000
00001000
01000000
00001000
00010000
,  // measure 114
00001000
00010000
00000100
00010000
00000100
00000010
00000100
00000000
,  // measure 115
00000010
00000001
00000010
00000100
00000010
00000100
00001000
00000100
,  // measure 116
00001000
00000100
00010000
00000100
00010000
00001000
00010000
00000000
,  // measure 117
00001000
00010000
00001000
00100000
00010000
00100000
01000000
10000000
,  // measure 118
01000000
10000000
00010000
10000000
00100000
01000000
00010000
00000000
,  // measure 119
10000000
01000000
10000000
00010000
00100000
00010000
00100000
00001000
,  // measure 120
00100000
00000100
00010000
00000100
00000010
00000001
00000100
00000000
,  // measure 121
00000001
00000100
00000001
00001000
00000100
00001000
00000010
00010000
,  // measure 122
00000010
00010000
00001000
00010000
00001000
00100000
00010000
20000000
,  // measure 123
00000000
31000000
00100000
00010000
01000000
00100000
00010000
00001000
,  // measure 124
00000200
00000000
00000000
00000300
,  // measure 125
00002002
00000000
00003003
00000000
;

//---------------dance-single - ----------------
#NOTES:
     dance-single:
     :
     Medium:
     8:
     0.604965,0.740885,0.283366,0.346337,0.000000,458.000000,36.000000,44.000000,0.000000,0.000000,0.000000,0.604965,0.740885,0.283366,0.346337,0.000000,458.000000,36.000000,44.000000,0.000000,0.000000,0.000000:
0000
0000
0000
0000
,
0000
0000
0000
0000
,
0000
0000
0000
0000
,
1000
1100
0001
0101
,
1000
0000
1001
0000
0100
0020
0130
0000
,
2100
0000
0000
0000
0100
0000
0000
0100
,
0000
0000
3001
0000
,
0102
0000
0000
0000
1000
0000
0000
1000
,
0000
0000
1003
0000
,
2100
0000
3001
0000
,
0102
0000
1003
0000
,
0110
0000
1001
0000
,
0100
0010
0100
0010
,
1001
0001
0100
0010
,
1000
0001
1000
0100
,
0010
0010
0001
1000
,
0001
0100
0020
0030
,
1000
0001
1000
0100
,
0010
0000
0001
0000
0100
0000
0010
0200
,
0000
0000
0000
0301
1000
0001
1000
0000
,
0001
0100
0101
0000
,
0001
0000
0000
0001
0000
0000
0001
0000
,
1000
0100
0010
0000
,
0001
0010
0001
0100
,
0010
1000
0100
0000
,
1000
0001
0100
0001
,
1000
0000
0100
0000
0010
0000
0010
0002
,
0000
0000
0000
1003
0001
1000
0001
0000
,
0100
0010
1000
0001
,
1000
1000
0001
0001
,
0100
0000
0010
0100
0010
0000
1000
0000
,
0001
0001
0010
0010
,
0100
0000
1000
0001
1000
0000
0001
0000
,
0100
0100
0001
0001
,
1000
0000
0100
0010
0100
0000
1000
0002
,
0000
0000
0000
0103
0010
0100
0010
0000
,
1000
0100
1100
0100
,
1000
1000
0001
0001
,
0100
0000
0010
0100
0001
0000
1000
0000
,
0001
0001
0010
0010
,
0100
0000
1000
0001
0100
0000
0010
0000
,
0100
0000
0001
0100
0001
0000
1000
0100
,
1000
0000
0001
0010
0200
0000
1300
0000
,
1001
0000
0000
0100
0000
0010
0000
2002
,
0000
0000
0000
3003
,
1001
0000
0000
0000
0001
0000
0000
0100
,
0000
0100
0010
1000
,
0001
0000
0000
0000
1000
0000
0000
0100
,
0000
0100
1000
0001
,
0100
0000
0000
0000
0010
0000
0000
1000
,
0000
1000
0100
0010
,
0001
0000
0000
0000
1000
0000
0000
0010
,
0000
0010
1000
0100
,
0010
0000
0001
0100
,
1010
0000
0000
1001
0000
0000
1100
0000
,
1100
0000
1000
0100
,
0011
0000
0000
1001
0000
0000
0101
0000
,
0101
0000
0010
1000
,
1100
0000
0010
0001
,
0101
0000
1001
0000
,
0002
1003
2002
3003
,
0002
0000
0000
0203
0000
0000
0320
0000
,
0000
1030
0100
0010
,
0002
0000
0000
2003
0000
0000
3200
0000
,
0000
0310
0001
1000
,
0020
0000
0000
0230
0000
0000
0302
0000
,
0000
1003
0100
1000
,
0002
0000
0000
0203
0000
0000
0320
0000
,
1030
0010
1001
0000
,
0001
0000
0001
0010
0000
0010
0100
0000
,
0000
0100
1000
0000
0010
0000
0100
0000
,
0001
0000
0001
1000
0000
1000
0100
0000
,
0000
0010
0100
0000
1000
0000
0001
0000
,
0100
0000
0100
0010
0000
0010
1000
0000
,
0000
1000
0100
0000
0010
0000
0001
0000
,
1000
0001
1000
0000
0002
0000
0000
0000
,
0103
0000
0010
0100
,
0002
0000
0000
0000
0010
0000
0000
2003
,
0000
0000
0001
0000
,
3200
0000
0000
0000
1000
0000
0000
0320
,
0000
0000
0100
0000
,
0032
0000
0000
0000
0010
0000
0000
0203
,
0000
0000
1000
0000
,
0320
0000
0000
0000
0100
0000
0000
2030
,
0000
0000
3010
1000
,
1001
0000
0100
0000
,
0010
1000
0010
1000
,
1001
0000
1000
0000
,
0001
1000
0010
0100
,
0110
0000
0100
0000
,
1001
0000
0010
0000
,
0101
0000
1100
0000
,
1000
0100
1001
0000
,
0001
0100
0010
0100
,
0001
0000
1000
0001
1000
0000
0001
0000
,
1000
0100
0010
0100
,
1000
0000
0001
1000
0001
0000
0100
0000
,
0010
1000
0010
0100
,
0010
0000
1000
0001
1000
0000
0100
0020
,
0000
0031
1000
0001
,
0200
0000
0010
0310
,
1000
0000
1000
0000
0001
0100
0001
0100
,
0001
1000
0001
0010
,
0001
0000
0001
0000
1000
0100
1000
0100
,
1000
0000
0001
0000
1000
0010
0000
0010
,
0100
0000
0100
0000
0001
0100
0001
0100
,
0001
0000
1000
0000
0001
0000
0100
0020
,
0000
1030
0100
0010
,
0002
0000
1000
1003
,
0010
0000
0010
1000
0000
1000
0100
0000
,
0100
0010
0000
0010
0001
1000
0001
0000
,
0100
0000
0100
0010
0000
0010
1000
0000
,
1000
0001
0000
0001
0010
0100
0010
0000
,
0001
0000
0001
0100
0000
0100
0010
0000
,
0010
1000
0000
1000
0100
0010
0100
0000
,
1000
0000
1000
0010
0000
0010
0100
0000
,
0100
0001
0000
0001
1000
0000
0100
0000
,
0010
0000
0001
0010
0000
0100
0010
0000
,
0100
1000
0000
0100
0010
0001
1000
0000
,
0001
0000
1000
0100
0000
0010
0100
0000
,
0010
0001
0000
1000
0001
0100
0010
0000
,
0100
0000
0001
0010
0000
0100
1000
0000
,
0001
0100
0000
0010
1000
0100
0010
0002
,
0000
0013
0100
0010
0100
1000
0001
1000
,
0002
0000
0000
0003
,
0220
0000
0330
0000
;

//---------------dance-double - ----------------
#NOTES:
     dance-double:
     :
     Medium:
     8:
     0.595969,0.740885,0.181040,0.354208,0.000000,462.000000,23.000000,45.000000,0.000000,0.000000,0.000000,0.595969,0.740885,0.181040,0.354208,0.000000,462.000000,23.000000,45.000000,0.000000,0.000000,0.000000:
// measure 0
00000000
00000000
00000000
00000000
,  // measure 1
00000000
00000000
00000000
00000000
,  // measure 2
00000000
00000000
00000000
00000000
,  // measure 3
00001000
00000000
00010000
00000000
00000100
00000010
00000001
00000000
,  // measure 4
00000100
00001000
00010000
00000000
01000000
10000000
10010000
00000000
,  // measure 5
20000000
00000000
00000000
00000000
01000000
00000000
00000000
32000000
,  // measure 6
00000000
00000000
03200000
00000000
,  // measure 7
00302000
00000000
00000000
00000000
00010000
00000000
00000000
00023000
,  // measure 8
00000000
00000000
00001000
00000000
,  // measure 9
00030200
00000000
00000310
00000000
,  // measure 10
00000002
00000000
00001003
00000000
,  // measure 11
00000020
00000000
00000230
00000000
,  // measure 12
00001300
00010000
01000000
10000000
,  // measure 13
00100000
10000000
01000000
00010000
,  // measure 14
00001000
00100000
00010000
00000000
,  // measure 15
01000000
00100000
00010000
00001000
,  // measure 16
00000100
00000010
00001000
00000000
,  // measure 17
00000010
00001000
00000001
00000100
,  // measure 18
00001000
00000000
00010000
00000000
00000100
00000000
00010000
00002000
,  // measure 19
00000000
00000000
00000000
00013000
00001000
00010000
00001000
00000000
,  // measure 20
00100000
01000000
10000000
00000000
,  // measure 21
00100000
00000000
00000000
00100000
00000000
00000000
00100000
00000000
,  // measure 22
10000000
01000000
00010000
00000000
,  // measure 23
00001000
00000100
00000001
00000010
,  // measure 24
00000100
00001000
00000001
00000000
,  // measure 25
00000100
00001000
00010000
01000000
,  // measure 26
10000000
00000000
00010000
00000000
01000000
00000000
00100000
02000000
,  // measure 27
00000000
00000000
00000000
03100000
01000000
00100000
01000000
00000000
,  // measure 28
00010000
10000000
01000000
00010000
,  // measure 29
00001000
00001000
00000100
00000100
,  // measure 30
00000001
00000000
00001000
00000001
00001000
00000000
00000001
00000000
,  // measure 31
00000010
00000010
00001000
00001000
,  // measure 32
00010000
00000000
01000000
00010000
01000000
00000000
10000000
00000000
,  // measure 33
00100000
00100000
00010000
00010000
,  // measure 34
00001000
00000000
00010000
00001000
00010000
00000000
01000000
00200000
,  // measure 35
00000000
00000000
00000000
00310000
10000000
00010000
10000000
00000000
,  // measure 36
00010000
01000000
01100000
00000000
,  // measure 37
00100000
10000000
01000000
00010000
,  // measure 38
00001000
00000000
00010000
00001000
00010000
00000000
00001000
00000000
,  // measure 39
00000100
00000001
00000010
00001000
,  // measure 40
00000010
00000000
00000100
00001000
00000100
00000000
00010000
00000000
,  // measure 41
00001000
00000000
01000000
00100000
01000000
00000000
00010000
10000000
,  // measure 42
00010000
00000000
10000000
01000000
10000000
00000000
00010000
01000000
,  // measure 43
00200000
00000000
00000000
10300000
00000000
01000000
00000000
00020000
,  // measure 44
00000000
00032000
00003200
00000302
,  // measure 45
00000013
00000000
00000000
00000000
00000100
00000000
00000000
00001000
,  // measure 46
00000000
00001000
00000001
00000100
,  // measure 47
00001000
00000000
00000000
00000000
00010000
00000000
00000000
01000000
,  // measure 48
00000000
01000000
10000000
00010000
,  // measure 49
01000000
00000000
00000000
00000000
00100000
00000000
00000000
10000000
,  // measure 50
00000000
10000000
01000000
00100000
,  // measure 51
00010000
00000000
00000000
00000000
10000000
00000000
00000000
00100000
,  // measure 52
00000000
00100000
00010000
00001000
,  // measure 53
00001100
00000000
00000100
00000001
,  // measure 54
00000011
00000000
00000000
00000110
00000000
00000000
00001100
00000000
,  // measure 55
00010100
00000000
00100000
00010000
,  // measure 56
11000000
00000000
00000000
01100000
00000000
00000000
00110000
00000000
,  // measure 57
00101000
00000000
00010000
00001000
,  // measure 58
00011000
00000000
00000100
00000010
,  // measure 59
00000110
00000000
00001001
00000000
,  // measure 60
00000001
00000100
00000010
00000000
,  // measure 61
00000200
00000000
00000000
00000320
00000000
00000000
00002030
00000000
,  // measure 62
00000000
00003100
00010000
00001000
,  // measure 63
02000000
00000000
00000000
03200000
00000000
00000000
20300000
00000000
,  // measure 64
00000000
31000000
00010000
00001000
,  // measure 65
00000200
00000000
00000000
00000302
00000000
00000000
00002003
00000000
,  // measure 66
00000000
00003100
00000010
00001000
,  // measure 67
00020000
00000000
00000000
00032000
00000000
00000000
02003000
00000000
,  // measure 68
03100000
10000000
10010000
00000000
,  // measure 69
00010000
00000000
10000000
01000000
00000000
01000000
00100000
00000000
,  // measure 70
00000000
00010000
00100000
00000000
01000000
00000000
00010000
00000000
,  // measure 71
00001000
00000000
00001000
00000100
00000000
00000100
00000001
00000000
,  // measure 72
00000000
00000010
00000100
00000000
00000010
00000000
00000001
00000000
,  // measure 73
00000100
00000000
00000100
00001000
00000000
00001000
00010000
00000000
,  // measure 74
00000000
01000000
10000000
00000000
00010000
01000000
00010000
01000000
,  // measure 75
00100000
10000000
00000000
00000000
01000000
00100000
01000000
00000000
,  // measure 76
10000000
00100000
01000000
00010000
,  // measure 77
20000000
00000000
00000000
00000000
00000000
00000000
00000000
32000000
,  // measure 78
00000000
00000000
00000000
00000000
,  // measure 79
03200000
00000000
00000000
00000000
00000000
00000000
00000000
00302000
,  // measure 80
00000000
00000000
00000000
00000000
,  // measure 81
00003200
00000000
00000000
00000000
00000000
00000000
00000000
00000302
,  // measure 82
00000000
00000000
00000000
00000000
,  // measure 83
00000023
00000000
00000000
00000000
00000000
00000000
00000000
00002030
,  // measure 84
00000000
00000000
00010000
00013000
,  // measure 85
00011000
00000000
00001000
00000000
,  // measure 86
00010000
00001000
00000100
00000001
,  // measure 87
00000101
00000000
00001000
00000000
,  // measure 88
00000100
00010000
00001000
01000000
,  // measure 89
01010000
00000000
10000000
01000000
,  // measure 90
11000000
00000000
00010000
01000000
,  // measure 91
01010000
00000000
00011000
00000000
,  // measure 92
00001000
00000010
00000011
00000000
,  // measure 93
00000001
00000001
00000100
00001000
,  // measure 94
00010000
00000000
01000000
10000000
01000000
00000000
00100000
00000000
,  // measure 95
01000000
01000000
10000000
00100000
,  // measure 96
00010000
00000000
00001000
00010000
00001000
00000000
00000100
00000000
,  // measure 97
00000001
00000001
00001000
00000100
,  // measure 98
00000010
00000000
00000001
00000100
00000001
00000000
00000100
00000020
,  // measure 99
00000000
00000130
00001000
00010000
,  // measure 100
02000000
00000000
10000000
13000000
,  // measure 101
00010000
00000000
01000000
00000000
00100000
10000000
00100000
10000000
,  // measure 102
00100000
10000000
01000000
00010000
,  // measure 103
00001000
00000000
00001000
00000000
00010000
00001000
00010000
00001000
,  // measure 104
00010000
00000000
00001000
00000000
00000100
00000001
00000000
00000001
,  // measure 105
00000010
00000000
00000010
00000000
00000100
00000010
00000100
00000010
,  // measure 106
00000001
00000000
00000100
00000000
00000010
00000000
00001000
00000200
,  // measure 107
00000000
00010300
00001000
01000000
,  // measure 108
00200000
00000000
01300000
00010000
,  // measure 109
10000000
00000000
10000000
01000000
00000000
01000000
00010000
00000000
,  // measure 110
00010000
00001000
00000000
00001000
00000010
00000100
00001000
00000000
,  // measure 111
00000001
00000000
00000001
00000010
00000000
00000010
00001000
00000000
,  // measure 112
00001000
00010000
00000000
00010000
01000000
00100000
00010000
00000000
,  // measure 113
10000000
00000000
10000000
00100000
00000000
00100000
00010000
00000000
,  // measure 114
00010000
00001000
00000000
00001000
00000100
00000010
00001000
00000000
,  // measure 115
00000001
00000000
00000001
00000100
00000000
00000100
00001000
00000000
,  // measure 116
00001000
00010000
00000000
00010000
00100000
01000000
00010000
00000000
,  // measure 117
10000000
00000000
01000000
00100000
00000000
00010000
00100000
00000000
,  // measure 118
00001000
00010000
00000000
00000100
00000010
00000001
00001000
00000000
,  // measure 119
00000001
00000000
00000100
00000010
00000000
00001000
00000010
00000000
,  // measure 120
00010000
00001000
00000000
00100000
00010000
01000000
00100000
00000000
,  // measure 121
10000000
00000000
01000000
00010000
00000000
00001000
00010000
00000000
,  // measure 122
00001000
00000100
00000000
00000001
00000100
00000010
00001000
00000002
,  // measure 123
00000000
00000013
00000100
00000010
00000001
00001000
00000001
00001000
,  // measure 124
00000002
00000000
00000000
00000003
,  // measure 125
00002200
00000000
00003300
00000000
;

//---------------dance-double - ----------------
#NOTES:
     dance-double:
     :
     Easy:
     5:
     0.357581,0.395926,0.110198,0.165297,0.000000,283.000000,14.000000,21.000000,0.000000,0.000000,0.000000,0.357581,0.395926,0.110198,0.165297,0.000000,283.000000,14.000000,21.000000,0.000000,0.000000,0.000000:
// measure 0
00000000
00000000
00000000
00000000
,  // measure 1
00000000
00000000
00000000
00000000
,  // measure 2
00000000
00000000
00000000
00000000
,  // measure 3
10000000
01000000
00100000
00010000
,  // measure 4
01000000
00100000
00010000
00001000
,  // measure 5
00020000
00000000
00000000
00000000
,  // measure 6
00000000
00000000
00000000
00030000
,  // measure 7
00000200
00000000
00000000
00000000
,  // measure 8
00000000
00000000
00000000
00000300
,  // measure 9
00000020
00000000
00000000
00000030
,  // measure 10
00000002
00000000
00000000
00000003
,  // measure 11
00002000
00000000
00003020
00000000
,  // measure 12
00010030
00000000
00000000
00000000
,  // measure 13
00001000
00000000
00000100
00000000
,  // measure 14
00000001
00000000
00000010
00000000
,  // measure 15
00000100
00000000
00000010
00000000
,  // measure 16
00000100
00001000
00000001
00000000
,  // measure 17
00000100
00000000
00001000
00000000
,  // measure 18
00010000
01000000
00100000
00000000
,  // measure 19
10010000
00000000
01000000
00000000
,  // measure 20
00100000
01000000
00100000
00000000
,  // measure 21
10010000
00000000
10000000
00000000
,  // measure 22
10000000
01000000
00010000
00000000
,  // measure 23
00001000
00000000
00000100
00000000
,  // measure 24
00000001
00001000
00000001
00000000
,  // measure 25
00000010
00000000
00000100
00000000
,  // measure 26
00001000
00000100
00010000
00000000
,  // measure 27
00011000
00000000
00001000
00000000
,  // measure 28
00010000
00001000
00100000
00000000
,  // measure 29
00010000
00000000
10000000
00000000
,  // measure 30
00100000
10000000
01000000
00000000
,  // measure 31
10000000
00000000
00010000
00000000
,  // measure 32
10000000
01000000
10000000
00000000
,  // measure 33
01000000
00000000
00010000
00000000
,  // measure 34
00001000
00010000
00001000
00000000
,  // measure 35
00011000
00000000
00010000
00000000
,  // measure 36
00001000
00010000
00000100
00000000
,  // measure 37
00001000
00000000
00000001
00000000
,  // measure 38
00000100
00000001
00000010
00000000
,  // measure 39
00000001
00000000
00001000
00000000
,  // measure 40
00000001
00000010
00000001
00000000
,  // measure 41
00000010
00000000
00001000
00000000
,  // measure 42
00010000
00001000
00010000
00000000
,  // measure 43
01000000
00000000
00000000
10000000
00000000
10000000
00000000
20000000
,  // measure 44
00000000
00000000
00000000
30000000
,  // measure 45
00020000
00000000
01000000
00000000
,  // measure 46
00000000
00000000
01000000
00000000
,  // measure 47
20030000
00000000
01000000
00000000
,  // measure 48
00000000
00000000
01000000
00000000
,  // measure 49
30200000
00000000
00010000
00000000
,  // measure 50
00000000
00000000
00010000
00000000
,  // measure 51
02300000
00000000
00001000
00000000
,  // measure 52
00000000
00000000
03001000
00000000
,  // measure 53
00011000
00000000
00000000
00000000
,  // measure 54
00001000
00000000
00000000
00000100
00000000
00000000
00001000
00000000
,  // measure 55
00001100
00000000
00000000
00000000
,  // measure 56
00000001
00000000
00000000
00000100
00000000
00000000
00000001
00000000
,  // measure 57
00000101
00000000
00000010
00000000
,  // measure 58
00001100
00000000
00000010
00000000
,  // measure 59
00001001
00000000
00001100
00000000
,  // measure 60
00010000
00001000
00010000
00000000
,  // measure 61
00001000
00000000
00010000
00000000
,  // measure 62
01000000
10000000
00010000
00000000
,  // measure 63
01000000
00000000
00100000
00000000
,  // measure 64
01000000
00010000
10000000
00000000
,  // measure 65
01000000
00000000
00100000
00000000
,  // measure 66
01000000
00100000
00001000
00000000
,  // measure 67
00010000
00000000
00000100
00000000
,  // measure 68
00001000
00000010
00000100
00000000
,  // measure 69
00000001
00000010
00000100
00000000
,  // measure 70
00001000
00000010
00000100
00000000
,  // measure 71
00000001
00000100
00001000
00000000
,  // measure 72
00010000
00001000
01000000
00000000
,  // measure 73
00010000
01000000
00100000
00000000
,  // measure 74
10000000
01000000
00100000
00000000
,  // measure 75
00010000
01000000
00001000
00010000
,  // measure 76
00000200
00000000
00000310
00000001
,  // measure 77
00000200
00000000
00000000
00000000
,  // measure 78
00000000
00000000
00000000
00000000
,  // measure 79
00002300
00000000
00000000
00000000
,  // measure 80
00000000
00000000
00000000
00000000
,  // measure 81
00023000
00000000
00000000
00000000
,  // measure 82
00000000
00000000
00000000
00000000
,  // measure 83
02030000
00000000
00000000
00000000
,  // measure 84
00000000
00000000
00000000
00000000
,  // measure 85
13000000
00000000
00100000
00000000
,  // measure 86
10000000
00100000
10000000
00100000
,  // measure 87
10100000
00000000
00010000
00000000
,  // measure 88
10000000
01000000
00010000
00001000
,  // measure 89
00011000
00000000
00000100
00000000
,  // measure 90
00000110
00000000
00000001
00000000
,  // measure 91
00001000
00000001
00001000
00000001
,  // measure 92
00000200
00000000
00000000
00000300
,  // measure 93
00000001
00000001
00000100
00000001
,  // measure 94
00000010
00000000
00000100
00000000
,  // measure 95
00010000
00010000
00001000
00010000
,  // measure 96
00000100
00000000
00010000
00000000
,  // measure 97
00001000
00001000
00100000
00010000
,  // measure 98
00100000
00000000
00000000
00000000
01000000
00000000
00000000
10000000
,  // measure 99
00000000
00100000
10000000
01000000
,  // measure 100
00100000
00000000
00010000
10000000
,  // measure 101
00010000
00000000
01000000
00001000
,  // measure 102
01000000
00010000
00100000
00000000
,  // measure 103
00001000
00000000
00010000
00000100
,  // measure 104
00010000
00000010
00001000
00000000
,  // measure 105
00000001
00000000
00000010
00000001
,  // measure 106
00000100
00000000
00000001
00000000
00000010
00000000
00000000
00000100
,  // measure 107
00000000
00001000
00000001
00000100
,  // measure 108
00000010
00000100
00000001
00000000
,  // measure 109
00000001
00000000
00000000
00000001
00000000
00000000
00001000
00000000
,  // measure 110
00000000
00001000
00000000
00000000
00000100
00000000
00000000
00000000
,  // measure 111
00010000
00000000
00000000
00010000
00000000
00000000
00001000
00000000
,  // measure 112
00000000
00001000
00000000
00000000
01000000
00000000
00000000
00000000
,  // measure 113
00100000
00000000
00000000
00100000
00000000
00000000
10000000
00000000
,  // measure 114
00000000
10000000
00000000
00000000
01000000
00000000
00000000
00000000
,  // measure 115
00100000
00000000
00000000
00100000
00000000
00000000
00001000
00000000
,  // measure 116
00000000
00001000
00000000
00000000
00010000
00000000
00000000
00000000
,  // measure 117
00000100
00000000
00000000
00000010
00000000
00000000
00000001
00000000
,  // measure 118
00000000
00000100
00000000
00000000
00000010
00000000
00000000
00000000
,  // measure 119
00000100
00000000
00000000
00001000
00000000
00000000
00010000
00000000
,  // measure 120
00000000
01000000
00000000
00000000
10000000
00000000
00000000
00000000
,  // measure 121
00100000
00000000
00000000
10000000
00000000
00000000
01000000
00000000
,  // measure 122
00000000
00010000
00000000
00000000
00001000
00000000
00000000
00000200
,  // measure 123
00000000
00000301
00000100
00000010
,  // measure 124
00002000
00000000
00000000
00003000
,  // measure 125
00002002
00000000
00000000
00003003
;

//---------------dance-single - ----------------
#NOTES:
     dance-single:
     :
     Easy:
     6:
     0.393564,0.642100,0.236139,0.165297,0.000000,299.000000,30.000000,21.000000,0.000000,0.000000,0.000000,0.393564,0.642100,0.236139,0.165297,0.000000,299.000000,30.000000,21.000000,0.000000,0.000000,0.000000:
0000
0000
0000
0000
,
0000
0000
0000
0000
,
0000
0000
0000
0000
,
1000
0100
1000
0001
,
0100
0010
0200
0300
,
0002
0000
0000
0000
,
0000
0000
0000
0003
,
2000
0000
0000
0000
,
0000
0000
0000
3000
,
0200
0000
0000
0300
,
0020
0000
0000
0030
,
0002
0003
2000
3000
,
0010
0100
0010
0000
,
1000
1000
0100
0000
,
1000
1000
0001
0000
,
1000
1000
0010
0000
,
0100
0010
0110
0000
,
0001
0001
0100
0000
,
0001
0001
1000
0000
,
0001
0000
0010
0000
,
0100
0010
0001
0000
,
1000
0000
1001
0000
,
0001
0100
0010
0000
,
0100
0100
0001
0000
,
1000
1000
0001
0000
,
0010
0010
0001
0000
,
0100
0100
0010
0000
,
1000
0000
0001
0000
,
0100
0010
0100
0000
,
0001
0001
1000
0000
,
0001
0001
0100
0000
,
0001
0001
0010
0000
,
0100
1000
0100
0000
,
1000
1000
0010
0000
,
1000
1000
0001
0000
,
0010
0000
0100
0000
,
0010
0001
0100
0000
,
0010
0010
1000
0000
,
0001
0001
1000
0000
,
0100
0100
1000
0000
,
0010
1000
0001
0000
,
0010
0010
0001
0000
,
1000
0010
0100
0000
,
0220
0000
0330
0001
0000
1000
0000
2002
,
0000
0000
0000
3003
,
2000
0000
0010
0000
,
0000
0000
0100
0000
,
3002
0000
0010
0000
,
0000
0000
0100
0000
,
0023
0000
0100
0000
,
0000
0000
1000
0000
,
0032
0000
1000
0000
,
0000
0000
1003
0000
,
1001
0000
0100
0000
,
1001
0000
0000
0001
0000
0000
0001
0000
,
1001
0000
0100
0000
,
1001
0000
0000
1000
0000
0000
1000
0000
,
1001
0000
0100
0000
,
1001
0000
0100
0000
,
1001
0000
0110
0000
,
0001
2000
0002
3003
,
1000
1000
0001
0100
,
0010
0000
0010
0000
,
0100
0100
0001
1000
,
0100
0000
0100
0000
,
0010
0010
0001
1000
,
0010
0000
0010
0000
,
0100
0100
0001
1000
,
0100
0000
1001
0000
,
0001
0001
0100
0010
,
1000
0000
1000
0000
,
0001
0001
1000
0100
,
0010
0000
0010
0000
,
0100
0100
1000
0001
,
0100
0000
0010
0000
,
0100
0100
0100
0000
,
0010
1000
0100
0000
,
0010
0000
0000
0000
,
0000
0000
0000
0000
,
0001
0000
0000
0000
,
0000
0000
0000
0000
,
1000
0000
0000
0000
,
0000
0000
0000
0000
,
0010
0000
0000
0000
,
0000
0000
0000
0000
,
0110
0000
0000
0000
,
0000
0000
0000
0000
,
1001
0000
0000
0000
,
0000
0000
0000
0000
,
0110
0000
0000
0000
,
1001
0000
0000
0000
,
0110
0000
1001
0000
,
0110
0000
0000
0000
,
1000
0100
1000
0001
,
1000
0010
1000
0000
,
0001
0010
0001
1000
,
0001
0100
0001
0000
,
1000
0100
1000
0001
,
1000
0000
0010
0000
1000
0000
0000
0001
,
0000
0010
0100
1000
,
0010
0100
0110
0000
,
0001
0010
0100
1000
,
0010
0100
0001
0000
,
1000
0100
0010
0001
,
0100
0010
1000
0000
,
0001
1000
0100
0010
,
0001
0000
0100
0000
0010
0000
0000
0100
,
0000
0010
1000
0100
,
0010
0100
0110
0000
,
0001
0000
0000
0001
0000
0000
1000
0000
,
0000
1000
0000
0000
0100
0000
0110
0000
,
1000
0000
0000
1000
0000
0000
0001
0000
,
0000
0001
0000
0000
0100
0000
0110
0000
,
1000
0000
0000
1000
0000
0000
0100
0000
,
0000
0100
0000
0000
0010
0000
0110
0000
,
0001
0000
0000
0001
0000
0000
0100
0000
,
0000
0100
0000
0000
0010
0000
0110
0000
,
1000
0000
0000
0001
0000
0000
0010
0000
,
0000
0100
0000
0000
1000
0000
1100
0000
,
0001
0000
0000
1000
0000
0000
0100
0000
,
0000
0010
0000
0000
0001
0000
1001
0000
,
1000
0000
0000
0001
0000
0000
0100
0000
,
0000
0010
0000
0000
0100
0000
0000
0120
,
0000
0130
0001
1000
,
0200
0000
0000
0300
,
2002
0000
3003
0000
;

//---------------dance-single - ----------------
#NOTES:
     dance-single:
     :
     Beginner:
     2:
     0.217023,0.296354,0.196782,0.031485,0.000000,164.000000,25.000000,4.000000,0.000000,0.000000,0.000000,0.217023,0.296354,0.196782,0.031485,0.000000,164.000000,25.000000,4.000000,0.000000,0.000000,0.000000:
0000
0000
0000
0000
,
0000
0000
0000
0000
,
0000
0000
0000
0000
,
1000
0000
1000
0000
,
0001
0000
0001
0000
,
1001
0000
0000
0000
,
0000
0000
0000
0000
,
1001
0000
0000
0000
,
0000
0000
0000
0000
,
1001
0000
0000
0000
,
1001
0000
0000
0000
,
1001
0000
1001
0000
,
1001
0000
0000
0000
,
0001
0000
0001
0000
,
0001
0000
0000
0000
,
1000
0000
1000
0000
,
1000
0000
0000
0000
,
0100
0000
1000
0000
,
0100
0000
0000
0000
,
0010
0000
0000
0000
,
0010
0000
0001
0000
,
0010
0000
0000
0000
,
0100
0000
0000
0000
,
1000
0000
0001
0000
,
1000
0000
0000
0000
,
0001
0000
0100
0000
,
0001
0000
0000
0000
,
0100
0000
0000
0000
,
0010
0000
1000
0000
,
0001
0000
0001
0000
,
0001
0000
0000
0000
,
1000
0000
1000
0000
,
1000
0000
0000
0000
,
0100
0000
0100
0000
,
0100
0000
0000
0000
,
0010
0000
0000
0000
,
0001
0000
1000
0000
,
0001
0000
1000
0000
,
0001
0000
0000
0000
,
1000
0000
0100
0000
,
1000
0000
0000
0000
,
0001
0000
0100
0000
,
0001
0000
0000
0000
,
1001
0000
0000
0000
,
0000
0000
0000
0000
,
1000
0000
0000
0000
,
0000
0000
0000
0000
,
1000
0000
0000
0000
,
0000
0000
0000
0000
,
0001
0000
0000
0000
,
0000
0000
0000
0000
,
0001
0000
0000
0000
,
0000
0000
0000
0000
,
1001
0000
0000
0000
,
0110
0000
0000
0000
,
1001
0000
0000
0000
,
0110
0000
0000
0000
,
1001
0000
0000
0000
,
0110
0000
0000
0000
,
1001
0000
1001
0000
,
1001
0000
0000
0000
,
0001
0000
0001
0000
,
0001
0000
0000
0000
,
1000
0000
1000
0000
,
1000
0000
0000
0000
,
0100
0000
0010
0000
,
0100
0000
0000
0000
,
0010
0000
0001
0000
,
0010
0000
0000
0000
,
0100
0000
1000
0000
,
0001
0000
0000
0000
,
1000
0000
0001
0000
,
0100
0000
0000
0000
,
0001
0000
0100
0000
,
0010
0000
0000
0000
,
2000
0000
3000
0000
,
0002
0000
0003
0000
,
0010
0000
0000
0000
,
0000
0000
0000
0000
,
0100
0000
0000
0000
,
0000
0000
0000
0000
,
1000
0000
0000
0000
,
0000
0000
0000
0000
,
0001
0000
0000
0000
,
0000
0000
0000
0000
,
0100
0000
0000
0000
,
0010
0000
0010
0000
,
0110
0000
0000
0000
,
1000
0000
1000
0000
,
1001
0000
0000
0000
,
0110
0000
0000
0000
,
1001
0000
0110
0000
,
1001
0000
0000
0000
,
0001
0000
0100
0000
,
0010
0000
0000
0000
,
1000
0000
0100
0000
,
0010
0000
0000
0000
,
0001
0000
1000
0000
,
0001
0000
0000
0000
,
0100
0000
0000
0000
,
0010
0000
0000
0000
,
1000
0000
0001
0000
,
1000
0000
0001
0000
,
0100
0000
0010
0000
,
0100
0000
0010
0000
,
1000
0000
0010
0000
,
1000
0000
0010
0000
,
0100
0000
0001
0000
,
1000
0000
0000
0000
,
0001
0000
0010
0000
,
0001
0000
0010
0000
,
0100
0000
1000
0000
,
0100
0000
1000
0000
,
0001
0000
0100
0000
,
0001
0000
0100
0000
,
0010
0000
1000
0000
,
0010
0000
0000
0000
,
1000
0000
0100
0000
,
1000
0000
0100
0000
,
0010
0000
0001
0000
,
0010
0000
0001
0000
,
1000
0000
0001
0000
,
1000
0000
0001
0000
,
1001
0000
0000
0000
,
0001
0000
1000
0000
,
0220
0000
0330
0000
;
