#TITLE:Crystallized;
#SUBTITLE:;
#ARTIST:Young the Giant;
#TITLETRANSLIT:;
#SUBTITLETRANSLIT:;
#ARTISTTRANSLIT:;
#GENRE:;
#CREDIT:;
#BANNER:Crystallized - Young The Giantbn.png;
#BACKGROUND:Crystallized - Young The Giantbg.png;
#LYRICSPATH:Crystallized - Young the Giant.lrc;
#CDTITLE:encorerebirth.png;
#MUSIC:Crystallized - Young the Giant.ogg;
#OFFSET:-0.345;
#SAMPLESTART:76.465;
#SAMPLELENGTH:11.699;
#SELECTABLE:YES;
#BPMS:0.000=163.000
,144.000=122.250
,168.000=163.000
;
#STOPS:
;
#BGCHANGES:;
#KEYSOUNDS:;
#ATTACKS:;

//---------------dance-single - Spork!----------------
#NOTES:
     dance-single:
     :
     Beginner:
     1:
     0.100,0.125,0.027,0.091,0.000,64.000,3.000,10.000,0.000,0.000,0.000,0.100,0.125,0.027,0.091,0.000,64.000,3.000,10.000,0.000,0.000,0.000:
0000
0000
0000
0000
,
0000
0000
0000
0000
,
0000
0000
0000
0000
,
0000
0000
0000
0000
,
0000
0000
0000
0000
,
0000
0000
0000
0000
,
0000
0000
0000
0000
,
0000
0000
0000
0000
,
2000
0000
0000
0000
,
3000
0000
0000
0000
,
0002
0000
0000
0000
,
0003
0000
0000
0000
,
0200
0000
0000
0000
,
0300
0000
0000
0000
,
0010
0000
0000
0000
,
0010
0000
0000
0000
,
1000
0000
0000
0000
,
0100
0000
0000
0000
,
0010
0000
0000
0000
,
0001
0000
1000
0000
,
0001
0000
0000
0000
,
0100
0000
0000
0000
,
0010
0000
0000
0000
,
1000
0000
0001
0000
,
1000
0000
0000
0000
,
0010
0000
0000
0000
,
0100
0000
0000
0000
,
0001
0000
1000
0000
,
0001
0000
0000
0000
,
0010
0000
0000
0000
,
0100
0000
0000
0000
,
1000
0000
0000
0000
,
0001
0000
0000
0000
,
1000
0000
0000
0000
,
0100
0000
0000
0000
,
1000
0000
1000
0000
,
0002
0000
0000
0000
,
0003
0000
2000
0000
,
0000
0000
3000
0000
,
0020
0000
0000
0000
,
0030
0000
0200
0000
,
0000
0000
0000
0000
,
0310
0000
0000
0000
,
0010
0000
1000
0000
,
0002
0000
0000
0000
,
0000
0000
0000
2000
,
0000
0000
0000
0000
,
0000
3003
0000
0000
,
0000
0000
0000
0000
,
0000
0000
0000
0000
,
1000
0000
0100
0000
,
1000
0000
0000
0000
,
0001
0000
0100
0000
,
0001
0000
0000
0000
,
1000
0000
0001
0000
,
1000
0000
0000
0000
,
1001
0000
0000
0000
,
1001
0000
0000
0000
,
0001
0000
0010
0000
,
0100
0000
0000
0000
,
1000
0000
0010
0000
,
0100
0000
0000
0000
,
0001
0000
1000
0000
,
0001
0000
0000
0000
,
1001
0000
0000
0000
,
0001
0000
1000
0000
,
0100
0000
0000
0000
,
0100
0000
0000
0000
,
0020
0000
0000
0000
,
0030
0000
0000
0000
;

//---------------dance-single - Spork!----------------
#NOTES:
     dance-single:
     :
     Easy:
     2:
     0.182,0.219,0.036,0.208,0.000,114.000,4.000,23.000,0.000,0.000,0.000,0.182,0.219,0.036,0.208,0.000,114.000,4.000,23.000,0.000,0.000,0.000:
0000
0000
0000
0000
,
0000
0000
0000
0000
,
0000
0000
0000
0000
,
0000
0000
0000
0000
,
0000
0000
0000
0000
,
0000
0000
0000
0000
,
0000
0000
0000
0000
,
0000
0000
0000
0000
,
0001
0000
0001
0000
,
0001
0000
0000
0000
,
1000
0000
1000
0000
,
1000
0000
0000
0000
,
0010
0000
0010
0000
,
0010
0000
0000
0000
,
0200
0000
0000
0300
,
0200
0000
0000
0300
,
0001
0000
0000
0000
,
1000
0000
0000
0000
,
0100
0000
0000
0000
,
1000
1000
0010
0010
,
1000
0000
0000
0000
,
0001
0000
0000
0000
,
0100
0000
0000
0000
,
0001
0001
0010
0010
,
0100
0000
0000
0000
,
0010
0000
0000
0000
,
0001
0000
0000
0000
,
1000
1000
0010
0010
,
0100
0000
0000
0000
,
0010
0000
0000
0000
,
1000
0000
0000
0000
,
0001
0001
1000
1000
,
0002
0000
0000
0000
,
2003
0000
0000
0000
,
3002
0000
0000
0000
,
0103
0100
0010
0000
,
1000
0000
0000
1000
0000
0000
1000
0000
,
0000
0000
0000
0000
0001
0000
0000
0001
,
0000
0001
0000
0000
,
0010
0000
0000
0010
0000
0000
0010
0000
,
0000
0000
0220
0000
,
0000
0000
0000
0330
,
1001
0000
0100
0000
,
0001
0000
1000
1000
,
1000
0000
0010
0000
,
0100
0000
0010
0010
,
0010
0000
0010
0000
,
1000
0000
0001
0000
,
2000
0000
3002
0000
,
0013
0000
0000
0001
,
2000
0000
3010
1000
,
0002
0000
0003
1000
,
0002
0000
0013
0001
,
2000
0000
3000
0001
,
2000
0000
3100
1000
,
0002
0000
0003
1000
,
0001
0000
0110
0000
,
1000
0000
0110
0000
,
0002
0000
0103
0001
,
0020
0000
0030
0100
,
2000
0000
3010
1000
,
0200
0000
0300
0010
,
0002
0000
0013
0001
,
0200
0000
0300
0010
,
2000
0000
0000
0000
,
3001
0000
0001
0000
,
1000
0000
0000
0000
,
0001
0000
0000
0010
,
0020
0000
0000
0000
,
0030
0000
0000
0000
;

//---------------dance-double - Spork!----------------
#NOTES:
     dance-double:
     :
     Medium:
     5:
     0.303,0.375,0.118,0.326,0.000,185.000,13.000,36.000,0.000,0.000,0.000,0.303,0.375,0.118,0.326,0.000,185.000,13.000,36.000,0.000,0.000,0.000:
00000000
00000000
00000000
00000000
,
00000000
00000000
00000000
00000000
,
00000000
00000000
00000000
00000000
,
00000000
00000000
00000000
00000000
,
00000000
00000000
00000000
00000000
,
00000000
00000000
00000000
00000000
,
00000000
00000000
00000000
00000000
,
00000000
00000000
00000000
00000000
,
00200000
00000000
20300000
00000000
,
32000000
00000000
03010000
00001000
,
00000200
00000000
00000302
00000000
,
00000023
00000000
00001030
00010000
,
02000000
00000000
23000000
00000000
,
30200000
00000000
00310000
00001000
,
00000020
00000000
00000100
00000000
,
00000230
00000000
00000010
00000000
,
00000310
00000010
00000010
00000010
,
00000001
00000001
00000001
00000001
,
00001000
00000000
00000010
00000000
00010000
00000000
00001000
00100000
,
00000000
00010000
00000000
10000000
00000000
00010000
00000000
00100000
,
01000000
01000000
01000000
01000000
,
10000000
10000000
10000000
10000000
,
00010000
00000000
00100000
00000000
00001000
00000000
00010000
00000100
,
00000000
00001000
00000000
00000001
00000000
00001000
00000000
00000010
,
00000100
00000100
00000100
00000100
,
00000001
00000001
00000001
00000001
,
00001000
00000000
00000100
00000000
00010000
00000000
00001000
01000000
,
00000000
00010000
00000000
10000000
00000000
00010000
00000000
01000000
,
00100000
00100000
00100000
00100000
,
10000000
10000000
10000000
10000000
,
00010000
00000000
01000000
00000000
00001000
00000000
00010000
00000010
,
00000000
00001000
00000000
00000001
00000000
00001000
00000000
00000100
,
00000020
00000000
00000100
00000000
,
00000230
00000000
00001000
00000000
,
00002300
00000000
00000001
00000000
,
00003001
00000100
00001000
00010000
,
02000000
00000000
00000000
00100000
00000000
00000000
13000000
00000000
,
00000000
10010000
00000000
00000000
02000000
00000000
00000000
00010000
,
00000000
00000000
03001000
00000000
00000000
00011000
00000000
00000000
,
00000200
00000000
00000000
00000010
00000000
00000000
00000301
00000000
,
00000000
00001001
00000000
00000000
00000200
00000000
00000000
00000000
,
00000000
00000000
00000000
00000300
,
00001001
00000000
00000100
00000000
,
00000010
00000000
00010000
00001000
,
00011000
00000000
00001000
00000000
,
00100000
00010000
01000000
00100000
,
10010000
00000000
01000000
00000000
,
00100000
00000000
00001000
00010000
,
00011000
00000000
00000000
00010100
00000000
00011000
00000000
02002000
,
00000000
00000000
00000000
00000000
03003000
00000000
00010000
00001000
,
00020000
00000000
00000000
00000100
00000000
00001000
00000000
00030200
,
00000000
00000000
00000000
00000000
00010300
00000000
00001000
00010000
,
00002000
00000000
00000000
01000000
00000000
00010000
00000000
02003000
,
00000000
00000000
00000000
00000000
03001000
00000000
00010000
00001000
,
00020000
00000000
00000000
00001000
00000000
00000100
00000000
00030020
,
00000000
00000000
00000130
00000001
,
00001000
00000000
00000000
00000010
00000000
00000000
00010000
00000000
,
00001000
00000000
00000000
00100000
00000000
00000000
00001000
00010000
,
00002000
00000000
00000000
00100000
00000000
00010000
00000000
00203000
,
00000000
00000000
00000000
00000000
00301000
00000000
00010000
00001000
,
00020000
00000000
00000000
00000010
00000000
00001000
00000000
00030020
,
00000000
00000000
00000000
00000000
00010030
00000000
00001000
00010000
,
00002000
00000000
00000000
00010000
00000000
00100000
00000000
02003000
,
00000000
00000000
03100000
10000000
,
00020000
00000000
00000000
00000000
,
20000000
00000000
30030000
00000000
,
11000000
00000000
00000000
00000000
00000000
00000000
00000000
00011000
,
00000000
00000000
00000000
00000100
,
00000202
00000000
00000000
00000000
,
00000303
00000000
00000000
00000000
;

//---------------dance-single - Spork!----------------
#NOTES:
     dance-single:
     :
     Hard:
     8:
     0.463,0.566,0.136,0.625,0.091,274.000,15.000,69.000,0.000,0.000,0.000,0.463,0.566,0.136,0.625,0.091,274.000,15.000,69.000,0.000,0.000,0.000:
0000
0000
0000
0000
,
0000
0000
0000
0000
,
0000
0000
0000
0000
,
0000
0000
0000
0000
,
0000
0000
0000
0000
,
0000
0000
0000
0000
,
0000
0000
0000
0000
,
0000
0000
0000
0000
0000
0000
1000
1000
,
0002
0000
0000
0023
0000
0230
0000
2300
,
0000
0000
3010
0000
1000
0000
0001
0001
,
2000
0000
0000
3020
0000
0230
0000
0302
,
0000
0000
1003
0000
0001
0000
0100
0100
,
0020
0000
0000
0230
0000
0302
0000
0023
,
0000
0000
0130
0000
1000
0000
0010
0010
,
0200
0000
0000
0000
,
0320
0000
0000
0000
,
1030
0100
1000
0100
1000
0100
1000
1000
,
0010
1000
0010
1000
0010
1000
0010
0010
,
0200
0000
0001
0000
0301
0000
0010
0001
,
0000
0100
0000
0010
0000
1000
0000
1000
,
0001
0010
0001
0010
0001
0010
0001
0001
,
0000
0001
0100
0001
0100
0001
0100
0020
,
0000
0000
1000
0000
1030
0000
0100
1000
,
0000
0010
0000
0100
0000
0001
0000
1000
,
0001
0100
0001
0100
0001
0100
0001
0001
,
0010
0100
0010
0100
0010
0100
0010
0010
,
0200
0000
1000
0000
1300
0000
0010
1000
,
0000
0100
0000
0010
0000
0001
0000
0001
,
1000
0010
1000
0010
1000
0010
1000
1000
,
0100
0010
0100
0010
0100
0010
0100
2000
,
0000
0000
0001
0000
3001
0000
0100
0001
,
0000
0010
0000
0100
0000
1000
0000
0020
,
0000
0000
0000
0000
1000
0000
0000
0200
,
0030
0000
0000
0000
0001
0000
0000
0020
,
0300
0000
0000
0000
0130
0000
0001
0010
,
0000
0100
0000
1000
0000
0010
0100
0100
,
0002
0000
0000
0000
0000
0000
0000
0000
0000
0023
0000
0000
0000
0000
0000
0032
0000
0000
0000
0000
0000
0203
0000
0000
0000
0000
0000
0000
0000
0000
0000
0000
,
0000
0300
0000
0000
1001
0000
0000
0000
0000
0000
0010
0000
0000
0010
0000
0000
2000
0000
0000
0000
0000
0000
0000
0000
0000
3200
0000
0000
0000
0000
0000
2300
,
0000
0000
0000
0000
0000
3020
0000
0000
0000
0000
0000
0000
0000
0000
0000
0000
0000
0030
0000
0000
1001
0000
0000
0000
0000
0000
1000
0000
0000
1000
0000
0000
,
0002
0000
0000
0000
0000
0000
0000
0000
0000
0203
0000
0000
0000
0000
0000
0302
0000
0000
0000
0000
0000
2003
0000
0000
0000
0000
0000
0000
0000
0000
0000
0000
,
0000
3000
0000
0000
0000
0000
0000
0100
0000
0000
1000
0000
0000
0010
0000
0000
0200
0000
0000
0000
0000
0000
0000
0000
0000
0000
0000
0000
0000
0000
0000
0000
,
0000
0000
0000
0300
,
0001
0000
1000
0100
1000
0010
0000
0100
,
0000
0000
0100
0001
0000
0100
0000
0010
,
2000
0000
0000
0100
0000
0010
0000
3002
,
0000
0000
0000
0000
0000
0000
1003
0100
1000
0001
1000
0001
,
0100
0010
0000
0010
0100
0000
0001
1000
,
0000
1000
0100
0000
0110
0000
0100
1000
,
0002
0000
0000
0010
0000
0100
0000
2003
,
0000
0000
0000
0000
3001
0000
1000
0001
,
0201
0000
0000
0302
0000
0023
0000
0230
,
0000
0000
1300
0000
0010
1000
0100
1000
,
1020
0000
0000
2030
0000
3200
0000
0320
,
0000
0000
0030
0000
0110
0000
1000
0001
,
0021
0000
0000
0230
0000
2300
0000
3002
,
0000
0000
0103
0000
0010
0000
1000
0010
,
1200
0000
0000
0010
0310
0000
0001
0010
,
0201
0000
0000
0010
0310
1000
0001
1000
,
1200
0000
0000
2300
0000
3020
0000
0230
,
0000
0000
0301
0000
1000
0000
0001
1000
,
0021
0000
0000
0032
0000
0203
0000
0320
,
0000
0000
0030
0000
1001
0000
1000
0100
,
0210
0000
0000
2300
0000
3002
0000
0023
,
0000
0000
0030
0000
0100
0010
0001
0100
,
0020
0000
0000
0000
,
0230
0000
0302
0000
,
1003
0100
1000
0100
0010
0001
0100
0010
,
1000
0010
0100
0001
0010
0100
0110
0000
,
2002
0000
0000
0000
,
0000
0000
3003
0000
;

//---------------dance-single - Spork!----------------
#NOTES:
     dance-single:
     :
     Medium:
     5:
     0.338,0.406,0.100,0.471,0.014,198.000,11.000,52.000,0.000,0.000,0.000,0.338,0.406,0.100,0.471,0.014,198.000,11.000,52.000,0.000,0.000,0.000:
0000
0000
0000
0000
,
0000
0000
0000
0000
,
0000
0000
0000
0000
,
0000
0000
0000
0000
,
0000
0000
0000
0000
,
0000
0000
0000
0000
,
0000
0000
0000
0000
,
0000
0000
0000
0000
0000
0000
0100
0100
,
0020
0000
0230
0000
,
2300
0000
0000
0000
3010
0000
0010
0010
,
0200
0000
0320
0000
,
2030
0000
0000
0000
3100
0000
0010
0010
,
0200
0000
0320
0000
,
0032
0000
0000
0000
0103
0000
0100
0100
,
0020
0000
0000
0000
,
0230
0000
0000
0000
,
0301
0100
0010
0000
,
0010
0100
0001
0000
,
2000
0000
0001
0000
3001
0000
1000
0010
,
0000
1000
0000
0001
0000
0010
0000
0001
,
1000
0100
0010
0000
,
0010
0100
1000
0000
,
0002
0000
1000
0000
1003
0000
0001
0010
,
0000
0001
0000
1000
0000
0010
0000
0010
,
0100
0001
0010
0000
,
0100
1000
0010
0000
,
0200
0000
0010
0000
0310
0000
1000
0100
,
0000
0010
0000
0001
0000
0100
0000
0100
,
0010
1000
0100
0000
,
0010
0001
0100
0000
,
0020
0000
0100
0000
0130
0000
0001
0010
,
0000
0100
0000
1000
0000
0010
0000
1000
,
0002
0000
0010
0000
,
2003
0000
0100
0000
,
3020
0000
0000
0000
,
0130
0001
1000
1000
,
0002
0000
0000
0023
0000
0000
0230
0000
,
0000
0000
1300
0000
0000
0001
0000
0000
2000
0000
0000
0000
0000
0000
3020
0000
,
0000
0000
0000
0000
0230
0000
0000
0000
0000
0000
0301
0000
0000
1000
0000
0000
,
0002
0000
0000
2003
0000
0000
3200
0000
,
0000
0000
0310
0000
0000
0010
0000
0000
0220
0000
0000
0000
0000
0000
0000
0000
,
0000
0000
0000
0330
,
1001
0000
0000
0000
0101
0000
0000
0110
,
0000
0100
0010
0010
,
1001
0000
0000
0000
1010
0000
0000
0110
,
0000
0000
0010
0000
0100
0010
0100
0000
,
0110
0000
0000
0000
0101
0000
0000
1001
,
0000
1000
0001
0001
,
2000
0000
0000
3020
0000
2030
0000
3002
,
0000
2003
3200
1300
,
0020
0000
0000
1000
0000
0100
0000
2000
,
0030
3010
1000
0001
,
0020
0000
0000
0001
0000
0100
0000
0002
,
0030
0013
0001
0001
,
0200
0000
0000
0001
0000
0010
0000
0002
,
0300
0000
0103
0000
0001
0000
1000
0001
,
0020
0000
0000
0000
0130
0000
1000
0001
,
0200
0000
0310
1000
,
0200
0000
0000
1000
0000
0010
0000
0020
,
0300
0031
1000
0010
,
0200
0000
0000
0001
0000
0010
0000
0020
,
0300
1030
0001
0001
,
0020
0000
0000
0001
0000
0100
0000
0200
,
0030
0000
1300
0000
0001
0000
0001
1000
,
0020
0000
0000
0000
,
0130
0000
0100
0000
,
0001
0000
0010
0000
0100
0010
0100
0000
,
1000
0000
0010
0000
0100
0010
0100
0000
,
2002
0000
0000
0000
,
3003
0000
0000
0000
;

//---------------dance-double - Spork!----------------
#NOTES:
     dance-double:
     :
     Easy:
     3:
     0.245,0.250,0.172,0.272,0.000,140.000,19.000,30.000,0.000,0.000,0.000,0.245,0.250,0.172,0.272,0.000,140.000,19.000,30.000,0.000,0.000,0.000:
00000000
00000000
00000000
00000000
,
00000000
00000000
00000000
00000000
,
00000000
00000000
00000000
00000000
,
00000000
00000000
00000000
00000000
,
00000000
00000000
00000000
00000000
,
00000000
00000000
00000000
00000000
,
00000000
00000000
00000000
00000000
,
00000000
00000000
00000000
00000000
,
00000100
00000000
00000001
00000000
,
00000010
00000000
00000000
00000000
,
00000100
00000000
00010000
00000000
,
00001000
00000000
00000000
00000000
,
00010000
00000000
00001000
00000000
,
01000000
00000000
00000000
00000000
,
00200000
00000000
00000000
00000000
,
20300000
00000000
00000000
00000000
,
30010000
00000000
00100000
00010000
,
01000000
00000000
00001000
00010000
,
00000020
00001000
00001030
00000000
,
00000001
00001000
00000100
00010000
,
00000010
00000000
00000010
00001000
,
00000100
00000000
00010000
00001000
,
00200000
00010000
00310000
00000000
,
10000000
00010000
01000000
00001000
,
00100000
00001000
00001000
00000000
,
00100000
01000000
00100000
00001000
,
00020000
00000010
00030010
00000000
,
00010000
00000100
00001000
00001000
,
00000010
00010000
00010000
00000000
,
00000100
00000010
00000100
00010000
,
00002000
01000000
01003000
00000000
,
01001000
00000000
00011000
00000000
,
00020200
00000000
00000000
00030300
,
00000220
00000000
00000000
00000330
,
00002002
00000000
00000000
00003003
,
00000100
00010000
00001000
00100000
,
01000000
00000000
00000000
10000000
00000000
00000000
00200000
00000000
,
00000000
00300000
00000000
00000000
01000000
00000000
00000000
00001000
,
00000000
00000000
00020000
00000000
00000000
00030000
00000000
00000000
,
00001000
00000000
00000000
00010000
00000000
00000000
00000200
00000000
,
00000000
00000300
00000000
00000000
00002002
00000000
00000000
00000000
,
00000000
00000000
00000000
00003003
,
00001001
00000000
00000100
00000000
,
00001001
00000000
00000100
00001000
,
00011000
00000000
01000000
00000000
,
00011000
00000000
00100000
00100000
,
10010000
00000000
01000000
00000000
,
10010000
00000000
00100000
00010000
,
00011000
00000000
00000110
00000000
,
00022000
00000000
00033000
00000000
,
00001000
00000000
00000010
00000000
,
00020000
00000000
00031000
00100000
,
00010000
00000000
01000000
00000000
,
00002000
00000000
00013000
00000010
,
00001000
00000000
00000100
00000000
,
00020000
00000000
00031000
01000000
,
00001000
00000000
00101000
00000000
,
00010000
00000000
00010010
00000000
,
00001000
00000000
00000001
00000000
,
00000020
00000000
00000130
00000000
,
00000100
00000000
00010000
00000000
,
00002000
00000000
00103000
00000000
,
00010000
00000000
10000000
00000000
,
00200000
00000000
01300000
00000000
,
02000000
00000000
00000000
00000000
,
03002000
00000000
00023000
00000000
,
00031000
00001000
00001000
00000000
,
00010000
00010000
00010000
00011000
,
00022000
00000000
00000000
00000000
,
00033000
00000000
00000000
00000000
;

//---------------dance-single - Spork!----------------
#NOTES:
     dance-single:
     :
     Challenge:
     10:
     0.603,0.824,0.462,0.245,0.217,388.000,51.000,27.000,105.000,3.000,20.000,0.603,0.824,0.462,0.245,0.217,388.000,51.000,27.000,105.000,3.000,20.000:
00M0
0000
0000
0000
,
0000
0000
0000
0000
,
0M00
0000
0000
000M
0000
M000
0000
0M00
,
0000
0000
0000
0000
,
0MM0
0000
0000
0000
,
0000
0000
0000
0000
,
00M0
0000
0000
M000
0000
000M
0000
00M0
,
0000
0000
0000
0100
0100
0100
0010
1000
,
1004
0000
0000
0043
0001
0034
0000
0403
,
0000
0000
0310
1000
1100
0000
0010
0001
,
4M01
0000
0000
304M
1000
4M30
0000
34M0
,
0000
0000
0310
0001
0101
0000
0001
1000
,
14MM
0000
0000
4300
0001
3004
0000
0403
,
0000
0000
0310
1000
1001
0000
0010
0001
,
M4M1
0000
0000
00M0
0001
M000
0000
001M
,
0340
0000
000M
0100
M000
0M00
1000
0000
,
1030
0100
0010
0100
1000
0010
0100
0100
,
0001
0010
0100
0010
0001
0100
0010
0010
,
1002
0000
M010
0000
10M3
0001
0010
0M01
,
1000
0100
001M
0010
0M01
1000
0M10
1000
,
0001
0100
0010
0100
0001
0010
010M
1000
,
0000
0010
0100
0010
1000
0100
M010
0010
,
2001
0000
010M
0000
3M01
1000
0100
11M0
,
0000
1010
0M00
0011
M001
0101
01M0
0001
,
1000
0100
0010
0100
1000
0010
0100
0100
,
0001
0010
0100
0010
0001
0100
0010
0010
,
1002
0000
M010
0000
10M3
0000
1000
0M01
,
1000
0100
001M
0010
0M01
1000
00M0
0001
,
0100
0010
0100
0001
0010
0100
1000
0001
,
0100
0010
0100
0010
1000
0100
M010
0010
,
2001
0000
001M
0M00
30M1
M100
001M
1M00
,
0000
110M
0000
M110
0010
0M11
0000
0100
,
20MM
0000
0000
0000
0010
0000
3000
0000
1100
0000
0020
0000
0000
0000
0031
0100
,
M0M2
1000
1000
0003
0011
0200
0000
0310
,
M12M
0000
0031
0000
0110
2000
0000
3020
,
0000
0230
0001
0302
1000
1003
0010
1000
,
0001
0000
0000
0100
0000
0000
0000
0000
0000
0100
0000
0000
0010
0000
0000
2000
0000
0000
0000
0000
0000
0002
0000
0000
0000
0000
0000
0000
0000
0000
0000
0000
,
0000
0000
0000
0000
0010
0000
0000
3003
0000
0000
0000
0000
0000
0100
0000
0000
0001
0000
0000
0010
0000
0000
0000
0000
0000
0100
0000
0000
1000
0000
0000
000M
,
0000
0000
00M0
0000
0000
220M
0000
0000
0000
0000
0000
0000
0000
0000
0000
0000
0000
0000
0000
0000
3301
0000
0000
1100
0000
0000
0000
0000
0000
1000
0000
0000
,
0100
0000
0000
0010
0000
0000
0M00
0000
0000
0M10
0000
0000
0M01
0000
0000
2M00
0000
0000
0M00
0000
0000
0M02
0000
0000
0M00
0000
0000
0000
0000
0000
0000
0000
,
0000
0000
0000
0000
3013
0000
0000
1000
0000
0000
0001
0000
0000
1000
0000
0000
0020
0000
0000
0100
0000
0000
0000
0000
0000
1000
0000
0000
0100
0000
0000
1000
,
0000
0000
0000
0000
0000
2000
0000
0000
0000
0000
0000
0000
0000
0000
0000
0000
0000
0000
0000
0000
0000
0000
3000
0000
0000
0000
0000
0000
0000
0000
0000
0000
,
1030
0001
0010
0001
1000
0010
1000
0100
,
0000
0100
0010
0000
0110
0000
0100
0000
,
110M
1000
0001
01M1
0100
M110
0000
101M
,
0000
0000
0000
0010
0000
0000
0100
0000
0000
0000
0000
0000
0001
0000
0100
0000
0010
0000
1000
0000
0100
0000
0010
0000
,
011M
1000
0000
0001
0100
0000
0010
0100
,
0000
0001
0020
0000
0100
0000
0031
0000
,
101M
0000
0010
M101
0001
0M11
0000
11M0
,
0100
0100
10M1
0000
1M01
0000
0010
1000
,
140M
0000
0000
1000
1000
0010
0000
0001
,
03M0
0000
0100
0000
1000
0000
0000
0000
0001
0010
0100
1000
0010
0100
0001
0010
,
M041
0000
0000
0001
0001
0100
0000
1000
,
0M30
0010
0001
0000
1001
0000
0100
1000
,
1M40
0000
0000
1000
1000
0100
0000
0001
,
0M30
0010
1000
0000
1001
0000
0100
0001
,
M010
0100
0010
0001
0010
0100
0020
0000
0001
0000
0000
0000
0130
0000
1000
0000
,
001M
0100
0010
1000
0010
0100
0010
0000
0010
0000
0010
0000
1000
0000
0001
0000
,
M4M1
0000
0000
1000
0010
0010
0000
0001
,
03M0
0100
0001
0010
0110
1000
0001
1000
,
1M4M
0000
0000
0001
0100
0100
0000
1000
,
0M30
0010
1000
0000
1200
0000
1300
0001
,
M4M1
0000
0000
1000
0010
0010
0000
0001
,
03M0
0100
0001
0010
1001
1000
0010
0100
,
M001
0010
0001
0100
0001
0010
0001
1000
0100
0010
0100
1000
0100
0010
0100
1000
,
020M
0010
0310
0110
0100
0010
1001
0000
,
M001
0010
0100
1000
0010
0100
0001
00M1
,
1000
0100
0010
0001
0100
0010
M110
0010
,
2M02
0000
0000
0000
,
0000
0000
0000
0000
,
3003
0000
0000
0000
;

//---------------dance-double - Spork!----------------
#NOTES:
     dance-double:
     :
     Hard:
     7:
     0.424,0.441,0.308,0.335,0.068,257.000,34.000,37.000,0.000,0.000,0.000,0.424,0.441,0.308,0.335,0.068,257.000,34.000,37.000,0.000,0.000,0.000: // measure 0
00000000
00000000
00000000
00000000
,  // measure 1
00000000
00000000
00000000
00000000
,  // measure 2
00000000
00000000
00000000
00000000
,  // measure 3
00000000
00000000
00000000
00000000
,  // measure 4
00000000
00000000
00000000
00000000
,  // measure 5
00000000
00000000
00000000
00000000
,  // measure 6
00000000
00000000
00000000
00000000
,  // measure 7
00000000
00000000
00000000
00000000
00000000
00000000
00010000
00010000
,  // measure 8
02000000
00000000
00000000
00100000
00000000
00010000
00000000
00002000
,  // measure 9
03000000
00000000
00013000
00000000
00000100
00000000
00001000
00001000
,  // measure 10
00000020
00000000
00000000
00000100
00000000
00001000
00000000
00020000
,  // measure 11
00000030
00000000
00031000
00000000
01000000
00000000
00010000
00010000
,  // measure 12
00200000
00000000
00000000
01000000
00000000
00010000
00000000
00002000
,  // measure 13
00300000
00000000
00013000
00000000
00000010
00000000
00000010
00001000
,  // measure 14
00000002
00000000
00000010
00000000
,  // measure 15
00002003
00000000
00000100
00000000
,  // measure 16
00003001
00000000
00000010
00000000
00000100
00000000
00010000
00001000
,  // measure 17
00000000
00001000
00010000
00000000
00100000
00000000
10000000
00010000
,  // measure 18
02000000
00000000
00100000
00000000
03100000
00000000
00000000
01010000
,  // measure 19
00000000
01001000
00000000
01010000
00000000
10010000
00000000
00010000
,  // measure 20
10000000
00000000
01000000
00000000
00100000
00000000
00001000
00010000
,  // measure 21
00000000
00010000
00001000
00000000
00000010
00000000
00000001
00001000
,  // measure 22
00000002
00000000
00000100
00000000
00000103
00000000
00000001
00001000
,  // measure 23
00000000
00001010
00000000
00000110
00000000
00000101
00000000
00000001
,  // measure 24
00001000
00000000
00000010
00000000
00000100
00000000
00001000
00010000
,  // measure 25
00000000
00010000
00001000
00000000
00000010
00000000
00010000
00000000
,  // measure 26
00200000
00000000
01000000
00000000
01300000
00000000
00100000
00010000
,  // measure 27
00000000
01010000
00000000
01100000
00000000
10100000
00000000
10000000
,  // measure 28
00010000
00000000
00100000
00000000
01000000
00000000
00010000
00001000
,  // measure 29
00000000
00001000
00010000
00000000
00100000
00000000
00001000
00000000
,  // measure 30
00000020
00000000
00000100
00000000
00000130
00000000
00000000
00001010
,  // measure 31
00000000
00010010
00000000
00001010
00000000
00001001
00000000
00000000
,  // measure 32
00000002
00000000
00001003
00000000
,  // measure 33
00002000
00000000
00013000
00000000
,  // measure 34
00020000
00000000
00000000
00000000
10030000
00000000
00000000
11000000
,  // measure 35
00000000
01010000
00000000
11000000
00000000
00000000
00010000
00010000
,  // measure 36
20000000
00000000
00000000
00000000
00000000
00000000
00000000
00000000
00000000
01000000
00000000
00000000
00000000
00000000
00000000
00100000
00000000
00000000
00000000
00000000
00000000
30020000
00000000
00000000
00000000
00000000
00000000
00000000
00000000
00000000
00030000
00000000
,  // measure 37
00000000
00000000
00000000
00000000
01001000
00000000
00000000
00000000
00000000
00000000
00010000
00000000
00000000
00010000
00000000
00000000
00002000
00000000
00000000
00000000
00000000
00000000
00000000
00000000
00000000
00010000
00000000
00000000
00000000
00000000
00000000
00100000
,  // measure 38
00000000
00000000
00000000
00000000
00000000
02003000
00000000
00000000
00000000
00000000
00000000
00000000
00000000
00000000
03000000
00000000
00000000
00000000
00000000
00000000
00010100
00000000
00000000
00000000
00000000
00000000
00001000
00000000
00000000
00001000
00000000
00000000
,  // measure 39
00020000
00000000
00000000
00000000
00000000
00000000
00000000
00000000
00000000
00001000
00000000
00000000
00000000
00000000
00000000
00000100
00000000
00000000
00000000
00000000
00000000
00030020
00000000
00000000
00000000
00000000
00000000
00000000
00000000
00000000
00000030
00000000
,  // measure 40
00000000
00000000
00000000
00000000
00101000
00000000
00000000
00000000
00000000
00000000
00010000
00000000
00000000
00001000
00000000
00000000
00022000
00000000
00000000
00000000
00000000
00000000
00000000
00000000
00000000
00000000
00000000
00000000
00000000
00000000
00000000
00000000
,  // measure 41
00000000
00000000
00000000
00033000
,  // measure 42
00010000
00000000
00001000
00010000
00000010
00000000
00000010
00001000
,  // measure 43
00000001
00000000
00000010
00000100
00000000
00010000
00000000
00010000
,  // measure 44
00002000
00000000
00000000
00010000
00000000
00100000
00000000
02000000
,  // measure 45
00003000
00000000
00000000
00000000
03001000
00010000
00000100
00010000
,  // measure 46
00001000
00000000
00010000
00001000
00100000
00000000
00100000
00010000
,  // measure 47
10000000
00100000
01000000
00001000
,  // measure 48
00020000
00000000
00000000
00001000
00000000
00000100
00000000
00000010
,  // measure 49
00030000
00000010
00000110
00000000
00001001
00000000
00000010
00000001
,  // measure 50
00000100
00000000
00000010
00001000
00000001
00001000
00000010
00010000
,  // measure 51
00001000
00000000
01000000
00000000
00001000
00001000
00010000
00001000
,  // measure 52
00100000
00000000
01000000
00100000
00010000
01000000
00100000
10000000
,  // measure 53
00010000
00000000
00100000
00000000
01000000
00000000
00100000
00010000
,  // measure 54
01000000
00000000
00100000
10000000
00010000
10000000
00100000
01000000
,  // measure 55
00001000
00000000
00100000
00000000
00010000
00000000
00010000
01000000
,  // measure 56
00100000
00000000
00000000
00100000
00010000
00000000
00001000
00000010
,  // measure 57
00000100
00000000
00000000
00000100
00001000
00001000
00000001
00001000
,  // measure 58
00000200
00000000
00000300
00010100
00000000
00001100
00000000
00020100
,  // measure 59
00000000
00030000
00001000
00000000
01000000
00000000
00010000
10000000
,  // measure 60
02000000
00000000
03000000
00101000
00000000
00110000
00000000
00102000
,  // measure 61
00000000
00000000
00013000
00000000
00000010
00000000
00001000
00000001
,  // measure 62
00000020
00000000
00000030
00010100
00000000
00001100
00000000
00020100
,  // measure 63
00000000
00000000
00031000
00000000
00101000
00000000
00010000
00001000
,  // measure 64
00020000
00000000
00000000
00000000
,  // measure 65
00030020
00000000
00000230
00000000
,  // measure 66
00000301
00000000
00000010
00000000
00000100
00000000
00010000
00001000
,  // measure 67
00000000
00001000
00010000
00000000
00100000
00000000
10000000
00000000
,  // measure 68
20020000
00000000
00000000
00000000
,  // measure 69
00000000
00000000
30030000
00000000
;

//---------------dance-double - Spork!----------------
#NOTES:
     dance-double:
     :
     Challenge:
     9:
     0.573,0.629,0.398,0.489,0.100,345.000,44.000,54.000,99.000,0.000,2.000,0.573,0.629,0.398,0.489,0.100,345.000,44.000,54.000,99.000,0.000,2.000: // measure 0
00000000
00000000
00000000
00000000
,  // measure 1
00000000
00000000
00000000
00000000
,  // measure 2
00000000
00000000
00000000
00000000
,  // measure 3
00000000
00000000
00000000
00000000
,  // measure 4
00000000
00000000
00000000
00000000
,  // measure 5
00000000
00000000
00000000
00000000
,  // measure 6
00000000
00000000
00000000
00000000
,  // measure 7
00000000
00000000
00000000
00000000
00000000
00000000
00100M00
00100M00
,  // measure 8
020000M0
00000000
03010000
1000000M
00100000
00010M00
00001000
0M000020
,  // measure 9
00000000
00000030
00000100
00000000
00001001
00000000
00M00100
00M00100
,  // measure 10
0M000020
00000000
00001030
M0000001
00000100
00M01000
00010000
020000M0
,  // measure 11
00000000
03100000
00010000
00000000
10010000
00000000
010000M0
010000M0
,  // measure 12
00200M00
00000000
00310000
1000000M
01000000
000100M0
00001000
00M00200
,  // measure 13
00000000
00000300
00000010
00000000
00001001
00000000
0M000010
0M000010
,  // measure 14
00M00200
00000000
00000000
00000000
,  // measure 15
020M0300
00000000
00000000
00000000
,  // measure 16
03010000
00100000
00010000
00100000
01000000
10000000
01000000
10000000
,  // measure 17
00100000
01000000
00100000
01000000
00001000
00010000
00001000
00010000
,  // measure 18
02000000
00000000
03002000
00000000
00003200
00000000
00000301
00000100
,  // measure 19
00000000
00010000
00000000
00001000
00000000
00100000
00000000
00000010
,  // measure 20
00001000
00000100
00001000
00000100
00000010
00000001
00000010
00000001
,  // measure 21
00000100
00000010
00000100
00000010
00010000
00001000
00010000
00001000
,  // measure 22
00000020
00000000
00020030
00000000
00230000
00000000
10300000
00100000
,  // measure 23
00000000
00001000
00000000
00010000
00000000
00000100
00000000
00100000
,  // measure 24
00010000
10000000
00010000
10000000
00001000
00010000
00001000
00010000
,  // measure 25
00000001
00001000
00000001
00001000
00000010
00010000
00001000
01000000
,  // measure 26
00200000
00000000
00320000
00000000
00030020
00000000
00000031
00000010
,  // measure 27
00000000
00010000
00000000
00001000
00000000
00100000
00000000
00000100
,  // measure 28
00001000
00000001
00001000
00000001
00010000
00001000
00010000
00001000
,  // measure 29
10000000
00010000
10000000
00010000
01000000
00001000
00010000
00000010
,  // measure 30
00000200
00000000
00002300
00000000
02003000
00000000
03000000
10010000
,  // measure 31
00000000
01001000
00000000
00010100
00000000
00001001
00000000
00000000
,  // measure 32
00001200
00000000
00001300
00000001
00000010
00001000
00000000
00010000
,  // measure 33
00021000
00000000
00031000
01000000
00100000
01000000
00000000
00010000
,  // measure 34
00210000
00000000
00310000
10000000
01000000
00000000
10000000
00010000
,  // measure 35
00000000
01000000
00000000
00200000
00000000
00000000
013000M0
010000M0
,  // measure 36
000M2000
00000000
00000000
00000000
00000000
00000000
00000000
00000000
00003000
100100M0
00000000
00000000
00000000
00000000
00000000
0M011000
00000000
00000000
00000000
00000000
00000000
000020M2
00000000
00000000
00000000
00000000
00000000
00000000
00000000
00000000
00000000
00000000
,  // measure 37
00003003
00000000
00000000
00000000
00000110
00000000
00000000
00000000
00000000
00000000
0M000010
00000000
00000000
0M000010
00000000
00000000
0002M000
00000000
00000000
00000000
00000000
00000000
00000000
00000000
00030000
0M001001
00000000
00000000
00000000
00000000
00000000
000110M0
,  // measure 38
00000000
00000000
00000000
00000000
00000000
2M020000
00000000
00000000
00000000
00000000
00000000
00000000
00000000
00000000
00000000
00000000
30030000
00000000
00000000
00000000
01100000
00000000
00000000
00000000
00000000
00000000
001000M0
00000000
00000000
001000M0
00000000
00000000
,  // measure 39
000M2000
00000000
00000000
00000000
00000000
00000000
00000000
00000000
00003000
0110000M
00000000
00000000
00000000
00000000
00000000
M0011000
00000000
00000000
00000000
00000000
00000000
00M00220
00000000
00000000
00000000
00000000
00000000
00000000
00000000
00000000
00000000
00000000
,  // measure 40
00000330
00000000
00000000
00000000
00001001
00000000
00000000
00000001
00000000
00000000
00000010
00000000
00000000
00000100
00000000
00000000
00044000
00000000
00000000
00000000
00000000
00000000
00000000
00000000
00000000
00000000
00000000
00000000
00000000
00000000
00000000
00000000
,  // measure 41
00000000
00000000
00000000
00000000
00000000
00000000
00000000
00033000
,  // measure 42
00010000
00000100
00001000
00000100
00010000
00001000
00100000
00010000
,  // measure 43
00100000
00001000
00010000
00000010
00001000
00000010
00010000
00001000
,  // measure 44
02001000
00000000
03000000
10100000
00000000
00011000
00000000
00000011
,  // measure 45
00000000
00000000
00000000
00000100
00000000
00000000
00010000
00000000
00000000
00000000
00000000
00000000
00001000
00000000
00010000
00000000
00000100
00000000
00001000
00000000
00000010
00000000
00010000
00000000
,  // measure 46
00001000
00100000
00010000
00100000
00001000
00010000
00000100
00001000
,  // measure 47
00000100
00010000
00001000
01000000
00010000
01000000
00001000
00010000
,  // measure 48
00010020
00000000
00000030
00000101
00000000
00011000
00000000
11000000
,  // measure 49
00000000
00000000
00101000
00000000
00011000
00000000
M0010000
00M01000
,  // measure 50
020010M0
00000000
03100000
1000000M
01000000
00100M00
00001000
0M010000
,  // measure 51
00000020
00000000
00000000
00000000
00000001
00000000
00000000
00000000
00001030
00000001
00001000
00000001
00001M00
00000000
00M00010
00000000
,  // measure 52
0001002M
00000000
00000130
M0000001
00000010
00M00100
00010000
000010M0
,  // measure 53
02000000
00000000
10000000
00000000
03010000
00000000
M0100000
000010M0
,  // measure 54
0020100M
00000000
01300000
100000M0
00100000
01000M00
00001000
00M10000
,  // measure 55
00000200
00000000
00000001
00000000
00001300
00000000
0000001M
000M0100
,  // measure 56
00M00102
00000000
00000000
0M020003
00000000
00031000
M0100000
0100M000
,  // measure 57
21000M00
00000000
00000000
300020M0
00010000
00010000
0M013000
000010M0
,  // measure 58
00M20100
00001000
00031000
001000MM
01000000
00010MM0
01000000
0010MM00
,  // measure 59
00000000
00100000
00001000
00010000
00000010
00001000
000001M0
0M010000
,  // measure 60
00102M00
00010000
00013000
M0M00100
00000010
0MM01000
00000010
0M0M0100
,  // measure 61
00000000
00000100
00010000
00000000
00012000
00000000
00M13000
00001M00
,  // measure 62
0M020010
00001000
00031000
01000M0M
00100000
00010MM0
00100000
0100M0M0
,  // measure 63
00000000
01000000
00001000
00010000
00001000
M0100000
00100M00
000100M0
,  // measure 64
2001000M
00000000
00000000
00000000
,  // measure 65
3M002000
00000000
000200M0
00033000
,  // measure 66
00001000
00010000
00100000
10000000
00100000
00010000
00001000
00000010
,  // measure 67
00000001
00000010
00001000
00010000
01000000
00010000
00001000
00000000
,  // measure 68
00022000
00000000
00000000
00000000
,  // measure 69
00000000
00000000
00033000
00000000
;
