#TITLE:Back to Love;
#SUBTITLE:;
#ARTIST:Vylet Pony;
#TITLETRANSLIT:;
#SUBTITLETRANSLIT:;
#ARTISTTRANSLIT:;
#GENRE:Electro-House;
#CREDIT:;
#BANNER:[Qualifier Singles & Doubles] - Back to Love.png;
#BACKGROUND:[Qualifier Singles & Doubles] - Back to Love-bg.png;
#LYRICSPATH:;
#CDTITLE:;
#MUSIC:[Qualifier Singles & Doubles] - Back to Love.mp3;
#OFFSET:-0.932433;
#SAMPLESTART:57.139999;
#SAMPLELENGTH:15.000000;
#SELECTABLE:YES;
#BPMS:0.000000=128.000000
;
#STOPS:
;
#BGCHANGES:;
#KEYSOUNDS:;
#ATTACKS:;

//---------------dance-single - ----------------
#NOTES:
     dance-single:
     :
     Easy:
     3:
     0.238108,0.262460,0.108231,0.054115,0.000000,139.000000,10.000000,5.000000,0.000000,0.000000,0.000000,0.238108,0.262460,0.108231,0.054115,0.000000,139.000000,10.000000,5.000000,0.000000,0.000000,0.000000:
0000
0000
0000
0000
,
0000
0000
0000
0000
,
0000
0000
0000
0000
,
0000
0000
0000
0000
,
2000
0000
0000
0000
,
3002
0000
0000
0000
,
0013
0000
0010
0000
,
0100
0000
0100
0000
,
0010
0000
0010
0000
,
0001
1000
0001
0000
,
0100
0000
0100
0000
,
1000
0001
1000
0000
,
0100
0000
0100
0000
,
0010
1000
0010
0000
,
1000
0000
1000
0000
,
0001
0010
0001
0000
,
0010
0000
0200
0000
,
0010
0000
0310
0000
,
1000
0000
0002
0000
,
1000
0000
1003
0000
,
0001
0010
0001
0000
,
1000
0010
1000
0000
,
0001
0100
1000
0100
,
0001
1000
0001
0000
,
0000
0010
0010
0010
,
0100
1000
0001
0000
,
0000
0100
0100
0100
,
0010
1000
0001
0010
,
0100
0000
0110
0000
,
0010
0000
0011
0001
,
1000
0010
0100
0001
,
1000
0000
0001
0000
0010
0000
0100
0100
,
0100
0001
0100
0010
,
1000
0010
1000
0001
,
0010
0010
0010
0110
,
0100
0100
0100
0110
,
0100
1000
0001
1000
,
0010
0100
0001
0100
,
0010
0010
0010
0110
,
0100
0100
0100
0110
,
0100
0001
0100
0001
,
0010
0100
0010
0100
,
1000
1000
1000
1001
,
0001
0001
0001
1001
,
0001
0100
1000
0100
,
0010
1000
0001
1000
,
0001
0001
0001
1001
,
1000
1000
1000
1001
,
0200
0000
0300
0000
;

//---------------dance-single - ----------------
#NOTES:
     dance-single:
     :
     Beginner:
     1:
     0.077308,0.101737,0.064939,0.075762,0.000000,37.000000,6.000000,7.000000,0.000000,0.000000,0.000000,0.077308,0.101737,0.064939,0.075762,0.000000,37.000000,6.000000,7.000000,0.000000,0.000000,0.000000:
0000
0000
0000
0000
,
0000
0000
0000
0000
,
0000
0000
0000
0000
,
0000
0000
0000
0000
,
0000
0000
0000
0000
,
0000
0000
0000
0000
,
0000
0000
0000
0000
,
0000
0000
0000
0000
,
0010
0000
0000
0000
,
0010
0000
0000
0000
,
1000
0000
0000
0000
,
0001
0000
0000
0000
,
0010
0000
0000
0000
,
0010
0000
0000
0000
,
0001
0000
0000
0000
,
1000
0000
0000
0000
,
0100
0000
0020
0000
,
0000
0000
0000
0000
,
0230
0000
0000
0000
,
0000
0000
0000
0000
,
0320
0000
0000
0000
,
0130
0000
0000
0000
,
1000
0000
0000
0000
,
0001
0000
0000
0000
,
2002
0000
0000
0000
,
3000
0000
0000
0000
,
0023
0000
0000
0000
,
0200
0000
0000
0000
,
0030
0000
0000
0000
,
0300
0000
0000
0000
,
1000
0000
0000
0000
,
0001
0000
0000
1001
,
1001
0000
0000
0000
,
1000
0000
0000
0000
,
0100
0000
0000
0000
,
0001
0000
0000
0000
,
1001
0000
0000
0000
,
1000
0000
0000
0000
,
0010
0000
0000
0000
,
0001
0000
0000
0000
,
0110
0000
0000
0000
,
0010
0000
0000
0000
,
0100
0000
0000
0000
,
0010
0000
0000
0000
,
1001
0000
0000
0000
,
1000
0000
0000
0000
,
0001
0000
0000
0000
,
1000
0000
0000
0000
;

//---------------dance-single - ----------------
#NOTES:
     dance-single:
     :
     Medium:
     5:
     0.347885,0.337681,0.119054,0.216462,0.189404,194.000000,11.000000,20.000000,0.000000,0.000000,0.000000,0.347885,0.337681,0.119054,0.216462,0.189404,194.000000,11.000000,20.000000,0.000000,0.000000,0.000000:
0000
0000
0000
0000
,
0000
0000
0000
0000
,
0000
0000
0000
0000
,
0000
0000
0000
0000
0000
0010
1000
0010
,
1000
0000
0000
0001
0000
0000
1000
0000
0001
0000
0000
0000
0010
0000
0200
0000
,
0000
0000
2300
0000
0000
3001
1000
0001
,
1000
0000
0010
0100
0000
0010
0000
2000
,
0000
3100
0000
0000
0000
0000
1000
0100
,
0010
0000
0000
0200
0000
0300
2002
3000
,
0103
0000
0000
0000
0000
0000
0001
0010
,
0100
0000
0010
0100
0000
1000
0002
0000
,
0000
0000
0000
0103
,
0001
0000
0000
0010
0000
0000
0100
0000
0000
0000
0000
0000
0010
0000
0000
0000
,
0100
0000
0000
1000
0000
0000
0010
0000
0000
0000
0000
0000
0200
0000
0310
0000
,
0000
0100
0001
1000
0001
0010
0100
1000
,
0010
1000
0000
0000
0000
0000
0001
0010
,
0100
0000
0010
0100
0010
0002
0000
0000
,
0000
0000
0000
0003
,
0220
0000
0000
0000
,
0000
0000
0000
0330
,
2002
0000
0000
0000
0000
0000
3003
0001
,
0100
0000
0000
0010
0100
0000
0001
1000
,
0200
0000
0000
0000
0000
0000
0000
0320
,
0000
0000
0031
0000
,
0000
0000
0010
0100
0010
0100
0010
0000
,
0002
0000
2003
0000
3020
0130
0000
0000
,
0000
0000
0010
1000
0010
1000
0010
0000
,
1000
1000
0001
1000
0000
0000
0001
0010
,
0001
0010
0000
0100
0000
1000
0020
0000
,
0000
0000
0000
0000
0000
0000
0130
0010
,
0000
1000
0010
1000
0001
0010
0001
0100
,
0000
0010
0000
1000
0001
0000
0010
0010
,
0100
0000
0000
0100
0000
0000
0100
0000
0000
0100
0000
0000
1000
0000
0001
0000
,
1000
0000
0000
1000
0000
0000
1000
0000
0000
1000
0000
0000
0010
0000
0100
0000
,
0010
0000
0000
0010
0000
0000
0100
0000
0000
0110
0000
0000
0000
0000
0000
0000
,
0100
0000
0000
0100
0000
0000
0010
0000
0000
0110
0000
0000
0000
0000
0010
0000
,
1000
0000
0000
1000
0000
0000
1000
0000
0000
1000
0000
0000
0100
0000
0010
0000
,
0001
0000
0000
0001
0000
0000
0001
0000
0000
0001
0000
0000
0100
0000
0010
0000
,
0100
0000
0000
0100
0000
0000
0010
0000
0000
0110
0000
0000
0000
0000
0000
0000
,
0010
0000
0000
0010
0000
0000
0100
0000
0000
0110
0000
0000
0100
0000
0001
0000
,
1000
0000
0000
0001
0000
0000
1000
0000
0000
0001
0000
0000
1000
0000
0100
0000
,
0010
0000
0000
0100
0000
0000
0010
0000
0000
0100
0000
0000
0010
0000
0001
0000
,
0100
0000
0000
0001
0000
0000
1000
0000
0000
1010
0000
0000
0000
0000
0000
0000
,
0100
0000
0000
1000
0000
0000
0001
0000
0000
0011
0000
0000
0000
0000
0010
0000
,
0100
0000
0000
1000
0000
0000
0100
0000
0000
1000
0000
0000
0100
0000
1000
0000
,
0001
0000
0000
0100
0000
0000
0001
0000
0000
0100
0000
0000
0001
0000
0010
0000
,
0100
0000
0000
1000
0000
0000
0001
0000
0000
0011
0000
0000
0000
0000
0000
0000
,
0001
0000
0000
0100
0000
0000
0010
0000
0000
1010
0000
0000
1000
0000
0002
0000
,
0003
0000
0000
0000
;

//---------------dance-single - ----------------
#NOTES:
     dance-single:
     :
     Hard:
     7:
     0.576716,0.577412,0.649386,0.205639,0.238108,294.000000,60.000000,19.000000,0.000000,0.000000,0.000000,0.576716,0.577412,0.649386,0.205639,0.238108,294.000000,60.000000,19.000000,0.000000,0.000000,0.000000:
0000
0000
0000
0000
,
0000
0000
0000
0000
,
0000
0000
0000
0000
,
0000
0000
0000
0000
0000
0010
1000
0001
,
0010
0000
0000
0100
0000
0000
0010
0000
0200
0000
0000
0000
1300
0000
0200
0000
,
0000
0000
1300
0100
1000
0000
0000
0000
0001
0000
1000
0000
0010
0000
0100
0000
,
0010
0000
0000
1000
0000
0000
1001
0000
0000
0000
0002
0000
0010
0000
0203
0000
,
0010
0000
0000
0000
1300
0000
0000
0000
0000
0000
0000
0000
0000
0000
0000
0000
1100
0000
0000
0000
0000
0000
0000
0000
0100
0000
0000
0000
0000
0000
0010
1000
,
0010
1000
0100
1000
0001
0010
0100
0010
,
0001
1000
0010
1000
0010
0100
0101
0001
,
1001
1000
0100
0010
0100
1000
0010
1000
,
0010
0100
0001
0100
0001
0010
0110
0100
,
1100
0000
1000
0001
1000
0000
0001
0000
0010
0000
0100
0000
1001
0000
0000
0000
,
0101
0000
0001
1000
0001
0000
1000
0000
0010
0000
0100
0000
1002
0000
0103
0000
,
0001
0010
0010
0100
0010
0001
1000
0020
,
0100
0000
0001
0000
1030
0000
0000
0000
1010
0000
0000
0000
1000
0000
0001
0010
,
0100
0000
0010
0100
0010
0002
1000
0000
,
0010
0000
0100
1000
0100
1000
0013
0000
,
0210
0000
1000
0001
0010
0001
1000
0000
,
0010
0000
0001
1000
0010
1000
0301
0100
,
2100
0000
0000
0010
0000
0000
0001
0000
0100
0000
0001
0000
3100
0000
0000
0000
,
1000
0000
0000
0101
0000
0000
0001
0000
0020
0000
0000
0000
0130
0000
0010
0000
,
0100
0000
1100
0000
1000
0000
0001
0100
,
0001
0000
0011
0000
0000
0000
0000
0000
0010
0000
0000
0000
0100
0000
1000
0001
,
1000
0000
0010
0100
0100
0001
1000
0100
,
0110
0000
1100
0000
2000
3001
1000
0010
,
0100
0000
0001
0100
0100
0001
0010
0100
,
0010
0010
0001
2000
3010
0000
1000
0100
,
0010
0100
0000
1100
0000
1000
0001
0000
,
0100
0000
0000
0010
0000
0000
1010
0000
0000
0000
1000
0000
0001
0000
0010
0000
,
0100
0010
0010
0001
1000
0010
1000
1001
,
0000
0011
0000
0210
1300
0000
0110
0110
,
0011
0000
0000
0011
0000
0000
0011
0000
0000
0011
0000
0000
0002
0000
1003
0000
,
0101
0000
0000
0101
0000
0000
0101
0000
0000
0101
0000
0000
0002
0000
1003
0000
,
0011
0000
0000
0100
0000
0000
1010
0000
0000
0100
0000
0000
0000
0000
0000
0000
,
1100
0000
0000
0010
0000
0000
0101
0000
0000
0010
0000
0000
0000
0000
1001
0000
,
1010
0000
0000
1010
0000
0000
1010
0000
0000
1010
0000
0000
2000
0000
3001
0000
,
1100
0000
0000
1100
0000
0000
1100
0000
0000
1100
0000
0000
2000
0000
3001
0000
,
1010
0000
0000
0100
0000
0000
0011
0000
0000
0100
0000
0000
0000
0000
0000
0000
,
0101
0000
0000
0010
0000
0000
1100
0000
0000
0010
0000
0000
0100
0000
1001
0000
,
0001
0000
0010
0001
0010
0000
0001
0000
0010
0001
0010
0000
0001
0000
1000
0000
,
0010
0000
1000
0010
1000
0000
0010
0000
1000
0010
1000
0000
0010
0000
0100
0000
,
0101
0000
0000
0010
0000
0000
1100
0000
0000
0010
0000
0000
0000
0000
0000
0000
,
1010
0000
0000
0100
0000
0000
0011
0000
0000
0100
0000
0000
0000
0000
1001
0000
,
1000
0000
0100
1000
0100
0000
1000
0000
0100
1000
0100
0000
1000
0000
0010
0000
,
0100
0000
0001
0100
0001
0000
0100
0000
0001
1000
0001
0000
1000
0000
0100
0000
,
1100
0000
0000
0010
0000
0000
0101
0000
0000
0010
0000
0000
0000
0000
0000
0000
,
1010
0000
0000
0100
0000
0000
0011
0000
0000
0100
0000
0000
1001
0000
0020
0000
,
0200
0000
0330
0000
;

//---------------dance-double - ----------------
#NOTES:
     dance-double:
     :
     Hard:
     7:
     0.496316,0.571460,0.671032,0.238108,0.189404,237.000000,62.000000,22.000000,0.000000,0.000000,0.000000,0.496316,0.571460,0.671032,0.238108,0.189404,237.000000,62.000000,22.000000,0.000000,0.000000,0.000000:
00000000
00000000
00000000
00000000
,
00000000
00000000
00000000
00000000
,
00000000
00000000
00000000
00000000
,
00000000
00000000
00000000
00000000
00000000
00010000
00100000
00001000
,
00010000
00000000
00000000
00000100
00000000
00000000
00010000
00000000
00100000
00000000
00000000
01000000
00000000
00000000
00020000
00000000
,
00000000
10030000
00010000
00000000
00100000
00010000
01000000
00100000
,
10000000
00000000
10000000
00010000
00000000
00200000
00310000
00002000
,
00010000
00000000
00000000
00000000
00003100
00000000
00000000
00000000
00000000
00000000
00000000
00000000
00000000
00000000
00000000
00000000
00001100
00000000
00000000
00000000
00000000
00000000
00000000
00000000
00000101
00000000
00000000
00000000
00000000
00000000
00000001
00000010
,
00000001
00000000
00000010
00000100
00001000
00000100
00000001
00000000
,
00000100
00000000
00001000
00000000
00100000
00000000
10000000
00100000
,
10000000
00000000
00010000
00100000
00000000
01000000
00200000
00000000
,
00010000
01000000
00310000
00011000
,
00001000
00000000
00000000
00000100
00000000
00000000
00000020
00000000
00000000
00000000
00000000
00000000
00001030
00000000
00000000
00000000
,
00000010
00000000
00000000
00000100
00000000
00000000
00000001
00000000
00000000
00000000
00000000
00000000
00002000
00000000
00003001
00000000
,
00000000
00001000
00000010
00010000
00001000
00100000
01000000
10000000
,
00100000
01000000
00000000
00000000
00010000
00000000
01000000
00001000
,
00021000
00000000
00000100
00000010
00000100
00000020
00000000
00000000
,
00000000
00000000
00000000
00030000
,
00200030
00000000
00000000
00010000
00000000
00000000
02000000
00000000
,
00000000
00000000
03300000
10010000
,
10000000
00000000
00000000
01000000
00000000
00000000
00010000
00000000
00000000
00000000
00000000
00000000
00001010
00000000
00000000
00000000
,
00000010
00000000
00000000
00000100
00000000
00000000
00001000
00000000
00000002
00000000
00000000
00000000
00000103
00000000
00000001
00000000
,
00000020
00000000
00000000
00000000
00000000
00000000
00000130
00000010
,
00000200
00000000
00000000
00000000
00010000
00000000
00000000
00000000
01000000
00000000
00000000
00000000
00010300
00000000
00000100
00010000
,
00001000
00000000
00010000
00100000
10000000
00100000
01000000
00000000
,
00020000
00000000
00230000
00000000
01300000
10000000
00010000
01000000
,
00001000
00000000
00010000
00010000
00000010
00001000
00000001
00000010
,
00000100
00000100
00000010
00000100
00001000
00000000
00000010
00001000
,
00010000
00000000
00000000
01000000
00000000
00000000
01001000
00000000
00000000
00000000
00001000
00000000
00100000
00000000
00000000
00000000
,
01000000
00000000
00000000
10000000
00000000
00000000
00010000
00000000
00000000
00000000
00000000
00000000
10000000
00000000
00100000
00000000
,
01100000
01000000
00100000
10000000
00010000
00100000
00001000
00020000
,
00000000
00000010
00000000
00001000
00030001
00000000
00010001
00011000
,
00101000
00000000
00000000
00101000
00000000
00000000
00101000
00000000
00000000
00101000
00000000
00000000
00002000
00000000
01003000
00000000
,
01001000
00000000
00000000
01001000
00000000
00000000
01001000
00000000
00000000
01001000
00000000
00000000
00002000
00000000
00103000
00000000
,
00101000
00000000
00000000
00010100
00000000
00000000
00101000
00000000
00000000
00010100
00000000
00000000
00000000
00000000
00000000
00000000
,
00010010
00000000
00000000
01001000
00000000
00000000
00010010
00000000
00000000
01001000
00000000
00000000
00000000
00000000
00011000
00000000
,
00010010
00000000
00000000
00010010
00000000
00000000
00010010
00000000
00000000
00010010
00000000
00000000
00020000
00000000
00030100
00000000
,
00010100
00000000
00000000
00010100
00000000
00000000
00010100
00000000
00000000
00010100
00000000
00000000
00020000
00000000
00030010
00000000
,
00010010
00000000
00000000
01001000
00000000
00000000
00010010
00000000
00000000
01001000
00000000
00000000
00000000
00000000
00000000
00000000
,
00101000
00000000
00000000
00010100
00000000
00000000
00101000
00000000
00000000
00010100
00000000
00000000
00000000
00000000
00011000
00000000
,
00010000
00100000
10000000
01000000
00100000
01000000
10000000
00010000
,
00100000
00001000
00010000
00000010
00001000
00000010
00000001
00000010
,
00001010
00000000
00000000
00000101
00000000
00000000
00001010
00000000
00000000
00000101
00000000
00000000
00000000
00000000
00000000
00000000
,
00000011
00000000
00000000
00001100
00000000
00000000
00000011
00000000
00000000
00001100
00000000
00000000
00000000
00000000
00011000
00000000
,
00001000
00000010
00000001
00000100
00000010
00001000
00000100
00001000
,
00000010
00010000
00001000
00100000
01000000
10000000
00100000
10000000
,
10100000
00000000
00000000
01010000
00000000
00000000
10100000
00000000
00000000
01010000
00000000
00000000
00000000
00000000
00000000
00000000
,
11000000
00000000
00000000
00110000
00000000
00000000
11000000
00000000
00000000
00110000
00000000
00000000
00000000
00000000
00022000
00000000
,
00033000
00000000
00000000
00000000
;

//---------------dance-double - ----------------
#NOTES:
     dance-double:
     :
     Medium:
     5:
     0.318508,0.337681,0.021646,0.129877,0.167758,192.000000,2.000000,12.000000,0.000000,0.000000,0.000000,0.318508,0.337681,0.021646,0.129877,0.167758,192.000000,2.000000,12.000000,0.000000,0.000000,0.000000:
00000000
00000000
00000000
00000000
,
00000000
00000000
00000000
00000000
,
00000000
00000000
00000000
00000000
,
00000000
00000000
00000000
00000000
00000000
00100000
10000000
00000000
,
00010000
00000000
00000000
00010000
00000000
00000000
00010000
00000000
10000000
00000000
00000000
00000000
00000000
00000000
00200000
00000000
,
00000000
01300000
00100000
00000000
00000000
01000000
00010000
00000000
,
00100000
00000000
00000000
00001000
00000000
00010000
00000000
00000020
,
00000000
00000130
00000000
00000000
00000000
00000000
00000010
00001000
,
00000010
00000000
00000000
00001000
00000000
00000000
00000002
00000000
,
00000000
00000000
00000000
00000000
00000000
00000000
00000013
00000001
,
00000010
00000000
00000100
00000010
00000000
00000100
00002000
00000000
,
00000000
00000000
00000000
00003010
,
00001000
00000000
00000000
00010000
00000000
00000000
01000000
00000000
00000000
00000000
00000000
00000000
00100000
00000000
00000000
00000000
,
00010000
00000000
00000000
00001000
00000000
00000000
00000100
00000000
00000000
00000000
00000000
00000000
00000020
00000000
00000000
00000000
,
00000030
00001000
00000010
00000000
00001000
00000001
00001000
00000010
,
00000100
00000010
00000000
00000000
00000000
00000000
00000100
00000001
,
00000020
00000000
00000130
00000010
00000100
00002000
00000000
00000000
,
00000000
00000000
00000000
00000000
,
00203000
00000000
00000000
00000000
,
00000000
00000000
00000000
01300000
,
00100000
00000000
00000000
10000000
00000000
00000000
00010000
00000000
00000000
00000000
00000000
00000000
00100000
00000000
00000000
00000000
,
00010000
00000000
00000000
10000000
00000000
00000000
00100000
00000000
01000000
00000000
00000000
00000000
00010000
00000000
01000000
00000000
,
00002000
00000000
00000000
00000000
00000000
00000000
00000000
00203000
,
00000000
00000000
01300000
00000000
,
00000000
00000000
10000000
01000000
00010000
01000000
10000000
00000000
,
00010000
00000000
01000000
00000000
00002000
00013000
00000000
00000000
,
00000000
00000000
00000010
00001000
00000100
00001000
00000010
00000000
,
00000100
00000001
00000100
00000001
00000000
00000000
00001000
00000001
,
00001000
00000000
00000000
00000100
00000000
00000000
00010000
00000000
00000000
00000000
00001000
00000000
01000000
00000000
00000000
00000000
,
00010000
00000000
00000000
10000000
00000000
00000000
00010000
00000000
00000000
00000000
00000000
00000000
00100000
00000000
01000000
00000000
,
00000000
10000000
01000000
00000000
10000000
00100000
00010000
00100000
,
00000000
00010000
00000000
00001000
00000010
00000000
00000110
00000110
,
00000100
00000000
00000000
00000100
00000000
00000000
00000100
00000000
00000000
00000100
00000000
00000000
00010000
00000000
00001000
00000000
,
00100000
00000000
00000000
00100000
00000000
00000000
00100000
00000000
00000000
00100000
00000000
00000000
00001000
00000000
00010000
00000000
,
00000100
00000000
00000000
00010000
00000000
00000000
00001000
00000000
00000000
00100000
00000000
00000000
00000000
00000000
00000000
00000000
,
00000010
00000000
00000000
00010000
00000000
00000000
00001000
00000000
00000000
01000000
00000000
00000000
00000000
00000000
01000000
00000000
,
00100000
00000000
00000000
00100000
00000000
00000000
00100000
00000000
00000000
00100000
00000000
00000000
00010000
00000000
00001000
00000000
,
00000100
00000000
00000000
00000100
00000000
00000000
00000100
00000000
00000000
00000100
00000000
00000000
00001000
00000000
00010000
00000000
,
00100000
00000000
00000000
00010000
00000000
00000000
00001000
00000000
00000000
00000100
00000000
00000000
00000000
00000000
00000000
00000000
,
00000010
00000000
00000000
00001000
00000000
00000000
00010000
00000000
00000000
01000000
00000000
00000000
00000000
00000000
00100000
00000000
,
01000000
00010000
01000000
00000000
00010000
00100000
00010000
00000000
,
00100000
00001000
00100000
00000000
00001000
00010000
00001000
00000000
,
01000000
00000000
00000000
00001000
00000000
00000000
00010000
00000000
00000000
00000010
00000000
00000000
00000000
00000000
00000000
00000000
,
00100000
00000000
00000000
00001000
00000000
00000000
00010000
00000000
00000000
00000100
00000000
00000000
00000000
00000000
00000010
00000000
,
00000100
00000010
00000100
00000000
00001000
00000100
00001000
00000000
,
00000100
00010000
00000100
00000000
00010000
00001000
00010000
00000000
,
00000010
00000000
00000000
00001000
00000000
00000000
00010000
00000000
00000000
01000000
00000000
00000000
00000000
00000000
00000000
00000000
,
00100000
00000000
00000000
00010000
00000000
00000000
00001000
00000000
00000000
00000100
00000000
00000000
00000000
00000000
00000020
00000000
,
00000030
00000000
00000000
00000000
;

//---------------dance-double - ----------------
#NOTES:
     dance-double:
     :
     Easy:
     3:
     0.235016,0.259754,0.064939,0.108231,0.000000,136.000000,6.000000,10.000000,0.000000,0.000000,0.000000,0.235016,0.259754,0.064939,0.108231,0.000000,136.000000,6.000000,10.000000,0.000000,0.000000,0.000000:
// measure 0
00000000
00000000
00000000
00000000
,  // measure 1
00000000
00000000
00000000
00000000
,  // measure 2
00000000
00000000
00000000
00000000
,  // measure 3
00000000
00000000
00000000
00100000
,  // measure 4
00010000
00000000
01000000
00000000
,  // measure 5
00002000
00000000
00003000
00010000
,  // measure 6
00001000
00000000
00100000
00000000
,  // measure 7
00000010
00000000
00000000
00000100
,  // measure 8
00000001
00001000
00000001
00001000
,  // measure 9
00000100
00000010
00000100
00000010
,  // measure 10
00001000
00010000
00001000
00010000
,  // measure 11
00100000
01000000
00100000
01000000
,  // measure 12
00010000
00100000
00010000
00100000
,  // measure 13
01000000
10000000
01000000
10000000
,  // measure 14
00100000
01000000
00100000
01000000
,  // measure 15
00010000
00000100
00010000
00000100
,  // measure 16
00000020
00000000
00002030
00000000
,  // measure 17
00000000
00000000
00000000
00003000
,  // measure 18
00000220
00000000
00000000
00000000
,  // measure 19
00000000
00000000
00000000
00000330
,  // measure 20
00002002
00000000
00000000
00000000
,  // measure 21
00000000
00003003
00000001
00001000
,  // measure 22
00020000
00000000
00000000
00000000
,  // measure 23
10030000
00000000
01000000
00100000
,  // measure 24
01100000
00100000
10000000
01000000
,  // measure 25
00200000
00010000
01300000
00000000
,  // measure 26
00011000
00001000
00010000
00000100
,  // measure 27
00000020
00000001
00000130
00000010
,  // measure 28
00000001
00000000
00001000
00000000
,  // measure 29
00000010
00000000
00010000
00001000
,  // measure 30
00100000
00100000
01000000
01000000
,  // measure 31
10000000
00010000
10000000
10010000
,  // measure 32
00010000
00010000
00010000
00100000
,  // measure 33
01000000
01000000
01000000
10000000
,  // measure 34
00010000
00010000
00010000
00000000
,  // measure 35
00001000
00001000
00001000
00000000
,  // measure 36
00000010
00000010
00000010
00000001
,  // measure 37
00000100
00000100
00000100
00000010
,  // measure 38
00001000
00001000
00001000
00000000
,  // measure 39
00010000
00010000
00010000
00000000
,  // measure 40
10000000
10000000
10000000
01000000
,  // measure 41
00010000
00010000
00010000
00001000
,  // measure 42
00000100
00000100
00000100
00000000
,  // measure 43
00000010
00000010
00000010
00000000
,  // measure 44
00001000
00001000
00001000
00010000
,  // measure 45
01000000
01000000
01000000
10000000
,  // measure 46
00100000
00100000
00100000
00000000
,  // measure 47
01000000
01000000
01000000
00000000
,  // measure 48
10010000
00000000
00000000
00000000
;
