#TITLE:Tricky Disco;
#SUBTITLE:;
#ARTIST:Discotronic;
#TITLETRANSLIT:;
#SUBTITLETRANSLIT:;
#ARTISTTRANSLIT:;
#GENRE:;
#CREDIT:;
#BANNER:Tricky Disco-bn.png;
#BACKGROUND:Tricky Disco-bg.png;
#LYRICSPATH:;
#CDTITLE:;
#MUSIC:Tricky Disco.mp3;
#OFFSET:-0.573;
#SAMPLESTART:44.808;
#SAMPLELENGTH:12.000;
#SELECTABLE:YES;
#DISPLAYBPM:144.000;
#BPMS:0.000=143.749;
#STOPS:;
#TIMESIGNATURES:0.000=4=4
;
#BGCHANGES:;
#KEYSOUNDS:;

//---------------dance-double - ----------------
#NOTES:
     dance-double:
     :
     Easy:
     4:
     0.258,0.298,0.087,0.118,0.000,203.000,11.000,15.000,0.000,0.000,0.000,0.258,0.298,0.087,0.118,0.000,203.000,11.000,15.000,0.000,0.000,0.000: // measure 1
00000000
00000000
00000000
00000000
,  // measure 2
00000000
00000000
00000000
00000000
,  // measure 3
00000000
00000000
10000000
00000000
,  // measure 4
10000000
00000000
00010000
00000000
,  // measure 5
00010000
00000000
01000000
00000000
,  // measure 6
01000000
00000000
00010000
00000000
,  // measure 7
00010000
00000000
00100000
00000000
,  // measure 8
00100000
00000000
00001000
00000000
,  // measure 9
00001000
00000000
00010000
00000000
,  // measure 10
00010000
00000000
00000010
00000200
,  // measure 11
00000020
00000330
00000010
00000000
,  // measure 12
00000100
00000100
00000100
00000000
,  // measure 13
00000001
00001000
00000001
00000000
,  // measure 14
00001000
00001000
00001000
00000000
,  // measure 15
00000100
00000010
00000100
00000000
,  // measure 16
00010000
00010000
00010000
00000000
,  // measure 17
00001000
00100000
00001000
00000000
,  // measure 18
00100000
00100000
00100000
00000000
,  // measure 19
00010000
01000000
00010000
00000000
,  // measure 20
01000000
00100000
01100000
00000000
,  // measure 21
10000000
00010000
10010000
00000000
,  // measure 22
10000000
01000000
11000000
00000000
,  // measure 23
00100000
00001000
00021000
00000000
,  // measure 24
00030200
00000000
00000320
00000000
,  // measure 25
00000032
00000000
00000103
00000100
,  // measure 26
00000001
00000001
00002000
00003200
,  // measure 27
00020300
00032000
00103000
00000000
,  // measure 28
00100000
00000000
01000000
00000000
,  // measure 29
10000000
00010000
10000000
00000000
,  // measure 30
10000000
00000000
00010000
00000000
,  // measure 31
00010000
00100000
00010000
00000000
,  // measure 32
00010000
00000000
00100000
00000000
,  // measure 33
00100000
01000000
00000000
00100000
,  // measure 34
00000000
00100000
00001000
00000000
,  // measure 35
00001000
00010000
00000010
00000000
,  // measure 36
00000010
00000000
00000100
00000000
,  // measure 37
00000100
00000001
00001000
00000000
,  // measure 38
00001000
00000000
00000100
00000000
,  // measure 39
00000100
00010000
00001000
00000000
,  // measure 40
00001000
00000000
00100000
00000000
,  // measure 41
00100000
00010000
10000000
00000000
,  // measure 42
10000000
00000000
01000000
01000000
,  // measure 43
00100000
00100000
00010000
00000000
,  // measure 44
01000000
00000000
00001000
00010000
,  // measure 45
00001000
00010000
00000100
00000000
,  // measure 46
00000010
00000000
00000001
00001000
,  // measure 47
00000010
00000100
00000001
00000000
,  // measure 48
00001000
00000000
00000100
00010000
,  // measure 49
00001000
00010000
00010010
00000000
,  // measure 50
00011000
00000000
00101000
00100000
,  // measure 51
01000000
10000000
02000000
00000000
,  // measure 52
00100000
00000000
00100000
00000000
,  // measure 53
00100000
00000000
10000000
00000000
,  // measure 54
10000000
00000000
10000000
00000000
,  // measure 55
13000000
00000000
00000000
00000000
01000000
00000000
00000000
01000000
,  // measure 56
00000000
00000000
00000000
00000000
10000000
00000000
00000000
10000000
,  // measure 57
00000000
00000000
00000000
00000000
00010000
00000000
00000000
00010000
,  // measure 58
00000000
00000000
01000000
01000000
,  // measure 59
00010000
01000000
00010000
00100000
,  // measure 60
00010000
00000000
00100000
00001000
,  // measure 61
00100000
00000000
00001000
00010000
,  // measure 62
00001000
00000000
00010000
00000010
,  // measure 63
00001000
00001000
00000010
00000100
,  // measure 64
00000010
00000000
00001000
00000001
,  // measure 65
00001000
00000000
00000100
00001000
,  // measure 66
00000100
00000000
00010000
00001000
,  // measure 67
00010000
00000000
00001000
01001000
,  // measure 68
00001000
00000000
01000000
01100000
,  // measure 69
01000000
00000000
00100000
10100000
,  // measure 70
00100000
00000000
10000000
10000000
,  // measure 71
01000000
01000000
00000000
00000000
00100000
00010000
00100000
00000000
,  // measure 72
00020000
00000000
00000000
00000000
10030000
01000000
10000000
00000000
,  // measure 73
00020000
00000000
01030000
01000000
,  // measure 74
00001000
00001000
00010000
00000010
,  // measure 75
00000100
00000100
00000000
00000000
00002002
00000000
00000000
00000000
,  // measure 76
00000000
00000000
00003003
00000000
;

//---------------dance-double - ----------------
#NOTES:
     dance-double:
     :
     Medium:
     6:
     0.450,0.417,0.276,0.166,0.000,343.000,35.000,21.000,0.000,0.000,0.000,0.450,0.417,0.276,0.166,0.000,343.000,35.000,21.000,0.000,0.000,0.000: // measure 1
00000000
00000000
00000000
00000000
,  // measure 2
00000000
00000000
00000000
00000000
,  // measure 3
00000000
00000000
10000000
10000000
,  // measure 4
01000000
00100000
01000000
00000000
10000000
00000000
10000000
00000000
,  // measure 5
00100000
01000000
00100000
00000000
10000000
00000000
10000000
00000000
,  // measure 6
00010000
00100000
00010000
00000000
00100000
00000000
00100000
00000000
,  // measure 7
00001000
00010000
00001000
00000000
00010000
00000000
00010000
00000000
,  // measure 8
00000010
00000100
00000010
00000000
00001000
00000000
00001000
00000000
,  // measure 9
00000001
00000010
00000001
00000000
00001000
00000000
00001000
00000000
,  // measure 10
00000100
00000010
00000100
00000000
00001000
00000100
00001000
00000100
,  // measure 11
00020000
00002000
00000000
00033000
00001000
00000000
00001000
00000000
,  // measure 12
00001000
00000000
00001000
00100000
00010000
00000000
00010000
00000000
,  // measure 13
00010000
10000000
00010000
00000000
10000000
00000000
10000000
00000000
,  // measure 14
10000000
00000000
10000000
00010000
00100000
00000000
00100000
00000000
,  // measure 15
00100000
00001000
00100000
00000000
00001000
00000000
00001000
00000000
,  // measure 16
00001000
00000000
00001000
00010000
00000100
00000000
00000100
00000000
,  // measure 17
00000100
00000010
00000100
00000000
00000010
00000000
00000010
00000000
,  // measure 18
00000010
00000000
00000010
00000001
00001000
00000000
00001000
00000000
,  // measure 19
00000100
00010000
00000100
00010000
00001000
00000000
00001000
00000000
,  // measure 20
00001000
00100000
00010000
00000000
00110000
00000000
00100000
00000000
,  // measure 21
01000000
10000000
01000000
00000000
11000000
00000000
10000000
00000000
,  // measure 22
00010000
01000000
00010000
00000000
01010000
00000000
01000000
00000000
,  // measure 23
00001000
00010000
00001000
00000000
00012000
00000000
00023000
00000000
,  // measure 24
00000010
00030020
00000100
00000230
,  // measure 25
00000001
00000000
00000302
00000000
00001003
00000001
00001000
00000000
,  // measure 26
00000001
00001000
00000001
00000000
00000200
00000000
00002300
00000000
,  // measure 27
00003020
00000032
00000103
00000101
,  // measure 28
00000001
00000000
00001000
00000010
00001000
00000000
00000100
00000000
,  // measure 29
00010000
00001000
00010000
00000000
00001000
00000000
00101000
00000000
,  // measure 30
00100000
00000000
01000000
00100000
01000000
00000000
10000000
00000000
,  // measure 31
00010000
01000000
00010000
01000000
00100000
00000000
10100000
00000000
,  // measure 32
10000000
00000000
00010000
00100000
00010000
00000000
00100000
00000000
,  // measure 33
01000000
10000000
01000000
00000000
00100000
00000000
00110000
00000000
,  // measure 34
00010000
10000000
00010000
00000000
00100000
00000000
00010000
00000000
,  // measure 35
01000000
00001000
01000000
00001000
00010000
00000000
00010010
00000000
,  // measure 36
00000010
00000000
00000100
00000001
00000100
00000000
00000001
00000000
,  // measure 37
00001000
00000100
00001000
00000000
00000100
00000000
00000011
00000000
,  // measure 38
00000001
00000000
00001000
00000010
00001000
00000000
00000100
00000000
,  // measure 39
00010000
00000100
00010000
00001000
00010000
00000000
00011000
00000000
,  // measure 40
00001000
00000000
01000000
00100000
01000000
00000000
00010000
00000000
,  // measure 41
10000000
00010000
10000000
00000000
11000000
00000000
00000000
00000000
,  // measure 42
01100000
00000000
00110000
00100000
,  // measure 43
00010000
10000000
01000000
00100000
00010000
00000000
10010000
00000000
,  // measure 44
10000000
01000000
00100000
00000000
00010000
00000000
10010000
00000000
,  // measure 45
10000000
00100000
01000000
00010000
10000000
00000000
10010000
00000000
,  // measure 46
00010000
00100000
00001000
00000000
00010000
00000000
00011000
00000000
,  // measure 47
00010000
00000010
00001000
00000010
00010000
00000000
00011000
00000000
,  // measure 48
00001000
00010000
00000100
00000000
00000010
00000000
00000011
00000000
,  // measure 49
00000001
00001000
00000100
00000000
00000110
00000000
00000000
00000000
,  // measure 50
00000011
00000000
00001001
00001000
,  // measure 51
00000100
00010000
00012000
00000000
,  // measure 52
00100000
00000000
00010000
00000000
,  // measure 53
01000000
00000000
00010000
00000000
,  // measure 54
00100000
00000000
00010000
00000000
,  // measure 55
01003000
00000000
00000000
00000000
01001000
00000000
00000000
01000000
,  // measure 56
00000000
00100000
00000000
00000000
10100000
00000000
00000000
10000000
,  // measure 57
00000000
01000000
00000000
00000000
00101000
00000000
00000000
00100000
,  // measure 58
00000000
00001000
00000000
00000000
00010000
00001000
00010000
00001000
,  // measure 59
00010000
00001000
00010000
00010000
,  // measure 60
00000010
00000100
00000010
00000000
00000100
00000001
00000100
00000000
,  // measure 61
00000001
00000001
00000000
00000000
00001000
00000000
00001000
00000000
,  // measure 62
00000001
00000010
00000001
00000000
00001000
00000100
00001000
00000000
,  // measure 63
00000001
00001000
00000001
00001000
00000001
00000000
00000001
00000000
,  // measure 64
00010000
00001000
00010000
00000000
00001000
00100000
00001000
00000000
,  // measure 65
00100000
00100000
00000000
00000000
01000000
00000000
01000000
00000000
,  // measure 66
10000000
01000000
10000000
00000000
00010000
00100000
00010000
00000000
,  // measure 67
01000000
00010000
01000000
00000000
00010000
10000000
00010000
00000000
,  // measure 68
00220000
00000000
00000000
00330000
00100000
00010000
00100000
00000000
,  // measure 69
00202000
00000000
00000000
00303000
00001000
00010000
00001000
00000000
,  // measure 70
00020200
00000000
00000000
00030300
00000100
00000000
00000100
00000000
,  // measure 71
00000010
00000020
00000000
00000030
00000010
00000000
00001100
00000000
,  // measure 72
00000010
00000101
00001000
00001010
,  // measure 73
00000010
00000000
00011000
00000000
00001000
00100000
00001000
00000000
,  // measure 74
00100000
01000000
00100000
00000000
01000000
10000000
01000000
10000000
,  // measure 75
00010000
10000000
00010000
00000000
02020000
00000000
00000000
00000000
,  // measure 76
00000000
00000000
03030000
00000000
;

//---------------dance-double - ----------------
#NOTES:
     dance-double:
     :
     Hard:
     8:
     0.546,0.536,0.111,0.142,0.114,452.000,14.000,18.000,0.000,1.000,7.000,0.546,0.536,0.111,0.142,0.114,452.000,14.000,18.000,0.000,1.000,7.000: // measure 1
00000000
00000000
00000000
00000000
,  // measure 2
00000000
00000000
00000000
00000000
,  // measure 3
00000000
00000000
00000000
00000000
10000000
01000000
10000000
01000000
,  // measure 4
00400000
00000000
00000000
00000000
00310000
01000000
00010000
01000000
,  // measure 5
00004000
00000000
00000000
00000000
00013000
00000100
00010000
00000100
,  // measure 6
00000040
00000000
00000000
00000000
00000031
00000100
00000001
00000100
,  // measure 7
00004000
00000000
00000000
00000000
00003100
00000010
00001000
00000010
,  // measure 8
00000400
00000000
00000000
00000000
00000301
00001000
00000100
00010000
,  // measure 9
00004000
00000000
00000000
00000000
00103000
00001000
00100000
00010000
,  // measure 10
00400000
00000000
00000000
00000000
01300000
01000000
10000000
10000000
,  // measure 11
00010000
00020000
00000000
00000000
01030000
00000000
01000000
00000000
,  // measure 12
00010000
00000000
10000000
00000000
00010000
00000000
10000000
01000000
10000000
00000000
00000000
00000000
10000000
00000000
00000000
00000000
,  // measure 13
00010000
00100000
00010000
00000000
00100000
00000000
00100000
00000000
,  // measure 14
01000000
00000000
10000000
00000000
01000000
00000000
00100000
00010000
00100000
00000000
00000000
00000000
00100000
00000000
00000000
00000000
,  // measure 15
00010000
00100000
00001000
00010000
00001000
00000000
00001000
00000000
,  // measure 16
00010000
00000000
00000010
00000000
00001000
00000000
00000010
00000100
00000010
00000000
00000000
00000000
00000010
00000000
00000000
00000000
,  // measure 17
00000100
00000001
00000100
00000000
00000001
00000000
00000001
00000000
,  // measure 18
00001000
00000000
00000100
00000000
00000010
00000000
00000001
00001000
00000001
00000000
00000000
00000000
00001000
00000000
00000000
00000000
,  // measure 19
00000100
00001000
00000100
00001000
00001100
00000000
00010100
00000000
,  // measure 20
00011000
00001000
00100000
01000000
11000000
00000000
10010000
00000000
,  // measure 21
01010000
01000000
00100000
10000000
10010000
00000000
01010000
00000000
,  // measure 22
01001000
01000000
00001000
00010000
00010100
00000000
00000110
00000000
,  // measure 23
00000011
00000000
00000001
00000000
00001000
00000000
00000100
00000000
00000010
00000001
00000000
00001000
00000000
00000000
00000100
00000000
,  // measure 24
00000010
00000001
00000000
00001000
00000000
00000000
00000100
00000000
00001000
00000010
00000000
00010000
00000000
00000000
00000100
00000000
,  // measure 25
00001000
00000010
00000000
00010000
00000000
00000000
00000100
00000000
00010000
00000000
00001000
00000000
00010000
00000000
00001000
00000000
,  // measure 26
00100000
00010000
00100000
00010000
20000000
00000000
30002000
00000000
,  // measure 27
00023000
00000000
00030002
00000000
00000103
00000010
00000100
00000000
,  // measure 28
00000001
00001000
00000001
00000000
00000010
00000100
00000010
00000100
,  // measure 29
00001000
00000001
00001000
00000000
00000010
00001000
00000010
00000000
,  // measure 30
00010000
00000100
00010000
00000000
00001000
00100000
00001000
10000000
,  // measure 31
00001000
01000000
00010000
01000000
00100000
01000000
00100000
00000000
,  // measure 32
10000000
00010000
10000000
00000000
01000000
00100000
01000000
00100000
,  // measure 33
00010000
10000000
00010000
00000000
10000000
01000000
10000000
00000000
,  // measure 34
00010000
00000000
00100000
00000000
00010000
00000000
00000000
00000000
10000000
00000000
01000000
00000000
10000000
00000000
00010000
00100000
,  // measure 35
00010000
00100000
00001000
00100000
00001000
00010000
00001000
00000000
,  // measure 36
00010000
00000010
00010000
00000000
00000010
00000100
00000001
00000100
,  // measure 37
00000010
00000100
00000001
00000000
00001000
00000100
00001000
00000000
,  // measure 38
00000001
00000010
00000001
00000000
00001000
00000100
00000010
00000001
,  // measure 39
00000010
00000100
00010000
00001000
00100000
00010000
00100000
00000000
,  // measure 40
01000000
10000000
01000000
00000000
00100000
00010000
10000000
00010000
,  // measure 41
00100000
00010000
10000000
00000000
00001000
01000000
00001000
00000000
,  // measure 42
00100000
00000000
00010000
00000000
00100000
00000000
00000000
00000000
00010000
00000000
00000000
00010000
00100000
00000000
00000000
00100000
,  // measure 43
00001000
00010000
00002000
00000000
00013000
00000100
00010000
00000100
,  // measure 44
00000010
00000000
00000100
00000000
00000010
00000000
00000100
00001000
00000100
00000000
00001000
00000000
00000001
00000000
00001000
00000000
,  // measure 45
00000010
00000100
00000010
00000000
00001000
00000001
00001000
00000001
,  // measure 46
00001000
00000000
00000010
00000000
00001000
00000000
00000010
00001000
00000010
00000000
00001000
00000000
00000100
00000000
00010000
00000000
,  // measure 47
00001000
01000000
00010000
01000000
00100000
10000000
00100000
10000000
,  // measure 48
00010000
00000000
10000000
00000000
00010000
00000000
10000000
01000000
10000000
00000000
01000000
00000000
00100000
00000000
00010000
00000000
,  // measure 49
10000000
01000000
00100000
00000000
00010000
00100000
00001000
00100000
,  // measure 50
00010000
00000000
00100000
00000000
01000000
00000000
10000000
01000000
10000000
00000000
00010000
00000000
01000000
00000000
00100000
00000000
,  // measure 51
10000000
00010000
01000000
00000000
01010000
00000000
00010000
01000000
,  // measure 52
00000000
00000000
01000000
00001000
00000000
00000000
00001000
00010000
,  // measure 53
00001000
00001000
00010000
00010000
,  // measure 54
00000100
00000100
00000010
00000010
,  // measure 55
00000001
00000000
00000001
00000000
00002000
00000000
00000000
00000100
,  // measure 56
00000000
00000100
00000000
00000001
00003002
00000000
00000000
00000100
,  // measure 57
00000000
00000100
00000000
00000000
00000023
00000000
00000000
00000100
,  // measure 58
00000000
00000001
00000001
00000031
00000010
00000001
00001000
00000100
,  // measure 59
00010000
00000100
00010000
00000100
00020000
00000000
00000000
00000000
00031000
00000000
00000000
00000000
00001000
00000000
00000000
00000000
,  // measure 60
00100000
00010000
10000000
00000000
01000000
00100000
00010000
00100000
,  // measure 61
01000000
10000000
00000000
00000000
00010000
00000000
00010000
00000000
,  // measure 62
10000000
00010000
01000000
00000000
00100000
10000000
00010000
00100000
,  // measure 63
02000000
10000000
10000000
13000000
01000000
00000000
01000000
00000000
,  // measure 64
00100000
00001000
00010000
00000000
00001000
00010000
00000010
00000100
,  // measure 65
00000010
00001000
00000000
00000000
00000001
00000000
00000001
00000000
,  // measure 66
00000010
00000001
00001000
00000000
00000100
00000010
00000010
00000100
,  // measure 67
00001000
00000001
00000100
00000000
00000001
00000010
00000100
00000010
,  // measure 68
00000200
00000000
00001300
00000000
00000100
00010000
00001000
00010000
,  // measure 69
00002000
00000000
00103000
00000000
00001000
01000000
00010000
01000000
,  // measure 70
00020000
00130000
00010000
01010000
,  // measure 71
01000000
00000000
00100000
00000000
00000000
00000000
00000000
00000000
10000000
01000000
00000000
00100000
00000000
00000000
00010000
00000000
,  // measure 72
10000000
01000000
00000000
00100000
00000000
00000000
00010000
00000000
00100000
00001000
00000000
00010000
00000000
00000000
00001000
00000000
,  // measure 73
00100000
00001000
00000000
00010000
00000000
00000000
00001000
00000000
00010000
00000000
00000010
00000000
00010000
00000000
00000010
00000000
,  // measure 74
00001000
00000010
00001000
00000010
00000200
00000000
00000302
00000000
,  // measure 75
00002003
00000200
00000000
00000000
00000001
00000000
00000000
00000000
,  // measure 76
00000000
00000000
00003300
00000000
;

//---------------dance-double - ----------------
#NOTES:
     dance-double:
     :
     Challenge:
     9:
     0.692,0.685,0.363,0.221,0.193,540.000,46.000,28.000,0.000,0.000,0.000,0.692,0.685,0.363,0.221,0.193,540.000,46.000,28.000,0.000,0.000,0.000: // measure 1
00000000
00000000
00000000
00000000
,  // measure 2
00000000
00000000
00000000
00000000
,  // measure 3
00000000
00000000
00000000
00000000
10000000
01000000
00100000
00010000
,  // measure 4
10000000
10000000
10000000
10000000
00010000
01000000
00100000
01000000
,  // measure 5
00010000
00010000
00010000
00010000
00100000
00001000
00010000
00001000
,  // measure 6
00100000
00100000
00100000
00100000
01000000
10000000
01000000
00100000
,  // measure 7
00010000
00010000
00010000
00010000
00100000
00001000
00010000
00001000
,  // measure 8
00010000
00010000
00010000
00010000
00000100
00000010
00000100
00001000
,  // measure 9
00000001
00000001
00000001
00000001
00000100
00000010
00001000
00000010
,  // measure 10
00000100
00000100
00000100
00000100
00000002
00002003
00003200
00000320
,  // measure 11
00000032
00002000
00000000
00003003
00000001
00001000
00000010
00000100
,  // measure 12
00000010
00000000
00001000
00000000
00000100
00000000
00000010
00000001
00000010
00000000
00000100
00000000
00001000
00000000
00000100
00000000
,  // measure 13
00010000
00002000
00020000
00033000
00001000
00100000
00010000
00100000
,  // measure 14
00001000
00000000
01000000
00000000
00010000
00000000
01000000
00100000
01000000
00000000
00010000
00000000
10000000
00000000
00010000
00000000
,  // measure 15
00100000
00000000
01000000
00000000
10000000
00000000
00010000
01000000
00010000
00000000
01000000
00000000
00100000
00000000
01000000
00000000
,  // measure 16
00010000
00000000
10000000
00000000
01000000
00000000
00100000
00010000
00100000
00000000
00001000
00000000
00010000
00000000
00001000
00000000
,  // measure 17
00100000
00000000
02000000
00000000
00200000
00000000
03300000
00000000
00100000
00000000
00001000
00000000
00100000
00000000
00001000
00010000
,  // measure 18
00001000
00000000
00010000
00000000
00000100
00000000
00000010
00000100
00000020
00000000
00000032
00000000
00002003
00000000
00003020
00000000
,  // measure 19
00002030
00000200
00000000
00003300
00001100
00000000
00001001
00000000
,  // measure 20
00000101
00000000
00000100
00000010
00000100
00000000
00000001
00000000
00000101
00000000
00000000
00000000
00001001
00000000
00000000
00000000
,  // measure 21
00000011
00000000
00000001
00001000
00000001
00000000
00001000
00000000
00001100
00000000
00000000
00000000
00010100
00000000
00000000
00000000
,  // measure 22
00011000
00000000
00001000
00010000
00001000
00000000
01000000
00000000
01010000
00000000
00000000
00000000
10010000
00000000
00000000
00000000
,  // measure 23
11000000
00000000
01000000
10000000
01000000
00000000
00100000
00000000
00010000
00100000
00000000
00010000
00100000
00000000
00010000
00000000
,  // measure 24
10000000
00010000
00000000
10000000
00010000
00000000
01000000
00000000
00100000
10000000
00000000
00100000
10000000
00000000
00010000
00000000
,  // measure 25
10000000
01000000
00000000
10000000
01000000
00000000
00100000
00000000
00010000
00100000
00010000
00000000
10000000
00010000
10000000
00000000
,  // measure 26
00010000
01000000
00010000
00000000
01000000
00100000
01000000
00000000
01100000
00000000
00000000
00000000
01001000
00000000
00000000
00000000
,  // measure 27
00011000
00000000
00010010
00000000
00000110
00000100
00000001
00000010
,  // measure 28
00000001
00000000
00000100
00000000
00000010
00000000
00001000
00000100
00001000
00000000
00000001
00000000
00000010
00000000
00000100
00000000
,  // measure 29
00001000
00000010
00020000
00000000
00031000
00100000
00010000
00100000
,  // measure 30
01000000
00000000
00100000
00000000
00010000
00000000
10000000
00100000
10000000
00000000
00010000
00000000
01000000
00000000
00100000
00000000
,  // measure 31
10000000
00010000
10000000
00010000
01000000
00100000
10000000
00100000
,  // measure 32
01000000
00000000
00010000
00000000
00100000
00000000
01000000
10000000
01000000
00000000
00100000
00000000
00010000
00000000
00100000
00000000
,  // measure 33
00001000
00010000
00002000
00000000
00013000
00000010
00001000
00000010
,  // measure 34
00000100
00000000
00000001
00000000
00002000
00000000
00000000
00000000
00003100
00000000
00000010
00000000
00000100
00000000
00001000
00000001
,  // measure 35
00001000
00000010
00001000
00000010
00000100
00000001
00000010
00000001
,  // measure 36
00000100
00000000
00000010
00000000
00001000
00000000
00000100
00000010
00000100
00000000
00001000
00000000
00000001
00000000
00000100
00000000
,  // measure 37
00000010
00001000
00000200
00000000
00010300
00000100
00010000
00001000
,  // measure 38
00100000
00000000
00001000
00000000
01000000
00000000
00010000
01000000
00010000
00000000
10000000
00000000
01000000
00000000
00100000
00000000
,  // measure 39
00010000
10000000
00010000
10000000
00100000
01000000
00010000
01000000
,  // measure 40
00100000
00000000
10000000
00000000
00010000
00000000
00100000
00001000
00100000
00000000
00001000
00000000
00010000
00000000
00001000
00000000
,  // measure 41
00010000
00000000
00000000
00000000
00000000
00000000
00000000
00000000
00000000
00000000
00000000
00000000
00000000
00000000
00000000
00000000
00000000
00000000
00000000
00000000
00000000
00000000
00000000
00000000
00000100
00000000
00000000
00000000
00000000
00000000
00000000
00000000
00000000
00000000
00000000
00000000
00000000
00000000
00000000
00000000
00000000
00000000
00000000
00000000
00000000
00000000
00000000
00000000
00002000
00000000
00000000
00000000
00000000
00000000
00000000
00000000
00000000
00000000
00000000
00000000
00000000
00000000
00000000
00000000
00000000
00000000
00000000
00000000
00000000
00000000
00000000
00000000
00000000
00000000
00000000
00000000
00000000
00000000
00000000
00000000
00000000
00000000
00000000
00000000
00000000
00000000
00000000
00000000
00000000
00000000
00000000
00000000
00000000
00000000
00000000
00003000
00001100
00000000
00000000
00000000
00000000
00000000
00000000
00000000
00000000
00000000
00000000
00000000
00000000
00000000
00000000
00000000
00000000
00000000
00000000
00000000
00000000
00000000
00000000
00000000
00000000
00000000
00000000
00000000
00000000
00000000
00000000
00000000
00000000
00000000
00000000
00000000
00000000
00000000
00000000
00000000
00000000
00000000
00000000
00000000
00000000
00000000
00000000
00000000
00000100
00000000
00000000
00000000
00000000
00000000
00000000
00000000
00000000
00000000
00000000
00000000
00000000
00000000
00000000
00000000
00000000
00000000
00000000
00000000
00000000
00000000
00000000
00000000
00000000
00000000
00000000
00000000
00000000
00000000
00000000
00000000
00000000
00000000
00000000
00000000
00000000
00000000
00000000
00000000
00000000
00000000
00000000
00000000
00000000
00000000
00000000
00000000
,  // measure 42
00000110
00000000
00000000
00000000
00000010
00000000
00000000
00000000
00000011
00000000
00000001
00000010
00000001
00000000
00001000
00000100
,  // measure 43
00001000
00000001
00000100
00000010
00001000
00000100
00000010
00000100
,  // measure 44
00010000
00000000
00001000
00000000
00010000
00000000
00000010
00001000
00000010
00000000
00000100
00000000
00000001
00000000
00001000
00000000
,  // measure 45
00000100
00000010
00000002
00000000
00001003
00000100
00010000
00000010
,  // measure 46
00010000
00000000
00001000
00000000
00100000
00000000
00010000
00100000
00010000
00000000
10000000
00000000
00010000
00000000
01000000
00000000
,  // measure 47
00100000
10000000
00100000
10000000
00010000
10000000
01000000
00100000
,  // measure 48
00010000
00000000
01000000
00000000
00010000
00000000
00100000
00001000
00100000
00000000
00001000
00000000
00010000
00000000
00001000
00000000
,  // measure 49
00100000
01000000
20000000
00000000
31000000
00100000
00010000
00100000
,  // measure 50
00001000
00000000
00010000
00000000
00000100
00000000
00001000
00000100
00001000
00000000
00000001
00000000
00000100
00000000
00000010
00000000
,  // measure 51
00001000
00000100
00000010
00000100
00001000
00000000
00000001
00000010
,  // measure 52
00000001
00000000
00001000
00000100
00001000
00000000
00000001
00001000
,  // measure 53
00000001
00000000
00000100
00000010
00000100
00000000
00000010
00001000
,  // measure 54
00000010
00000000
00001000
00000001
00001000
00000000
00000100
00000010
,  // measure 55
00000100
00000000
00001000
00000001
00001000
00000000
00001100
00000100
,  // measure 56
00000000
00000100
00000000
00000010
00000001
00000000
00000101
00000100
,  // measure 57
00000000
00000100
00000000
00000000
00000001
00000000
00000011
00000010
,  // measure 58
00000000
00000010
00000100
00001000
00000100
00000010
00000100
00000010
,  // measure 59
00000001
00000010
00000001
00000010
00000001
00000000
00000100
00000000
00000001
00000000
00000000
00000000
00001100
00000000
00000000
00000000
,  // measure 60
00000001
00001000
00001100
00000000
00000100
00010000
00001000
00010000
,  // measure 61
00000100
00010000
00001000
00000000
01000000
00000000
00011000
00000000
,  // measure 62
01000000
00001000
00011000
00000000
00010000
00001000
01000000
00001000
,  // measure 63
02000000
00010000
00010000
03010000
01000000
00000000
10100000
00000000
,  // measure 64
01000000
00100000
10100000
00000000
10000000
00010000
00100000
00010000
,  // measure 65
10000000
01000000
00100000
00000000
00010000
00000000
11000000
00000000
,  // measure 66
00010000
10000000
11000000
00000000
01000000
00100000
00010000
00100000
,  // measure 67
00001000
00010000
00000100
00000000
00001000
00000001
00000011
00000000
,  // measure 68
00001000
00000000
00000011
00000000
00000001
00001000
00001100
00000000
,  // measure 69
00000001
00000000
00001100
00000000
00001000
00000100
00010100
00000000
,  // measure 70
00001000
00010100
00011000
00101000
,  // measure 71
01100000
00000000
01100000
00000000
00000000
00000000
00000000
00000000
00100000
01000000
00000000
00100000
01000000
00000000
10000000
00000000
,  // measure 72
01000000
10000000
00000000
01000000
10000000
00000000
00010000
00000000
10000000
00010000
00000000
10000000
00010000
00000000
01000000
00000000
,  // measure 73
00100000
10000000
00000000
00100000
10000000
00000000
00010000
00000000
10000000
01000000
10000000
00000000
01000000
00100000
01000000
00000000
,  // measure 74
00100000
00010000
00100000
00000000
00001000
00100000
00001000
00000000
00011000
00000000
00000000
00000000
00010010
00000000
00000000
00000000
,  // measure 75
00000110
00000220
00000000
00000330
00002020
00000000
00000000
00000000
,  // measure 76
00000000
00000000
00003030
00000000
;
