#VERSION:0.81;
#TITLE:猫侍の逆襲;
#SUBTITLE:;
#ARTIST:猫叉Master;
#TITLETRANSLIT:Nekozamurai no gyakushuu;
#SUBTITLETRANSLIT:;
#ARTISTTRANSLIT:Nekomata-Master;
#GENRE:;
#ORIGIN:;
#CREDIT:;
#BANNER:[Round 5 Singles] - Nekozamurai no gyakushuu.png;
#BACKGROUND:[Round 5 Singles] - Nekozamurai no gyakushuu-bg.png;
#PREVIEWVID:;
#JACKET:[Round 5 Singles] - Nekozamurai no gyakushuu-jk.png;
#CDIMAGE:;
#DISCIMAGE:;
#LYRICSPATH:;
#CDTITLE:cdtitle.png;
#MUSIC:[Round 5 Singles] - Nekozamurai no gyakushuu.mp3;
#OFFSET:-0.051319;
#SAMPLESTART:65.510338;
#SAMPLELENGTH:13.680000;
#SELECTABLE:YES;
#BPMS:0.000=152.000;
#STOPS:;
#DELAYS:;
#WARPS:;
#TIMESIGNATURES:0.000=4=4;
#TICKCOUNTS:0.000=4;
#COMBOS:0.000=1;
#SPEEDS:0.000=1.000=0.000=0;
#SCROLLS:0.000=1.000;
#FAKES:;
#LABELS:0.000=Song Start;
#BGCHANGES:;
#KEYSOUNDS:;
#ATTACKS:
;

//---------------dance-single - ----------------
#NOTEDATA:;
#CHARTNAME:;
#STEPSTYPE:dance-single;
#DESCRIPTION:;
#CHARTSTYLE:;
#DIFFICULTY:Hard;
#METER:9;
#RADARVALUES:0.659363,0.619079,0.267944,0.363020,0.341412,461.000000,31.000000,42.000000,0.000000,0.000000,0.000000,0.000000,0.000000,0.659363,0.619079,0.267944,0.363020,0.341412,461.000000,31.000000,42.000000,0.000000,0.000000,0.000000,0.000000,0.000000;
#CREDIT:;
#NOTES:
0000
0000
0000
0000
,
0000
0000
0000
0000
,
0000
0000
0000
0000
,
0000
0000
0000
0000
,
0000
0000
0000
0000
,
1000
0100
0000
0100
0000
0010
0000
0010
,
0000
0001
0000
0001
0100
0000
0100
0000
,
0001
0001
1000
1000
,
0010
0100
0010
1000
0010
0100
0010
1000
,
0001
0000
0000
0000
1000
0000
0000
0000
0001
1000
0001
1000
0001
0000
1001
0000
,
1000
0000
0000
0001
0100
0000
0010
0000
0100
0000
0000
0001
1000
0000
0100
0000
,
1000
0000
0000
0001
0010
0000
0100
0000
0010
0000
0001
0000
1000
0000
0010
0000
,
0100
0000
0000
0100
0001
0000
1000
0000
0001
0000
0000
1000
0010
0000
0100
0000
,
0010
0000
0000
1000
0001
0000
0010
0000
0100
0000
0001
0000
0100
0000
1000
0000
,
0001
0000
0000
1000
0100
0000
0010
0000
0100
0000
0000
1000
0001
0000
0100
0000
,
0001
0000
0000
1000
0100
0000
0010
0000
1000
0000
0010
0000
0001
0000
0100
0000
,
0010
0000
0000
0010
1000
0000
0100
0000
1000
0000
0000
0001
0100
0000
0010
0000
,
0100
0000
0000
0001
0010
0000
0100
0000
1000
0001
1000
0001
1000
0001
1000
0001
,
0100
0000
0100
0010
1000
0001
0010
0100
,
0010
0000
0001
0100
1000
0100
0010
1000
,
0001
0000
0100
0000
0200
0000
0001
0000
0000
0000
0000
0010
0000
0000
0301
0000
,
0000
1000
0100
0010
0001
0010
0100
1000
,
0010
0000
0100
0010
1000
0001
0010
0100
,
0010
0000
0100
1000
0010
0001
0010
0100
,
0001
0000
0001
0010
0002
0000
1000
0000
0000
0000
0000
0100
0000
0000
1003
0001
,
0100
0001
0010
0001
0100
0010
1000
0001
,
0010
0000
0000
0100
0000
0000
1000
0000
1001
0000
0000
0000
0001
0000
0000
1000
,
0000
0000
0100
0000
1100
0000
0000
0000
1000
0100
1000
0100
0010
0000
0011
0000
,
0001
0000
0000
0100
0000
0000
0001
0000
1001
0000
0000
0000
0001
0000
0000
0100
,
0000
0000
0010
0000
0010
1000
0000
1000
0002
0000
0000
0000
2003
0000
0000
0000
,
3100
0000
0000
1000
0000
0000
0001
0000
1001
0000
0000
0000
1000
0000
0000
0001
,
0000
0000
0000
0100
0000
0000
0101
0000
0000
0000
0000
0000
1000
0000
0100
0000
1000
0000
0001
0000
0100
0000
0001
0000
,
1000
0000
0000
0000
0000
0000
0000
0000
0100
0000
0000
0000
0000
0000
0000
0000
0010
0000
0000
0000
0000
0000
0000
0000
0011
0000
0000
0000
0000
0000
0000
0000
0000
0000
0000
0000
0001
0000
0000
0000
0000
0000
0000
0000
0000
0100
0000
0000
,
0000
0010
1010
0000
0002
0000
2003
0000
,
3100
0100
0010
0100
0100
1000
0001
0100
,
1000
0001
0010
1000
0001
0010
0100
1000
,
0010
0010
0001
0010
0010
1000
0100
0010
,
0100
1000
0001
0010
0002
0000
2003
0000
,
3010
0000
0000
0100
0000
0000
0001
0000
0101
0000
0000
0000
1000
0000
0000
0100
,
0000
0010
0110
0000
0002
0000
2003
0000
,
3001
0000
0000
1100
0000
0000
1001
0000
1001
0000
0000
0000
1000
0000
0000
0011
,
0000
1001
1001
0000
1100
0000
0110
0000
,
0012
0000
2003
0000
3010
1000
0100
0010
,
0001
0000
0100
0000
0010
0000
0001
0000
0010
0000
0100
0010
0200
0000
0000
0000
,
0300
0001
0010
0100
0010
0001
0010
0100
,
2000
0000
0000
0000
3000
0000
0001
0100
0002
0000
0000
0000
2003
0000
0000
0000
,
3200
0000
0320
0000
0031
0010
0100
1000
,
0010
0001
0010
0100
0001
0010
0100
1000
,
0200
0000
0320
0000
0130
1000
0001
0100
,
0020
0000
0000
0100
0000
0000
0130
0000
0000
0000
0000
0100
0001
0000
1000
0000
,
0200
0000
0000
0010
0000
0000
0310
0000
0100
0000
1000
0000
0001
0010
0100
1000
,
0200
0000
0320
0000
0130
1000
0010
0100
,
0001
0000
1000
0000
0100
0000
0010
0000
0100
0000
1000
0001
2000
0000
0000
0000
,
3000
0010
0100
0001
0010
0001
0100
0010
,
2000
0000
0000
0000
3000
0000
0001
0100
0002
0000
0000
0000
2003
0000
0000
0000
,
3020
0000
0230
0000
0302
0000
1003
0010
,
0001
1000
0100
0001
1002
0000
1003
0010
,
0200
0302
0023
2030
,
3020
0000
0000
0100
0000
0000
0130
0000
0000
0000
0100
0000
1000
0000
0001
1000
,
0020
0000
0000
0100
0000
0000
0130
0000
0001
1000
0001
1000
0001
1000
0001
1000
,
0100
0000
0000
0100
1000
0000
0001
0000
0100
0000
0000
0001
0010
0000
0001
0000
,
1000
0000
0000
0010
0100
0000
0010
0000
1000
0000
0001
0000
0010
0000
0100
0000
,
0010
0000
0000
0010
0001
0000
1000
0000
0010
0000
0000
1000
0100
0000
0010
0000
,
0001
0000
0000
0010
0100
0000
0010
0000
0001
0000
0100
0000
1000
0000
0100
0000
,
0001
0000
0000
0001
1000
0000
0010
0000
0100
0000
0000
0100
0001
0000
0010
0000
,
0100
0000
0000
0100
1000
0000
0010
0000
0100
0000
0001
0000
0010
0000
1000
0000
,
0010
0000
0000
0010
0001
0000
0100
0000
1000
0000
0000
1000
0100
0000
0001
0000
,
0010
0000
0000
0010
0100
0000
1000
0000
0001
1000
0001
1000
0001
1000
0001
1000
,
0010
0000
0000
0010
0000
0000
0010
0000
0110
0000
0000
0000
0101
0000
0000
1010
,
0000
1001
1001
0000
2000
0000
3200
0000
,
0310
0000
0000
0010
0000
0000
0010
0000
0110
0000
0000
0000
0011
0000
0000
1100
,
0000
1001
2002
0000
0000
3003
0000
0000
;

//---------------dance-single - ----------------
#NOTEDATA:;
#CHARTNAME:;
#STEPSTYPE:dance-single;
#DESCRIPTION:;
#CHARTSTYLE:;
#DIFFICULTY:Medium;
#METER:7;
#RADARVALUES:0.524774,0.495263,0.233370,0.708754,0.086433,316.000000,27.000000,82.000000,0.000000,0.000000,0.000000,0.000000,0.000000,0.524774,0.495263,0.233370,0.708754,0.086433,316.000000,27.000000,82.000000,0.000000,0.000000,0.000000,0.000000,0.000000;
#CREDIT:;
#NOTES:
0000
0000
0000
0000
,
0000
0000
0000
0000
,
0000
0000
0000
0000
,
0000
0000
0000
0000
,
0000
0000
0000
0000
,
2002
0000
0000
0000
,
0000
3003
0100
0100
,
0001
0001
1000
1000
,
0010
0100
0010
0100
0010
0100
0010
0100
,
0001
1000
0110
1001
,
2000
0100
3200
0010
,
0320
0001
0032
0100
,
0103
0002
0023
0230
,
0320
0032
2003
3020
,
0230
0001
0302
1000
,
2003
0010
3020
0100
,
0130
0002
0203
0320
,
2030
3200
0320
0032
,
1003
0000
1000
0001
0100
0001
1000
0000
,
0001
0000
0001
1000
0010
1000
0001
0000
,
2000
0001
0002
0000
0000
0000
3003
0000
,
1000
0001
0010
0010
,
0001
0000
0001
1000
0100
1000
0001
0000
,
1000
0000
1000
0001
0010
0001
1000
0000
,
0002
1000
2000
0000
0000
0000
3003
0001
,
1000
0001
0100
0000
0001
1000
0010
0000
,
1000
0000
0000
0001
0000
0000
1000
0000
0100
0000
0000
0000
1000
0000
0000
0001
,
0000
1000
0010
0000
0110
0000
0110
0000
,
0001
0000
0000
1000
0000
0000
0001
0000
0100
0000
0000
0000
0001
0000
0000
1000
,
0000
0001
0010
0000
0110
0000
0110
0000
,
1000
0000
0000
0010
0000
0000
1000
0000
0001
0000
0000
0000
1000
0000
0000
0100
,
0000
1000
0001
0000
0101
0000
0101
0000
,
0001
0000
0000
0100
0000
0000
0001
0000
1000
0000
0000
0000
0001
0000
0000
0010
,
0000
0001
1000
0000
1010
0000
1010
0000
,
0001
0000
0000
1000
0000
0000
0010
0000
0100
0000
0000
0000
0001
0000
0000
1000
,
0000
0100
0010
0000
0110
0000
1001
0000
,
1000
0000
0000
0001
0000
0000
0010
0000
0100
0000
0000
0000
1000
0000
0000
0001
,
0000
0100
0010
0000
0110
0000
1001
0000
,
0001
0000
0000
0100
0000
0000
0010
0000
1000
0000
0000
0000
1000
0000
0000
0010
,
0000
0100
0001
0000
0101
0000
1001
0000
,
1100
0000
0000
1100
0000
0000
1000
0000
0100
0000
0000
0000
0101
0000
0000
0101
,
0000
0001
0100
0000
1001
0000
0110
0000
,
0002
0000
0023
0000
0031
1000
0010
0000
,
1000
0010
0100
0000
0010
1000
0200
0000
,
0300
1000
1000
0001
0010
0000
0010
0000
,
0002
0000
0000
1000
2003
0000
3020
0000
,
2030
0000
3200
0000
1300
0001
0100
0000
,
0001
0100
0010
0000
0100
0001
0010
0000
,
0200
0000
2300
0000
3001
1000
0001
1000
,
0200
0000
1000
0000
1300
0000
1000
0001
,
0200
0000
0001
0000
0301
1000
0001
0010
,
0200
0000
2300
0000
3001
1000
0010
0000
,
1000
0100
0010
0000
0100
1000
0020
0000
,
0030
0100
0100
0001
0010
0000
0010
0000
,
0002
0000
0000
1000
2003
0000
3200
0000
,
0320
0000
0032
0000
0203
0000
0310
0100
,
0001
1000
0001
1000
0002
0000
0013
0010
,
0200
0320
0032
2003
,
3020
0000
1000
0000
1030
0000
1000
0001
,
0020
0000
0001
0000
0031
0000
0001
1000
,
0020
0100
0230
0001
,
0302
1000
2003
0001
,
3001
2000
3200
0320
,
0032
0203
0302
0023
,
0230
1000
2300
0010
,
3020
0100
0230
0001
,
0301
2000
3020
0230
,
0302
0023
0230
2300
,
3001
0000
0000
1000
0000
0000
0001
0000
1001
0000
0000
0000
0010
0000
0000
0100
,
0000
0010
0110
0000
2000
0000
3002
0000
,
0103
0000
0000
0010
0000
0000
0100
0000
0110
0000
0000
0000
1000
0000
0000
0001
,
0000
1000
2002
0000
0000
3003
0000
0000
;

//---------------dance-single - ----------------
#NOTEDATA:;
#CHARTNAME:;
#STEPSTYPE:dance-single;
#DESCRIPTION:;
#CHARTSTYLE:;
#DIFFICULTY:Easy;
#METER:4;
#RADARVALUES:0.349438,0.371448,0.207440,0.319804,0.000000,222.000000,24.000000,37.000000,0.000000,0.000000,0.000000,0.000000,0.000000,0.349438,0.371448,0.207440,0.319804,0.000000,222.000000,24.000000,37.000000,0.000000,0.000000,0.000000,0.000000,0.000000;
#CREDIT:;
#NOTES:
// measure 0
0000
0000
0000
0000
,  // measure 1
0000
0000
0000
0000
,  // measure 2
0000
0000
0000
0000
,  // measure 3
0000
0000
0000
0000
,  // measure 4
0000
0000
0000
0000
,  // measure 5
2002
0000
0000
0000
,  // measure 6
0000
3003
0100
0100
,  // measure 7
0001
0001
0001
0001
,  // measure 8
1000
0001
1000
0001
,  // measure 9
0110
0110
0001
1000
,  // measure 10
0002
0000
0023
0000
,  // measure 11
0230
0000
2300
0000
,  // measure 12
3000
1000
0100
0010
,  // measure 13
0001
0010
0100
1000
,  // measure 14
0002
0000
0203
0000
,  // measure 15
0320
0000
2030
0000
,  // measure 16
3000
1000
0010
0100
,  // measure 17
0001
0100
0010
1000
,  // measure 18
0001
1000
0100
1000
,  // measure 19
0001
1000
0100
1000
,  // measure 20
0010
0020
0000
0030
,  // measure 21
0100
0001
0010
0100
,  // measure 22
1000
0001
0100
0001
,  // measure 23
1000
0001
0100
0001
,  // measure 24
0010
0020
0000
0030
,  // measure 25
0001
1000
0010
0100
,  // measure 26
0001
0001
0101
1000
,  // measure 27
1000
1100
0001
1000
,  // measure 28
0010
0010
1010
0100
,  // measure 29
0100
0101
1000
0001
,  // measure 30
0100
0100
0110
0010
,  // measure 31
0010
0110
1000
0001
,  // measure 32
0100
0010
0110
1000
,  // measure 33
0001
1001
2000
3002
,  // measure 34
0103
0100
0010
0010
,  // measure 35
1000
0100
0100
0000
,  // measure 36
1000
0100
0100
0010
,  // measure 37
0001
0100
0100
0000
,  // measure 38
0001
0010
0001
1000
,  // measure 39
0010
1000
0010
0000
,  // measure 40
0220
0000
0330
2002
,  // measure 41
0000
3003
0100
0010
,  // measure 42
1000
0100
1000
0100
,  // measure 43
0010
0001
0010
0011
,  // measure 44
0000
0001
0001
0000
0100
0000
0010
0000
,  // measure 45
2000
0000
3002
2003
,  // measure 46
3010
1000
0010
1000
,  // measure 47
0001
0010
0001
0010
,  // measure 48
0100
0010
0100
1000
,  // measure 49
0002
0000
0000
1003
,  // measure 50
2002
3003
0010
0100
,  // measure 51
0001
0100
0001
0100
,  // measure 52
0010
1000
0010
1010
,  // measure 53
0000
1000
1000
0000
0100
0000
0010
0000
,  // measure 54
0002
0000
1003
0001
,  // measure 55
0100
0001
1000
0010
,  // measure 56
0100
0000
0100
0100
0100
0000
0010
0000
,  // measure 57
1000
0001
0010
0100
,  // measure 58
2000
0000
0000
3001
,  // measure 59
0002
0000
0000
1003
,  // measure 60
2000
0000
3200
0000
,  // measure 61
0320
0000
0032
0000
,  // measure 62
0003
0001
0010
0100
,  // measure 63
1000
0100
0010
0001
,  // measure 64
2000
0000
3020
0000
,  // measure 65
0230
0000
0302
0000
,  // measure 66
0003
0001
0100
0010
,  // measure 67
1000
0010
0100
0001
,  // measure 68
1001
0001
0001
1001
,  // measure 69
1000
1000
0110
0110
,  // measure 70
0101
0001
0001
1010
,  // measure 71
0101
0000
2002
0000
0000
3003
0000
0000
;

//---------------dance-single - ----------------
#NOTEDATA:;
#CHARTNAME:;
#STEPSTYPE:dance-single;
#DESCRIPTION:;
#CHARTSTYLE:;
#DIFFICULTY:Beginner;
#METER:2;
#RADARVALUES:0.141998,0.153960,0.051860,0.155580,0.000000,91.000000,6.000000,18.000000,0.000000,0.000000,0.000000,0.000000,0.000000,0.141998,0.153960,0.051860,0.155580,0.000000,91.000000,6.000000,18.000000,0.000000,0.000000,0.000000,0.000000,0.000000;
#CREDIT:;
#NOTES:
0000
0000
0000
0000
,
0000
0000
0000
0000
,
0000
0000
0000
0000
,
0000
0000
0000
0000
,
0000
0000
0000
0000
,
2002
0000
3003
0000
,
0000
0000
0000
0000
,
0001
0000
0000
0000
,
1000
0000
0000
0000
,
0010
0000
0000
0000
,
0200
0000
0300
0000
,
0200
0000
0300
0000
,
0001
0000
0000
0000
,
0001
0000
0001
0000
,
2000
0000
3000
0000
,
2000
0000
3000
0000
,
0010
0000
0000
0000
,
0010
0000
0010
0000
,
1000
0000
0000
0000
,
0001
0000
0000
0000
,
2000
0000
3000
0000
,
0001
0000
1000
0000
,
0001
0000
0000
0000
,
1000
0000
0000
0000
,
0002
0000
0003
0000
,
1000
0000
0001
0000
,
1001
0000
0000
0000
,
0000
0000
0100
0000
,
1001
0000
0000
0000
,
0000
0000
0010
0000
,
1001
0000
0000
0000
,
0000
0000
0100
0000
,
1001
0000
0000
0000
,
0000
0000
0010
0000
,
1000
0000
0000
1000
,
0000
0000
1000
0000
,
0001
0000
0000
0001
,
0000
0000
0001
0000
,
0100
0000
0000
0100
,
0000
0000
0100
0000
,
0010
0000
0000
0010
,
0000
0000
0010
0000
,
1000
0000
0001
0000
,
0001
0000
0001
0000
,
0100
0000
0010
0000
,
0200
0000
0300
0000
,
0001
0000
1000
0000
,
1000
0000
1000
0000
,
0010
0000
0100
0000
,
0020
0000
0030
0000
,
0020
0000
0030
0000
,
1000
0000
0001
0000
,
0001
0000
0001
0000
,
0010
0000
0100
0000
,
0020
0000
0030
0000
,
0001
0000
1000
0000
,
0001
0001
0001
0000
,
0100
0000
0010
0000
,
0200
0000
0300
0000
,
0200
0000
0300
0000
,
0002
0000
0003
0000
,
0002
0000
0003
0000
,
1000
0000
0000
0000
,
1000
0000
1000
0000
,
0020
0000
0030
0000
,
0020
0000
0030
0000
,
0100
0000
0000
0000
,
0100
0000
0100
0000
,
0001
0000
0000
1000
,
0000
0000
0001
0000
,
1000
0000
0000
0001
,
0000
1001
0000
0000
;
