#TITLE:Samo Shampioni;
#SUBTITLE:;
#ARTIST:Elitsa Todorova & Stoyan Yankoulov;
#TITLETRANSLIT:;
#SUBTITLETRANSLIT:;
#ARTISTTRANSLIT:;
#GENRE:BULGARIAN RHYTHM #2;
#CREDIT:Telperion;
#BANNER:[Round 5 Singles & Round 4 Doubles] - Samo Shampioni.png;
#BACKGROUND:[Round 5 Singles & Round 4 Doubles] - Samo Shampioni-bg.png;
#LYRICSPATH:;
#CDTITLE:cdtitle.png;
#MUSIC:[Round 5 Singles & Round 4 Doubles] - Samo Shampioni.ogg;
#OFFSET:-0.169000;
#SAMPLESTART:40.833000;
#SAMPLELENGTH:9.190998;
#SELECTABLE:YES;
#DISPLAYBPM:130.000000;
#BPMS:0.000000=130.000000
;
#STOPS:
;
#BGCHANGES:;
#KEYSOUNDS:;
#ATTACKS:;

//---------------dance-single - Telperion----------------
#NOTES:
     dance-single:
     Telperion:
     Hard:
     8:
     0.547456,0.526192,0.218024,0.234795,0.364771,403.000000,26.000000,28.000000,0.000000,0.000000,0.000000,0.547456,0.526192,0.218024,0.234795,0.364771,403.000000,26.000000,28.000000,0.000000,0.000000,0.000000:
0000
0000
0000
0000
,
0000
0000
0000
0000
,
0000
0000
0000
0000
,
0000
0000
0000
0000
,
0000
0000
0000
0000
,
0000
0000
0000
0000
,
0011
0000
0000
0010
0001
0000
1000
0000
0010
0000
0000
0010
0100
0000
0001
0000
,
2000
0000
0000
3010
1000
0000
0001
0000
0002
0000
0000
0000
0103
0000
0000
0000
,
1010
0000
0000
0010
1000
0000
0001
0000
0010
0000
0100
0010
0100
0000
1000
0000
,
0002
0000
0000
0103
0001
0000
1000
0000
0200
0000
0000
0000
0310
0000
0000
0000
,
1000
1000
0010
0100
0010
1000
0002
0000
,
0103
0000
0000
0001
0010
0000
0001
0000
0100
0000
0000
0100
0010
0000
1000
0000
,
0100
0000
0000
0100
0010
0000
0001
0000
0100
0000
0000
0100
0010
0000
1000
0000
,
0001
0000
0000
0010
0001
0000
1000
0001
1000
0000
0100
0000
1100
0000
0000
0000
,
0001
0100
0010
0100
0001
0000
0001
0000
,
2000
0000
3100
1000
0020
0000
2030
0000
,
3001
0001
0010
0100
0010
0000
0010
0000
,
1000
0010
0001
1000
0020
0000
0130
0000
,
0001
0001
1000
0100
1000
0000
1000
0000
,
0001
0010
0001
0100
0020
0000
1030
0000
,
0110
0100
0001
1000
0002
0000
0013
0000
,
0110
0100
1000
0001
2000
0000
3100
0000
,
1000
0000
0001
0100
0001
0000
1000
0000
0001
0100
0001
0000
1010
0000
0000
0000
,
0001
0000
0000
1000
0001
0000
0010
0000
0010
0000
0000
0100
1000
0000
0100
0000
,
0001
0000
0100
0010
0100
0000
1000
0000
0010
0000
0000
0000
0010
0000
0000
0000
,
0100
0000
0000
0001
0100
0000
0010
0000
0010
0000
0000
1000
0001
0000
0100
0000
,
1000
0000
0000
1000
0100
0000
0001
0000
0010
0000
0000
0000
0010
0000
0000
0000
,
0100
0000
0000
1000
0001
1000
0001
0000
0100
0000
0000
0001
1000
0001
1000
0000
,
0010
0000
0000
1000
0001
1000
0001
0000
0010
0000
0000
0010
0100
0010
0100
0000
,
1000
0000
0000
0001
0100
0001
0100
0000
0010
0000
0000
1000
0001
1000
0001
0000
,
0010
0010
0010
0010
0002
0000
2000
3003
,
0110
0000
0000
0101
0000
0000
1200
0000
0000
0000
0000
0000
0310
0000
0000
0000
,
0001
0000
0000
0001
0010
0000
0001
0000
0001
1000
0001
1000
0001
0000
0000
0000
,
1001
0000
0000
0011
0000
0000
1020
0000
0000
0000
0000
0000
0030
0000
0000
0000
,
1000
0010
1000
0010
1000
0000
0000
0000
0001
0000
0000
1000
0001
0000
1000
0000
,
1100
0000
0000
1001
0000
0000
1100
0000
0000
0000
0001
0000
0100
0000
0001
0000
,
0200
1000
0010
0301
,
0101
0000
0000
1010
0000
0000
0101
0000
0000
0000
0000
1000
0000
0000
1000
0000
,
0100
0000
0000
1000
0000
0000
0001
0000
0200
0000
0000
0000
0310
0000
0000
0000
,
1000
0000
0001
0100
0001
0000
0000
0000
1000
0000
0100
0000
1000
0000
0000
0000
,
0001
0001
0002
0000
0013
0010
0100
2000
,
3001
0000
0000
0100
0000
0000
1000
0000
0000
0100
0000
0000
0001
0000
0011
0000
,
1000
0000
0000
0100
0000
0000
0001
0000
0000
0100
0000
0000
1010
0000
1010
0000
,
1000
0000
0000
0001
0000
0001
0100
0000
0001
0000
0000
0000
1100
0000
0000
0000
,
0001
0001
2000
0000
3010
0010
0100
0002
,
1003
1000
0200
0000
1300
0001
0100
0000
,
0110
0000
0000
0001
0100
0001
0100
0000
0001
0000
0000
1000
0100
1000
0100
0000
,
1000
0000
0000
1000
0001
0000
1000
0000
0000
0010
0000
0010
1000
0000
1000
0000
,
0001
0000
0000
0100
0001
0100
0001
0000
1000
0000
0000
0100
1000
0100
1000
0000
,
0001
0000
0100
0001
0000
0001
0100
0000
0001
0000
0011
0000
0011
0000
0000
0000
,
2000
0000
0000
0000
0010
0000
0000
0000
0001
0000
0000
0000
3100
1000
0100
1000
,
0002
0000
0000
0000
0010
0000
0000
0000
1000
0000
0000
0000
0103
0001
0100
0001
,
0200
0000
0000
0000
0010
0000
0000
0000
1000
0000
0000
0000
0301
0100
0001
0100
,
0001
1000
0000
1000
0100
0000
0100
0010
0000
0010
0001
0010
0100
0000
0000
0000
,
2000
0002
3003
0000
,
1000
0000
0000
0001
1000
0000
0010
0000
0010
0000
0010
0000
0100
0000
0010
0000
,
0001
0000
0000
0001
0010
0000
1000
0000
0001
0000
0001
0000
0010
0000
0000
0000
,
0100
0000
0000
1000
0100
0000
0010
0000
0010
0000
0010
0000
0100
0000
0010
0000
,
1000
0000
0000
1000
0010
0000
0001
0000
1000
0000
1000
0000
0100
0000
0000
0000
,
1000
0000
0000
0010
1000
0000
0001
0000
0010
0000
0000
0100
0010
0000
0001
0000
,
1000
0000
0000
0010
1000
0000
0010
0000
0100
0000
0100
0000
0001
0000
0100
0000
,
0001
0000
0000
0001
0100
0000
0010
0000
1000
0000
0000
1000
0100
0000
0010
0000
,
0001
0000
0000
0010
0001
1000
0001
1000
0010
0000
1000
0000
1001
0000
0000
0000
;

//---------------dance-double - Telperion----------------
#NOTES:
     dance-double:
     Telperion:
     Hard:
     8:
     0.537872,0.526192,0.159325,0.243180,0.389927,401.000000,19.000000,29.000000,0.000000,0.000000,0.000000,0.537872,0.526192,0.159325,0.243180,0.389927,401.000000,19.000000,29.000000,0.000000,0.000000,0.000000:
// measure 0
00000000
00000000
00000000
00000000
,  // measure 1
00000000
00000000
00000000
00000000
,  // measure 2
00000000
00000000
00000000
00000000
,  // measure 3
00000000
00000000
00000000
00000000
,  // measure 4
00000000
00000000
00000000
00000000
,  // measure 5
00000000
00000000
00000000
00000000
,  // measure 6
00100000
00000000
00000000
00100000
00001000
00000000
00010000
00000000
01000000
00000000
00000000
10000000
01000000
00000000
00100000
00000000
,  // measure 7
10000000
00000000
00000000
10000000
00100000
00000000
00010000
00000000
20000000
00000000
00000000
30000000
10000000
00000000
00000000
00000000
,  // measure 8
00100000
00000000
00000000
00100000
01000000
00000000
00100000
00000000
00010000
00000000
00000000
00001000
00010000
00000000
01000000
00000000
,  // measure 9
10000000
00000000
00000000
10000000
01000000
00000000
00010000
00000000
00002000
00000000
00000000
00003000
00001000
00000000
00000000
00000000
,  // measure 10
00100000
00000010
00010000
00010000
00000100
01000000
00002000
00000000
,  // measure 11
00000000
10000000
00000000
00000000
00203000
00000000
00000000
00000000
00010000
00000000
00000000
00000000
01000000
00000000
00300000
00000000
,  // measure 12
00010000
00000000
00000000
10000000
01000000
00000000
00100000
00000000
00001000
00000000
00000000
00010000
00001000
00000000
00010000
00000000
,  // measure 13
00000010
00000000
00000000
00000010
00000000
00001000
00000010
00000000
00000100
00000000
00000001
00000100
00000001
00000000
00000010
00000000
,  // measure 14
00000100
00001000
00000100
00000100
00020000
00000000
00001000
00000000
,  // measure 15
02030000
00000000
03100000
01000000
20000000
00000000
30200000
00300000
,  // measure 16
01000000
01000000
00010000
01000000
00002000
00000000
00010000
00000000
,  // measure 17
00003010
00001000
00010000
00000010
00000200
00000000
00000301
00000000
,  // measure 18
00000010
00000010
00000100
00010000
00002000
00000000
00000100
00000000
,  // measure 19
00013000
00001000
00010000
01000000
00200000
00000000
00310000
00000000
,  // measure 20
10000000
00010000
00100000
00001000
00020000
00000000
00100000
00000000
,  // measure 21
00031000
00010000
00001000
00000010
00000002
00000000
00000103
00000000
,  // measure 22
00000010
00000000
00010000
00001000
00010000
00000000
00000001
00000000
00010000
00001000
00010000
00000000
01000100
00000000
00000000
00000000
,  // measure 23
00001000
00000000
00000000
00100000
00010000
00000000
01000000
00000000
00001000
00000000
00000000
00010000
00000010
00000000
00001000
00000000
,  // measure 24
00000100
00000000
00000000
00010000
00001000
00000000
00010000
00000000
00000020
00000000
00000000
00000030
00000010
00000000
00000000
00000000
,  // measure 25
00001000
00000000
00000000
00000001
00000010
00000000
00000100
00000000
00010000
00000000
00000000
00010000
00001000
00000000
00100000
00000000
,  // measure 26
00010000
00000000
00000000
00010000
10000000
00000000
00010000
00000000
00200000
00000000
00000000
00300000
00100000
00000000
00000000
00000000
,  // measure 27
00010000
00000000
00000000
10000000
01000000
10000000
01000000
00000000
00100000
00000000
00000000
00010000
01000000
00010000
01000000
00000000
,  // measure 28
00001000
00000000
00000000
00010000
00001000
00010000
00001000
00000000
00100000
00000000
00000000
00001000
00010000
00001000
00010000
00000000
,  // measure 29
00000010
00000000
00000000
00001000
00000100
00001000
00000100
00000000
00000010
00000000
00000000
00000001
00001000
00000001
00001000
00000000
,  // measure 30
00000010
00000001
00000010
00001000
00000200
00000000
00010300
00000000
,  // measure 31
00011000
00000000
00000000
00001010
00000000
00000000
00021000
00000000
00000000
00000000
00000000
00000000
00130000
00000000
00000000
00000000
,  // measure 32
10000000
00000000
00000000
10000000
00010000
00000000
10000000
00000000
01000000
00100000
01000000
00100000
01000000
00000000
00000000
00000000
,  // measure 33
11000000
00000000
00000000
00110000
00000000
00000000
00012000
00000000
00000000
00000000
00000000
00103000
00000000
00000000
00001000
00000000
,  // measure 34
00010000
00000010
00010000
00000010
00010000
00000000
00000000
00000000
00000001
00000000
00000000
00000010
00000000
00000100
00010000
00000000
,  // measure 35
00011000
00000000
00000000
00101000
00000000
00000000
00011000
00000000
00000000
00000000
00010000
00000000
01000000
00000000
10000000
00000000
,  // measure 36
00200000
10000000
01000000
00310000
,  // measure 37
00011000
00000000
00000000
00001010
00000000
00000000
00011000
00000000
00000000
00000000
00000000
00100000
00000000
00000000
00001000
00000000
,  // measure 38
00010000
00000000
00000000
00000010
00000000
00000000
00001000
00000000
00000001
00000000
00000000
00000001
00000020
00000000
00000000
00000000
,  // measure 39
00000130
00001000
00000100
00001000
00000001
00000000
00000000
00000000
00000100
00000001
00000100
00000001
00001000
00000000
00000000
00000000
,  // measure 40
00000100
00000100
00020000
00000000
00031000
00001000
01000000
00000000
,  // measure 41
00010000
00000000
00000000
00100000
00000000
00000000
00001000
00000000
00000000
00000010
00000000
00000000
00000001
00000000
00000000
00000000
,  // measure 42
00001000
00000000
00000000
00000010
00000000
00000000
00010000
00000000
00000000
00100000
00000000
00000000
10000000
00000000
00000000
00000000
,  // measure 43
00010000
00000000
00000000
10000000
00000000
10000000
01000000
00000000
00010000
00000000
00000000
00000000
00011000
00000000
00000000
00000000
,  // measure 44
01000000
01000000
00002000
00000000
00013000
00010000
00000010
00000000
,  // measure 45
00001000
00000001
00002000
00000000
00003100
00010000
00011000
00000000
,  // measure 46
00000010
00000000
00000000
00001000
00000001
00001000
00000001
00000000
00000010
00000000
00000000
00000100
00001000
00000100
00001000
00000000
,  // measure 47
00000001
00000000
00000000
00010000
00001000
00000000
01000000
00000000
00000000
00001000
00000000
00010000
00000100
00000000
00010000
00000000
,  // measure 48
00001000
00000000
00000000
00100000
00010000
00100000
00010000
00000000
10000000
00000000
00000000
00100000
10000000
00100000
10000000
00000000
,  // measure 49
00010000
00000000
01000000
00001000
00000000
00001000
00010000
00000000
00000100
00000000
00011000
00000000
00011000
00000000
00000000
00000000
,  // measure 50
00000020
00000000
00000000
00000000
01000000
00000000
00000000
00000000
00001000
00000000
00000000
00000000
00010030
00001000
00010000
00001000
,  // measure 51
00200000
00000000
00000000
00000000
00000100
00000000
00000000
00000000
00010000
00000000
00000000
00000000
00301000
00010000
00001000
00010000
,  // measure 52
00000020
00000000
00000000
00000000
00000100
00000000
00000000
00000000
00001000
00000000
00000000
00000000
00000130
00000001
00000100
00000001
,  // measure 53
00000100
00000010
00000000
00001000
00000010
00000000
00010000
00001000
00000000
00100000
00010000
00100000
00001000
00000000
00000000
00000000
,  // measure 54
02000000
00000000
00000000
00000000
00000000
00000000
00000000
00000000
00000000
00000000
00000000
00000000
00000000
00000000
00000000
00000000
00000000
00000000
00000000
00000000
00000000
00000000
00000000
00000000
00000000
00000000
00000000
00000000
00000000
00000000
00000000
00000000
00000000
00000000
00000000
00000000
00000000
00000000
00000000
00000000
00000000
00000000
00000000
00000000
00000000
00000000
00000000
00000000
00000200
00000000
00000000
00000000
00000000
00000000
00000000
00000000
00000000
00000000
00000000
00000000
00000000
00000000
00000000
00000000
00000000
00000000
00000000
00000000
00000000
00000000
00000000
00000000
00000000
00000000
00000000
00000000
00000000
00000000
00000000
00000000
00000000
00000000
00000000
00000000
00000000
00000000
00000000
00000000
00000000
00000000
00000000
00000000
00000000
00000000
00000000
03000300
00011000
00000000
00000000
00000000
00000000
00000000
00000000
00000000
00000000
00000000
00000000
00000000
00000000
00000000
00000000
00000000
00000000
00000000
00000000
00000000
00000000
00000000
00000000
00000000
00000000
00000000
00000000
00000000
00000000
00000000
00000000
00000000
00000000
00000000
00000000
00000000
00000000
00000000
00000000
00000000
00000000
00000000
00000000
00000000
00000000
00000000
00000000
00000000
00000000
00000000
00000000
00000000
00000000
00000000
00000000
00000000
00000000
00000000
00000000
00000000
00000000
00000000
00000000
00000000
00000000
00000000
00000000
00000000
00000000
00000000
00000000
00000000
00000000
00000000
00000000
00000000
00000000
00000000
00000000
00000000
00000000
00000000
00000000
00000000
00000000
00000000
00000000
00000000
00000000
00000000
00000000
00000000
00000000
00000000
00000000
00000000
,  // measure 55
00000100
00000000
00000000
00000100
00010000
00000000
00001000
00000000
00100000
00000000
01000000
00000000
00010000
00000000
01000000
00000000
,  // measure 56
10000000
00000000
00000000
10000000
00010000
00000000
01000000
00000000
00100000
00000000
00010000
00000000
00001000
00000000
00000000
00000000
,  // measure 57
00100000
00000000
00000000
00100000
00001000
00000000
00010000
00000000
00000010
00000000
00000100
00000000
00001000
00000000
00000100
00000000
,  // measure 58
00000001
00000000
00000000
00000001
00000010
00000000
00000100
00000000
00001000
00000000
00000100
00000000
00010000
00000000
00000000
00000000
,  // measure 59
00001000
00000000
00000000
00100000
00010000
00000000
10000000
00000000
00100000
00000000
00000000
00100000
00010000
00000000
00001000
00000000
,  // measure 60
00100000
00000000
00000000
01000000
00010000
00000000
01000000
00000000
10000000
00000000
01000000
00000000
00010000
00000000
00001000
00000000
,  // measure 61
00000010
00000000
00000000
00000100
00001000
00000000
00000001
00000000
00000100
00000000
00000000
00000100
00000010
00000000
00010000
00000000
,  // measure 62
00001000
00000000
00000000
01000000
00001000
01000000
00001000
01000000
00001000
00000000
00010000
00000000
00011000
00000000
00000000
00000000
;

//---------------dance-single - Telperion----------------
#NOTES:
     dance-single:
     Telperion:
     Medium:
     6:
     0.424068,0.368335,0.117397,0.352192,0.109012,298.000000,14.000000,42.000000,0.000000,0.000000,0.000000,0.424068,0.368335,0.117397,0.352192,0.109012,298.000000,14.000000,42.000000,0.000000,0.000000,0.000000:
0000
0000
0000
0000
,
0000
0000
0000
0000
,
0000
0000
0000
0000
,
0000
0000
0000
0000
,
0000
0000
0000
0000
,
0000
0000
0000
0000
,
2000
0000
3010
1000
0010
0100
0100
0000
,
0001
0000
1000
0100
2000
0000
3000
0000
,
0002
0000
0013
0001
0010
0100
0100
0000
,
1000
0000
0001
0100
0002
0000
0003
0000
,
0010
0010
0001
1000
0010
0000
0020
0000
,
0130
0200
0301
0002
,
1003
2000
3100
0200
,
0310
0000
0020
0000
1030
0010
0100
1000
,
0001
0000
0100
0001
0020
0000
0100
0000
,
0032
0000
1003
0001
2000
0000
3100
0000
,
1000
1000
0001
1000
0020
0000
0230
0000
,
1300
0100
0010
1000
0002
0000
0003
0000
,
0010
0010
0100
0010
0002
0000
1000
0000
,
0103
0100
0001
0100
0020
0000
1030
0000
,
0001
0010
0001
1000
0020
0000
0030
0000
,
1000
0100
1000
0001
0200
0000
0300
0000
,
0002
0000
0000
0100
0000
0100
1003
0000
,
1200
0001
2300
0010
,
3001
0000
0100
0001
0200
0000
0310
0000
,
0201
1000
0302
0010
,
1003
0000
0001
1000
0200
0000
0310
0000
,
0100
0000
0100
0010
0100
0000
0100
0000
,
1000
0000
1000
0001
1000
0000
1000
0000
,
0010
0000
0010
0100
0010
0000
0010
0000
,
1000
0001
1000
0001
2000
0000
3000
0000
,
0011
0000
0000
1000
0000
0000
0201
0000
0000
0000
0000
0000
0300
0000
0000
0000
,
0010
0000
0000
0010
0000
0000
0010
0000
1000
0000
0001
0000
1000
0000
0000
0000
,
1010
0000
0000
0001
0000
0000
1100
0000
0000
0000
0000
0000
1000
0000
0000
0000
,
0001
0010
0001
0000
1000
0000
1000
0000
,
1100
0000
0000
0001
0000
0000
1100
0000
0000
0000
1000
0000
0001
0000
1000
0000
,
0200
0001
0010
1300
,
1001
0000
0000
1000
0000
0000
0101
0000
0000
0000
0000
0000
0001
0000
0000
0000
,
1000
1000
0010
0110
,
0001
0100
0001
0000
0010
0001
0010
0000
,
0100
1000
0200
0000
1300
0010
1000
0000
,
0002
0000
0000
0100
0000
0000
1000
0000
0000
0100
0000
0003
0001
0000
0000
0000
,
2000
0000
0000
0100
0000
0000
0001
0000
0000
0100
0000
3000
1000
0000
0000
0000
,
0001
0000
0000
0010
0000
0001
1000
0000
0001
0000
0000
0000
0001
0000
0000
0000
,
0100
0001
0200
0000
0310
0100
0010
0000
,
1000
1000
2000
0000
3001
0001
0001
0000
,
0011
0010
0100
1000
,
0001
0000
0000
1000
0001
0000
1000
0000
0000
0001
0000
1000
0001
0000
1000
0000
,
0010
0100
0010
0010
,
1000
0000
0001
1000
0000
1000
0001
0000
1000
0000
0001
0000
0001
0000
0000
0000
,
0200
0000
0010
0000
0301
0000
0100
0001
,
2000
0000
0001
0000
3100
0000
0100
0010
,
0002
0000
0010
0000
1003
0000
0001
1000
,
0001
0000
0000
1000
0000
0000
0001
0000
0000
0000
0001
0000
1000
0000
0000
0000
,
0200
0020
0330
0000
,
0021
0000
1000
0000
0031
1000
0001
0100
,
0001
0000
1000
0010
0100
0100
0100
0000
,
0020
0000
0001
0000
1030
0001
1000
0100
,
0010
0000
0010
0001
1000
1000
1000
0000
,
0010
0000
0000
1000
0000
0000
0010
0000
0100
0000
0000
0001
0000
0000
0100
0000
,
0010
0000
0000
1000
0000
0000
0010
0000
0100
0000
0000
0001
0000
0100
0001
0000
,
0010
0000
0000
0001
0000
0000
0010
0000
0100
0000
0000
1000
0000
0000
0100
0000
,
0010
0000
0000
0000
0001
1000
0001
1000
0001
0000
1000
0000
1001
0000
0000
0000
;

//---------------dance-single - Telperion----------------
#NOTES:
     dance-single:
     Telperion:
     Easy:
     3:
     0.256358,0.315715,0.025157,0.201253,0.008386,187.000000,3.000000,24.000000,0.000000,0.000000,0.000000,0.256358,0.315715,0.025157,0.201253,0.008386,187.000000,3.000000,24.000000,0.000000,0.000000,0.000000:
0000
0000
0000
0000
,
0000
0000
0000
0000
,
0000
0000
0000
0000
,
0000
0000
0000
0000
,
0000
0000
0000
0000
,
0000
0000
0000
0000
,
0020
0000
0000
0030
,
0001
1000
2000
3000
,
0020
0000
0000
0030
,
1000
0001
0002
0003
,
0020
0000
0100
0000
,
0032
0000
1000
0000
,
0203
0000
0302
0000
,
0103
0100
0001
0001
,
1000
0100
2000
3000
,
0002
0003
0010
0010
,
0001
0100
0002
0003
,
0010
0100
2000
3000
,
0001
0100
0002
0003
,
2000
3000
0010
0010
,
1000
0100
2000
3000
,
0001
0010
0100
0100
,
1000
0000
0000
1000
0000
0000
1001
0000
,
0001
0001
0100
0100
,
1000
0100
0002
0003
,
1000
1000
0100
0100
,
0001
0100
2000
3000
,
0010
0000
0010
0000
,
0010
0000
0010
0000
,
0100
0001
0100
0001
,
1000
0001
1000
0001
1000
0000
0000
0000
,
0210
0000
0000
0300
,
0001
0001
1000
1000
,
0020
0000
0000
0030
0000
0000
0000
0000
,
1000
0001
1000
0000
0000
0000
0000
0000
,
0001
0000
0000
0001
0000
0000
0001
0000
0000
0000
0000
0000
0000
0000
0000
0000
,
0000
0010
0010
0001
,
1000
0000
0000
1000
0000
0000
1000
0000
0000
0000
0000
0000
0010
0000
0000
0000
,
0000
0100
0000
0001
,
1000
0000
1000
0000
0001
1000
0100
0000
,
1000
0000
1000
0000
0010
1000
0001
0000
,
0100
0000
0000
0000
0000
0000
0100
0100
,
0100
0000
0000
0000
0000
0000
0100
0100
,
0100
0001
0001
0000
,
1000
2000
3001
0002
,
0013
0000
0020
0000
0031
1000
0001
0000
,
0100
0000
0000
0100
0001
0000
0000
0001
,
1000
0000
1000
0000
0000
0001
1000
0000
,
0100
0000
0000
0100
1000
0000
0000
1000
,
0001
0000
0001
0000
0000
0010
0010
0000
,
0100
0000
1000
0000
0100
0000
1000
0100
,
1000
0000
0001
0000
0100
0000
0001
0100
,
0001
0000
1000
0000
0010
0000
1000
0010
,
1000
0000
0000
0001
0000
0000
0000
0000
,
2000
0002
3003
0000
,
0001
0001
0010
0010
,
1000
0100
0001
0000
,
1000
1000
0010
0010
,
0001
0100
1000
0000
,
0001
0010
0001
0010
,
1000
0100
0001
0000
,
1000
0010
0001
0010
,
1000
0000
0001
1000
0001
0000
0110
0000
;

//---------------dance-single - Telperion----------------
#NOTES:
     dance-single:
     Telperion:
     Beginner:
     1:
     0.092241,0.131548,0.025157,0.008386,0.000000,73.000000,3.000000,1.000000,0.000000,0.000000,0.000000,0.092241,0.131548,0.025157,0.008386,0.000000,73.000000,3.000000,1.000000,0.000000,0.000000,0.000000:
0000
0000
0000
0000
,
0000
0000
0000
0000
,
0000
0000
0000
0000
,
0000
0000
0000
0000
,
0000
0000
0000
0000
,
0000
0000
0000
0000
,
1000
0000
0000
0000
,
1000
0000
0000
0000
,
0001
0000
0000
0000
,
0001
0000
0000
0000
,
0100
0000
0000
0000
,
0100
0000
0000
0000
,
0100
0000
0000
0000
,
0000
0000
0000
0000
,
0001
0000
0000
0000
,
0001
0000
0000
0000
,
1000
0000
0000
0000
,
1000
0000
0000
0000
,
0001
0000
0000
0000
,
0001
0000
0000
0000
,
1000
0000
0000
0000
,
0001
0000
0000
0000
,
0010
0000
0000
0000
,
0110
0000
0000
0000
,
1000
0000
0001
0000
,
1000
0000
0000
0000
,
0001
0000
1000
0000
,
0001
0000
0000
0000
,
0001
0000
0000
0000
,
0001
0000
0000
0000
,
1000
1000
1000
0000
,
0001
0000
0000
0000
,
0001
0000
0000
0000
,
1000
0000
0000
0000
,
1000
0000
0000
0000
,
0010
0000
0000
0000
,
0000
0010
0010
0010
,
0000
0000
0000
0000
,
0010
0000
0000
0000
,
0100
0000
0000
0000
,
0100
0000
0000
0000
,
0100
0000
0000
0100
,
0100
0000
0000
0100
,
0100
0000
0000
0001
,
0000
0000
0000
0000
,
1000
0000
0000
0000
,
0100
0000
0000
0000
,
0100
0000
0000
0000
,
0010
0000
0000
0000
,
0010
0000
0000
0000
,
0001
0000
0001
0000
,
0001
0000
0001
0000
,
1000
0000
1000
0000
,
1000
0000
1000
0000
,
0020
0000
0030
0000
,
0110
0000
0000
0000
,
0001
0000
1000
0000
,
0001
0000
0000
0000
,
1000
0000
0001
0000
,
1000
0000
0000
0000
,
0001
0000
1000
0000
,
0001
0000
0000
0000
,
1000
0001
1000
1001
;

//---------------dance-double - Telperion----------------
#NOTES:
     dance-double:
     Telperion:
     Medium:
     6:
     0.404901,0.394644,0.201253,0.285108,0.075470,280.000000,24.000000,34.000000,0.000000,0.000000,0.000000,0.404901,0.394644,0.201253,0.285108,0.075470,280.000000,24.000000,34.000000,0.000000,0.000000,0.000000:
00000000
00000000
00000000
00000000
,
00000000
00000000
00000000
00000000
,
00000000
00000000
00000000
00000000
,
00000000
00000000
00000000
00000000
,
00000000
00000000
00000000
00000000
,
00000000
00000000
00000000
00000000
,
00200000
00000000
00301000
00010000
00001000
00100000
00100000
00000000
,
01000000
00000000
10000000
01000000
00010000
00000000
00001000
00000000
,
00200000
00000000
00301000
00010000
00000010
00001000
00000020
00000030
,
00000100
00000000
00000001
00000100
00001000
00000000
00010000
00000000
,
00000010
00000010
00001000
00000010
00010000
00001000
00200000
00000000
,
01000000
00310000
00020000
10030000
,
20000000
30100000
00200000
00310000
,
00020000
00000000
00031000
00000000
00010000
00001000
00010000
00000100
,
00000020
00000001
00001030
00010000
,
00200000
10000000
00310000
00100000
,
20000000
01000000
30010000
00100000
,
00002000
00010000
02003000
03000000
,
00200000
10000000
00310000
00001000
,
00000020
00000001
00001030
00010000
,
00000200
00001000
00000310
00000001
,
00000200
00000001
00000310
00000100
,
00000002
00000000
00000000
00000100
00000000
00000100
00001003
00000000
,
00000011
00001100
00010010
00011000
,
00001000
00000000
00100000
00001000
00020000
00000000
00030000
00000000
,
00010010
00011000
00101000
00110000
,
10000000
00000000
01000000
00100000
00020000
00000000
00030000
00000000
,
10000000
00000000
01000000
10000000
01000000
00000000
00010000
01000000
,
00010000
00000000
00001000
00010000
00001000
00000000
00000100
00000001
,
00000001
00000000
00000010
00000100
00001000
00000000
00000010
00000000
,
00001000
00000100
00000010
00000100
00020000
00000000
00031000
00000000
,
00100000
00000000
00000000
00010000
00000000
00000000
02000000
00000000
00000000
00000000
00000000
00000000
03000000
00000000
00000000
00000000
,
00011000
00000000
00000000
00000100
00000000
00000000
00001000
00000000
00000001
00000000
00000000
00000000
00001000
00000000
00000000
00000000
,
00000010
00000000
00000000
00001000
00000000
00000000
00000100
00000000
00000000
00000000
00000000
00000000
00010000
00000000
00000000
00000000
,
00011000
00000000
00000000
00000000
00001000
00000000
00000000
00000000
01000000
00000000
00000000
00010000
00000000
00000000
01000000
00000000
,
00100000
00000000
00000000
00100000
00000000
00000000
00100000
00000000
00000000
00000000
10000000
00000000
00010000
00000000
10000000
00000000
,
00010000
01000000
00000100
00010000
,
00000010
00000000
00000000
00000010
00000000
00000000
00000010
00000000
00000000
00000000
00000000
00000000
00001000
00000000
00000000
00000000
,
00000001
00000010
00000100
00011000
,
00001000
00000000
00001000
00000000
01000000
00010000
00100000
00000000
,
01000000
10000000
00200000
00000000
10300000
01000000
00100000
00000000
,
00001000
00000000
00000000
00001000
00000000
00000000
00010000
00000000
00000000
00010000
00000000
00000000
00001000
00000000
00000000
00000000
,
00010000
00000000
00000000
00010000
00000000
00000000
00001000
00000000
00000000
00001000
00000000
00000000
00010000
00000000
00000000
00000000
,
00000010
00000010
00001000
00000101
,
00000001
00000100
00000002
00000000
00001003
00000100
00001000
00000000
,
00000010
00000100
00000020
00000000
00001030
00000010
00010000
00000000
,
00011000
00100000
00011000
01000000
,
00001000
00000000
00000000
00001000
00100000
00000000
00001000
00000000
00000000
01000000
00000000
00001000
00010000
00000000
00000000
00000000
,
00011000
00000010
00011000
00000100
,
00010000
00000000
00000000
00000010
00000000
00000010
00010000
00000000
00000100
00000000
00010000
00000000
00001000
00000000
00000000
00000000
,
00100000
00000000
11000000
00000000
00010000
00000000
10000000
01000000
,
00100000
00000000
00011000
00000000
00000010
00000000
00010000
00000010
,
00001000
00000000
00000101
00000000
00001000
00000000
00000100
00010000
,
00001000
00000000
00000000
00100000
00000000
00000000
00001000
00000000
00000000
00000000
00010000
00000000
00000010
00000000
00000000
00000000
,
00020000
00001000
01030000
00000000
,
00011000
00000000
00010100
00000000
00000100
00001000
00000100
00000010
,
00000001
00000000
00000010
00000001
00000010
00001000
00010000
00000000
,
00101000
00000000
00011000
00000000
00001000
01000000
00010000
01000000
,
00100000
00000000
10000000
00100000
00010000
00001000
00010000
00000000
,
00000020
00200030
00302000
00023000
,
00030100
00000000
00001000
00000100
00000010
00000100
00010000
00001000
,
02000000
03000200
00020300
00032000
,
01003000
00000000
00000000
00000000
00001000
00010000
00001000
00010000
00001000
00000000
00000000
00000000
00011000
00000000
00000000
00000000
;

//---------------dance-double - Telperion----------------
#NOTES:
     dance-double:
     Telperion:
     Easy:
     3:
     0.233597,0.236787,0.025157,0.159325,0.000000,173.000000,3.000000,19.000000,0.000000,0.000000,0.000000,0.233597,0.236787,0.025157,0.159325,0.000000,173.000000,3.000000,19.000000,0.000000,0.000000,0.000000:
00000000
00000000
00000000
00000000
,
00000000
00000000
00000000
00000000
,
00000000
00000000
00000000
00000000
,
00000000
00000000
00000000
00000000
,
00000000
00000000
00000000
00000000
,
00000000
00000000
00000000
00000000
,
00200000
00000000
00000000
00300000
,
00001000
00001000
00020000
00030000
,
00000020
00000000
00000000
00000030
,
00010000
00010000
00002000
00003000
,
00200000
00000000
00010000
00000000
,
00302000
00000000
00100000
00000000
,
00023000
00000000
00000100
00000000
,
00001000
00000000
00030010
00000000
,
00001000
00001000
00000001
00000000
,
00000010
00000100
00000010
00000000
,
00000001
00000001
00001000
00000000
,
00000010
00010000
00001000
00000000
,
00100000
00010000
10000000
00000000
,
00100000
01000000
00100000
00000000
,
10000000
10000000
00010000
00000000
,
00100000
00001000
00010000
00000000
,
00001000
00000000
00000000
00001000
00000000
00000000
00011000
00000000
,
00100000
00001000
00010000
00001000
,
02000000
00010000
03002000
00003000
,
00100000
00001000
00010000
00001000
,
02000000
00010000
03002000
00003000
,
00100000
00000000
01000000
00100000
,
00010000
00000000
10000000
00100000
,
01000000
00000000
00010000
01000000
,
00001000
00010000
00001000
00000000
,
00200000
00000000
00000000
00300000
,
00001000
00001000
00010000
00010000
,
00000020
00000000
00000000
00000030
00000000
00000000
00001000
00000000
,
00000001
00001000
00000001
00000000
00000000
00000000
00001000
00000000
,
00000001
00000001
00000010
00000010
,
00001000
00000000
00000000
00000000
,
00010000
00010000
00100000
00100000
,
10000000
00010000
20000000
30000000
,
01000000
10000000
00010000
00000000
,
10000000
01000000
00010000
00000000
,
00001000
00010000
00001000
00000000
,
00010000
00001000
00010000
00000000
,
00001000
00000100
00000001
00000000
,
00001000
00000001
00000010
00000000
,
00000100
00000010
00000100
00010000
,
00001000
00000000
01000000
00001000
,
00010000
00000000
00000100
00010000
,
00001000
00000000
00100000
00001000
,
00010000
00000000
00000000
00000000
00000010
00010000
00001000
00000000
,
00010000
01000000
00010000
00010000
,
00001000
00000100
00001000
00001000
,
00010000
00100000
00010000
00010000
,
00001000
00100000
00001000
00010000
,
00000000
00000000
01000100
00000000
,
00000010
00010000
00001000
00010000
,
00000200
00001000
00020300
00030000
,
00000010
00010000
00001000
00010000
,
00000200
00001000
00020300
00030000
,
00000010
00000100
00000001
00000100
,
00000020
00001000
00000130
00000000
,
00000001
00000010
00000100
00010000
,
00001000
00100000
00001000
00011000
;
